<?xml version="1.0" standalone="no"?>
<!DOCTYPE svg PUBLIC "-//W3C//DTD SVG 1.1//EN" "http://www.w3.org/Graphics/SVG/1.1/DTD/svg11.dtd">
<svg xmlns="http://www.w3.org/2000/svg">
<defs >
<font id="FiraMono" horiz-adv-x="600" ><font-face
    font-family="Fira Mono"
    units-per-em="1000"
    panose-1="2 11 6 9 5 0 0 2 0 4"
    ascent="935"
    descent="-265"
    alphabetic="0" />
<glyph unicode=" " glyph-name="space" />
<glyph unicode="!" glyph-name="exclam" d="M347 238H252L238 690H360L347 238ZM332 138T353 116T375 63Q375 31 354 9T299 -13Q267 -13 246 9T224 63Q224 94 246 116T299 138Q332 138 353 116Z" />
<glyph unicode="&quot;" glyph-name="quotedbl" d="M151 740H273L256 473H167L151 740ZM327 740H449L433 473H344L327 740Z" />
<glyph unicode="#" glyph-name="numbersign" d="M443 240H517V160H432L411 0H318L339 160H212L191 0H97L118 160H46V240H128L157 452H83V533H168L189 690H283L261 533H388L409 690H503L481 533H554V452H471L443 240ZM349 240L378 452H250L222 240H349Z" />
<glyph unicode="$" glyph-name="dollar" d="M347 702Q404 696 452 675T535 622L475 559Q418 608 347 616V409Q442 378 494 329T546 195Q546 116 494 60T347 -9V-156H274V-12Q207 -8 153 18T59 82L119 150Q191 81 274 76V326Q177 358 131 405T84 522Q84 592 134
642T274 701V851H347V702ZM236 608T215 586T193 529Q193 497 210 476T274 434V615Q236 608 215 586ZM347 79Q433 97 433 187Q433 225 414 251T347 300V79Z" />
<glyph unicode="%" glyph-name="percent" d="M540 675L116 -23L52 12L475 710L540 675ZM226 704T265 659T304 545Q304 476 265 431T159 385Q92 385 53 430T13 545Q13 613 52 658T159 704Q226 704 265 659ZM130 637T115 614T100 545Q100 501 115 476T159 451Q187
451 202 474T217 545Q217 637 159 637Q130 637 115 614ZM510 313T549 268T588 154Q588 85 549 40T443 -6Q376 -6 337 39T297 154Q297 222 336 267T443 313Q510 313 549 268ZM384 246T384 154Q384 109 399 85T443 60Q501 60 501 154Q501 246 443 246Q384 246 384
154Z" />
<glyph unicode="&amp;" glyph-name="ampersand" d="M333 703T375 686T456 627L393 570Q367 598 343 610T285 623Q240 623 216 598T192 530Q192 486 224 456T304 425H575V345H495V77Q416 -13 278 -13Q203 -13 151 15T74 91T48 196Q48 274 87 322T202 388V391Q141
406 112 444T83 537Q83 583 107 620T176 680T279 703Q333 703 375 686ZM292 345Q247 345 217 324T172 271T157 202Q157 146 189 109T283 72Q318 72 346 83T392 115V345H292Z" />
<glyph unicode="&apos;" glyph-name="quotesingle" d="M239 740H361L344 473H256L239 740Z" />
<glyph unicode="(" glyph-name="parenleft" d="M231 255T252 183T316 48T435 -87L374 -147Q244 -39 180 75T116 350Q116 510 180 624T374 847L435 787Q361 716 318 654T253 518T231 350Q231 255 252 183Z" />
<glyph unicode=")" glyph-name="parenright" d="M369 445T348 518T283 653T165 787L226 847Q356 739 420 625T484 350Q484 190 420 76T226 -147L165 -87Q240 -15 283 48T348 183T369 350Q369 445 348 518Z" />
<glyph unicode="*" glyph-name="asterisk" d="M334 369L480 432L511 335L357 303L465 187L382 124L300 262L224 122L138 182L244 303L89 335L120 432L265 369L248 528H352L334 369Z" />
<glyph unicode="+" glyph-name="plus" d="M348 356H497V267H348V115H250V267H103V356H250V508H348V356Z" />
<glyph unicode="," glyph-name="comma" d="M339 180T365 154T392 90Q392 68 386 46T363 -11L286 -188H199L247 15Q230 27 220 47T209 90Q209 128 235 154T300 180Q339 180 365 154Z" />
<glyph unicode="-" glyph-name="hyphen" d="M119 359H481V267H119V359Z" />
<glyph unicode="." glyph-name="period" d="M203 124T231 152T299 180Q340 180 368 152T396 84Q396 43 368 15T299 -13Q259 -13 231 15T203 84Q203 124 231 152Z" />
<glyph unicode="/" glyph-name="slash" d="M44 -66L468 812L556 771L133 -106L44 -66Z" />
<glyph unicode="0" glyph-name="zero" d="M415 704T475 612T535 346Q535 173 475 80T300 -13Q185 -13 125 80T65 346Q65 519 125 611T300 704Q415 704 475 612ZM240 618T209 553T178 346Q178 202 209 137T300 72Q360 72 391 137T422 346Q422 489 391 553T300 618Q240
618 209 553ZM328 410T347 391T366 345Q366 317 347 298T300 279Q272 279 254 298T235 345Q235 372 253 391T300 410Q328 410 347 391Z" />
<glyph unicode="1" glyph-name="one" d="M530 88V0H113V88H281V575L129 482L81 560L293 690H392V88H530Z" />
<glyph unicode="2" glyph-name="two" d="M340 704T389 678T465 608T491 509Q491 448 463 391T372 264T194 90H507L495 0H66V85Q196 210 260 280T350 401T376 502Q376 554 346 584T264 614Q219 614 188 598T124 542L52 598Q93 651 146 677T272 704Q340 704 389 678Z" />
<glyph unicode="3" glyph-name="three" d="M337 704T387 681T464 617T491 529Q491 467 453 424T354 367Q424 360 468 317T513 197Q513 138 482 90T394 15T263 -13Q196 -13 137 11T39 83L108 143Q136 109 175 92T257 75Q322 75 359 109T397 201Q397 322 263 322H204L217
404H259Q311 404 345 432T380 513Q380 562 347 589T261 617Q219 617 185 602T118 555L59 619Q147 704 270 704Q337 704 387 681Z" />
<glyph unicode="4" glyph-name="four" d="M538 159H456V0H348V159H62V237L260 704L354 667L179 246H349L360 430H456V246H538V159Z" />
<glyph unicode="5" glyph-name="five" d="M483 606H218V414Q271 441 331 441Q386 441 429 415T497 340T522 222Q522 153 491 100T404 17T274 -13Q147 -13 63 77L129 140Q188 75 269 75Q333 75 369 113T405 222Q405 294 375 326T292 359Q268 359 246 354T194 336H111V690H498L483
606Z" />
<glyph unicode="6" glyph-name="six" d="M396 454T440 429T510 354T536 233Q536 160 507 104T426 18T308 -13Q184 -13 126 76T68 321Q68 436 100 522T195 656T341 704Q420 704 483 662L440 590Q394 619 341 619Q271 619 229 554T183 373Q244 454 341 454Q396 454
440 429ZM365 72T394 114T423 228Q423 371 318 371Q278 371 244 350T184 290Q186 177 215 125T309 72Q365 72 394 114Z" />
<glyph unicode="7" glyph-name="seven" d="M138 20L402 602H86V690H515V610L243 -12L138 20Z" />
<glyph unicode="8" glyph-name="eight" d="M515 477T487 441T401 372Q470 341 506 294T543 186Q543 130 514 85T429 13T298 -13Q222 -13 168 13T85 83T57 183Q57 301 191 361Q135 390 110 426T85 520Q85 579 115 620T195 683T300 704Q359 704 407 684T485 623T515
526Q515 477 487 441ZM193 486T208 465T250 431T325 400Q369 427 388 454T407 520Q407 567 379 594T300 622Q249 622 221 595T193 519Q193 486 208 465ZM428 225T409 250T358 292T263 330Q172 283 172 187Q172 133 204 103T299 72Q361 72 394 103T428 185Q428 225
409 250Z" />
<glyph unicode="9" glyph-name="nine" d="M408 703T468 631T528 433Q528 293 488 205T365 64T140 -24L115 57Q254 94 327 155T410 321Q346 248 255 247Q199 247 154 274T84 351T58 468Q58 541 88 594T172 675T292 703Q408 703 468 631ZM322 332T353 350T412 402Q414
519 387 568T291 618Q233 618 203 580T172 468Q172 397 201 364T283 331Q322 332 353 350Z" />
<glyph unicode=":" glyph-name="colon" d="M210 469T236 495T299 522Q337 522 363 496T389 432Q389 395 363 369T299 342Q262 342 236 368T210 432Q210 469 236 495ZM210 114T236 140T299 166Q338 166 363 140T389 77Q389 39 364 13T299 -13Q262 -13 236 13T210
77Q210 114 236 140Z" />
<glyph unicode=";" glyph-name="semicolon" d="M337 522T363 496T389 432Q389 395 363 369T299 342Q262 342 236 368T210 432Q210 469 236 495T299 522Q337 522 363 496ZM338 178T363 152T389 88Q389 67 383 45T362 -11L285 -187H199L247 14Q230 26 220 46T210
88Q210 126 235 152T299 178Q338 178 363 152Z" />
<glyph unicode="&lt;" glyph-name="less" d="M520 520L177 313L520 107L465 26L81 265V362L468 601L520 520Z" />
<glyph unicode="=" glyph-name="equal" d="M507 364H93V456H507V364ZM507 167H93V258H507V167Z" />
<glyph unicode="&gt;" glyph-name="greater" d="M520 362V265L136 26L81 106L423 313L81 518L133 601L520 362Z" />
<glyph unicode="?" glyph-name="question" d="M363 704T410 682T483 623T508 544Q508 505 495 478T462 433T411 392Q382 371 365 356T337 319T325 267V238H218V272Q218 315 232 345T267 395T320 439Q357 467 374 486T391 536Q391 572 362 592T287 613Q251 613
216 596T152 544L77 602Q165 704 298 704Q363 704 410 682ZM306 138T328 116T350 63Q350 31 328 9T274 -13Q242 -13 221 9T199 63Q199 94 221 116T274 138Q306 138 328 116Z" />
<glyph unicode="@" glyph-name="at" d="M458 704T524 592T591 289Q591 155 579 73T533 -50T440 -92Q402 -92 376 -70T336 -16T321 49H317Q300 7 266 -20T179 -47Q99 -47 62 15T24 182Q24 310 76 377T227 444Q303 444 378 404V107Q378 40 393 14T437 -13Q462 -13
473 21T488 113T491 285Q491 394 475 466T412 580T283 621Q227 621 172 601T59 529L5 592Q133 704 285 704Q458 704 524 592ZM172 368T150 325T128 182Q128 106 143 68T196 30Q235 30 253 53T282 111V355Q256 368 228 368Q172 368 150 325Z" />
<glyph unicode="A" glyph-name="A" d="M175 166L127 0H8L228 690H372L592 0H469L421 166H175ZM397 256L298 600L199 256H397Z" />
<glyph unicode="B" glyph-name="B" d="M552 92T476 46T283 0H81V690H270Q380 690 451 650T522 515Q522 455 486 417T394 366Q462 354 507 316T552 199Q552 92 476 46ZM404 557T373 580T280 603H197V404H287Q346 404 375 428T404 506Q404 557 373 580ZM431 264T395
290T295 317H197V90H291Q431 90 431 199Q431 264 395 290Z" />
<glyph unicode="C" glyph-name="C" d="M426 704T474 687T566 634L506 562Q443 613 363 613Q279 613 226 549T173 346Q173 210 225 146T364 81Q414 81 449 96T520 140L576 69Q492 -13 360 -13Q271 -13 201 28T92 151T52 346Q52 458 92 539T203 662T358 704Q426
704 474 687Z" />
<glyph unicode="D" glyph-name="D" d="M561 153T470 77T240 0H71V690H229Q379 690 470 618T561 349Q561 153 470 77ZM439 497T388 549T251 601H187V88H252Q439 88 439 349Q439 497 388 549Z" />
<glyph unicode="E" glyph-name="E" d="M229 394H479V307H229V88H534V0H113V690H528L515 602H229V394Z" />
<glyph unicode="F" glyph-name="F" d="M243 382H503V294H243V0H127V690H551L539 602H243V382Z" />
<glyph unicode="G" glyph-name="G" d="M184 -13T111 78T37 346Q37 460 77 541T186 663T338 704Q405 704 452 685T543 624L478 557Q446 586 414 599T341 613Q261 613 210 549T158 346Q158 204 198 141T323 77Q387 77 437 106V296H320L308 385H550V50Q497 20 442
4T318 -13Q184 -13 111 78Z" />
<glyph unicode="H" glyph-name="H" d="M413 314H187V0H71V690H187V409H413V690H529V0H413V314Z" />
<glyph unicode="I" glyph-name="I" d="M508 602H358V89H508V0H92V89H242V602H92V690H508V602Z" />
<glyph unicode="J" glyph-name="J" d="M508 237Q508 128 446 58T256 -13Q147 -13 60 51L107 124Q146 99 181 89T252 78Q317 78 354 120T392 239V601H185V690H508V237Z" />
<glyph unicode="K" glyph-name="K" d="M88 0V690H204V0H88ZM448 690H576L335 376L595 0H456L209 369L448 690Z" />
<glyph unicode="L" glyph-name="L" d="M120 690H235V97H545L532 0H120V690Z" />
<glyph unicode="M" glyph-name="M" d="M575 0H468L452 336Q449 402 449 463Q449 542 452 588L350 122H249L140 588Q144 537 144 431Q144 367 143 335L129 0H25L64 690H203L302 228L396 690H536L575 0Z" />
<glyph unicode="N" glyph-name="N" d="M158 587Q174 423 174 313V0H71V690H222L442 103Q435 177 431 236T426 376V690H529V0H378L158 587Z" />
<glyph unicode="O" glyph-name="O" d="M562 181T495 84T300 -13Q173 -13 106 82T38 344Q38 508 105 606T300 704Q427 704 494 608T562 345Q562 181 495 84ZM443 481T409 547T300 613Q225 613 191 547T157 344Q157 209 191 143T300 77Q375 77 409 143T443 345Q443
481 409 547Z" />
<glyph unicode="P" glyph-name="P" d="M564 357T492 302T295 246H211V0H96V690H287Q420 690 492 636T564 473Q564 357 492 302ZM443 603T295 603H211V334H296Q366 334 404 366T443 473Q443 603 295 603Z" />
<glyph unicode="Q" glyph-name="Q" d="M562 232T529 153T418 32Q495 17 538 -19T608 -133L501 -173Q478 -116 452 -82T387 -29T290 -11Q169 -11 105 83T40 344Q40 509 107 606T301 704Q428 704 495 608T562 345Q562 232 529 153ZM441 482T409 547T301 613Q226
613 194 547T161 344Q161 208 194 143T301 77Q376 77 408 142T441 345Q441 482 409 547Z" />
<glyph unicode="R" glyph-name="R" d="M546 418T503 370T389 300L585 0H450L276 284H201V0H85V690H277Q546 690 546 490Q546 418 503 370ZM425 550T391 577T284 604H201V369H287Q355 369 390 398T425 490Q425 550 391 577Z" />
<glyph unicode="S" glyph-name="S" d="M549 133T518 86T427 13T285 -13Q125 -13 31 79L95 150Q173 78 285 78Q347 78 387 107T428 189Q428 220 416 241T373 278T287 312Q172 346 118 393T64 517Q64 572 94 614T179 680T301 704Q440 704 532 621L471 552Q400 613
308 613Q252 613 218 590T183 524Q183 497 197 478T246 444T344 409Q444 379 496 332T549 195Q549 133 518 86Z" />
<glyph unicode="T" glyph-name="T" d="M357 0H241V596H33V690H568L556 596H357V0Z" />
<glyph unicode="U" glyph-name="U" d="M539 226Q539 156 511 102T428 18T299 -13Q186 -13 124 52T61 226V690H177V248Q177 162 206 121T299 79Q363 79 392 120T422 248V690H539V226Z" />
<glyph unicode="V" glyph-name="V" d="M467 690H585L366 0H234L15 690H139L302 110L467 690Z" />
<glyph unicode="W" glyph-name="W" d="M503 0H367L299 511L228 0H90L2 690H114L168 112L242 610H361L430 112L494 690H598L503 0Z" />
<glyph unicode="X" glyph-name="X" d="M167 690L300 442L435 690H558L367 373L580 0H451L298 293L144 0H21L229 367L38 690H167Z" />
<glyph unicode="Y" glyph-name="Y" d="M358 0H242V263L11 690H139L302 363L467 690H589L358 264V0Z" />
<glyph unicode="Z" glyph-name="Z" d="M540 96L528 0H59V90L410 596H95V690H538V599L192 96H540Z" />
<glyph unicode="[" glyph-name="bracketleft" d="M173 818H446V729H279V-30H446V-118H173V818Z" />
<glyph unicode="\" glyph-name="backslash" d="M132 812L556 -66L467 -106L44 771L132 812Z" />
<glyph unicode="]" glyph-name="bracketright" d="M427 -118H154V-29H321V729H154V818H427V-118Z" />
<glyph unicode="^" glyph-name="asciicircum" d="M539 527H424L299 750L176 527H61L250 841H350L539 527Z" />
<glyph unicode="_" glyph-name="underscore" d="M50 -91H550V-183H50V-91Z" />
<glyph unicode="`" glyph-name="grave" d="M176 715L228 805L425 681L391 622L176 715Z" />
<glyph unicode="a" glyph-name="a" d="M493 99T502 85T533 63L507 -13Q424 -3 398 60Q369 24 326 6T230 -13Q150 -13 103 32T56 151Q56 234 121 279T307 324H382V358Q382 408 352 431T265 454Q237 454 200 447T125 427L97 506Q192 542 282 542Q387 542 440 496T493
365V129Q493 99 502 85ZM298 69T330 87T382 137V254H320Q244 254 209 229T174 155Q174 113 196 91T263 69Q298 69 330 87Z" />
<glyph unicode="b" glyph-name="b" d="M228 502T265 522T346 542Q447 542 495 469T543 265Q543 141 488 64T332 -13Q244 -13 194 52L188 0H89V740L201 753V465Q228 502 265 522ZM363 72T393 119T424 264Q424 364 397 410T315 456Q281 456 252 435T201 380V133Q241
72 305 72Q363 72 393 119Z" />
<glyph unicode="c" glyph-name="c" d="M407 79T474 124L525 52Q490 22 441 5T340 -13Q219 -13 151 61T83 261Q83 342 114 405T203 505T342 542Q447 542 525 478L473 408Q409 452 344 452Q278 452 240 405T202 261Q202 167 240 123T344 79Q407 79 474 124Z" />
<glyph unicode="d" glyph-name="d" d="M511 740V0H412L404 65Q378 27 340 7T256 -13Q157 -13 107 61T57 264Q57 345 82 408T155 506T266 542Q347 542 399 484V753L511 740ZM237 456T207 409T176 264Q176 72 286 72Q352 72 399 148V397Q358 456 295 456Q237 456 207 409Z" />
<glyph unicode="e" glyph-name="e" d="M187 151T226 113T326 74Q363 74 396 85T465 120L513 52Q476 21 426 4T321 -13Q200 -13 133 62T66 264Q66 343 95 406T179 506T307 542Q412 542 473 472T535 278Q535 248 532 228H182Q187 151 226 113ZM254 459T220 420T181
304H426Q424 379 394 419T308 459Q254 459 220 420Z" />
<glyph unicode="f" glyph-name="f" d="M496 753T568 722L534 644Q483 666 421 666Q369 666 344 646T319 584V490H496L483 407H319V0H207V407H87V490H207V585Q207 635 232 673T304 732T410 753Q496 753 568 722Z" />
<glyph unicode="g" glyph-name="g" d="M563 502Q534 492 498 489T410 485Q458 463 482 430T506 350Q506 298 481 258T408 195T297 172Q252 172 225 181Q214 173 208 162T202 137Q202 97 267 97H359Q415 97 459 78T527 26T552 -50Q552 -129 484 -172T288 -216Q199
-216 148 -198T75 -144T53 -52H153Q153 -82 164 -99T205 -125T289 -134Q369 -134 404 -115T439 -57Q439 -25 412 -8T337 10H246Q175 10 139 39T102 112Q102 139 117 164T160 207Q113 232 92 267T70 355Q70 410 98 452T176 518T290 542Q376 541 426 554T534 595L563
502ZM238 464T211 435T184 355Q184 304 211 275T292 245Q342 245 368 274T394 357Q394 464 291 464Q238 464 211 435Z" />
<glyph unicode="h" glyph-name="h" d="M201 463Q233 502 275 522T365 542Q438 542 475 502T512 385V0H400V368Q400 415 382 435T324 456Q289 456 257 434T201 378V0H89V739L201 751V463Z" />
<glyph unicode="i" glyph-name="i" d="M332 787T352 767T373 716Q373 686 353 666T300 646Q267 646 247 666T227 716Q227 747 247 767T300 787Q332 787 352 767ZM377 82H521V0H108V82H265V446H113V528H377V82Z" />
<glyph unicode="j" glyph-name="j" d="M401 787T421 767T441 716Q441 686 421 666T368 646Q336 646 316 666T295 716Q295 746 315 766T368 787Q401 787 421 767ZM455 111Q455 -32 368 -108T104 -216L86 -130Q214 -106 278 -53T343 104V446H135V528H455V111Z" />
<glyph unicode="k" glyph-name="k" d="M204 0H92V740L204 753V0ZM341 292L576 0H439L212 289L424 528H554L341 292Z" />
<glyph unicode="l" glyph-name="l" d="M321 144Q321 77 401 77Q441 77 485 95L513 17Q458 -13 377 -13Q298 -13 254 31T209 154V658H50V740H321V144Z" />
<glyph unicode="m" glyph-name="m" d="M502 542T530 508T558 392V0H459V377Q459 421 453 438T424 455Q382 455 346 402V0H255V377Q255 421 249 438T220 455Q178 455 142 402V0H42V528H126L134 471Q159 506 185 524T247 542Q317 542 337 475Q361 507 389 524T453
542Q502 542 530 508Z" />
<glyph unicode="n" glyph-name="n" d="M89 528H186L194 459Q227 499 271 520T365 542Q438 542 475 501T512 385V0H400V329Q400 378 395 404T373 443T325 456Q289 456 257 434T201 379V0H89V528Z" />
<glyph unicode="o" glyph-name="o" d="M415 542T477 468T539 265Q539 137 476 62T300 -13Q186 -13 124 60T61 264Q61 390 124 466T301 542Q415 542 477 468ZM240 455T210 408T179 264Q179 166 209 120T300 73Q361 73 391 120T421 265Q421 362 391 408T301 455Q240
455 210 408Z" />
<glyph unicode="p" glyph-name="p" d="M539 542T539 265Q539 140 486 64T335 -13Q252 -13 201 45V-203L89 -216V528H186L193 460Q223 500 262 521T347 542Q539 542 539 265ZM281 456T252 435T201 380V133Q240 74 305 74Q363 74 392 120T421 264Q421 365 395 410T316
456Q281 456 252 435Z" />
<glyph unicode="q" glyph-name="q" d="M355 542T407 476L414 528H511V-216L399 -203V58Q345 -13 255 -13Q155 -13 108 59T61 264Q61 388 115 465T267 542Q355 542 407 476ZM179 456T179 264Q179 165 205 120T285 74Q321 74 349 94T399 148V397Q359 456 295 456Q179
456 179 264Z" />
<glyph unicode="r" glyph-name="r" d="M504 541T543 528L524 333H444V441Q389 440 349 397T284 276V80H390V0H94V80H172V448H94V528H257L277 406Q308 474 352 507T463 541Q504 541 543 528Z" />
<glyph unicode="s" glyph-name="s" d="M334 72T364 91T395 143Q395 166 386 180T350 207T269 234Q182 256 139 290T95 390Q95 459 152 500T306 542Q423 542 507 481L459 410Q388 457 309 457Q209 457 209 399Q209 379 220 366T260 342T343 315Q429 291 471 256T514
151Q514 70 447 29T281 -13Q150 -13 64 61L123 129Q156 103 196 88T281 72Q334 72 364 91Z" />
<glyph unicode="t" glyph-name="t" d="M500 9T460 -2T376 -13Q286 -13 237 33T188 160V446H71V528H188V646L300 659V528H479L466 446H300V161Q300 118 322 98T392 77Q445 77 490 102L530 28Q500 9 460 -2Z" />
<glyph unicode="u" glyph-name="u" d="M201 159Q201 113 219 93T276 72Q312 72 345 93T399 146V528H511V0H414L407 68Q379 29 334 8T241 -13Q165 -13 127 28T89 145V528H201V159Z" />
<glyph unicode="v" glyph-name="v" d="M365 0H235L48 528H169L302 93L437 528H552L365 0Z" />
<glyph unicode="w" glyph-name="w" d="M362 0L302 375L238 0H101L12 528H120L175 70L249 461H361L429 70L484 528H588L502 0H362Z" />
<glyph unicode="x" glyph-name="x" d="M43 0L233 278L64 528H193L301 342L409 528H532L367 283L557 0H426L296 216L167 0H43Z" />
<glyph unicode="y" glyph-name="y" d="M369 -2Q337 -98 277 -152T110 -216L96 -132Q148 -124 180 -108T231 -66T265 0H227L49 528H168L301 78L436 528H551L369 -2Z" />
<glyph unicode="z" glyph-name="z" d="M508 90L496 0H91V82L372 438H113V528H504V446L225 90H508Z" />
<glyph unicode="{" glyph-name="braceleft" d="M457 754Q400 754 370 738T344 681L362 497Q363 488 363 472Q363 417 334 389T246 350Q306 340 334 313T363 230Q363 212 362 203L344 19Q340 -22 370 -38T457 -54V-137Q352 -137 296 -105T239 6Q239 21 240 29L259
202Q260 207 260 218Q260 264 226 284T113 305V395Q192 395 226 415T260 482Q260 492 259 497L240 670Q239 678 239 693Q239 771 295 804T457 837V754Z" />
<glyph unicode="|" glyph-name="bar" d="M351 -103H248V808H351V-103Z" />
<glyph unicode="}" glyph-name="braceright" d="M248 837T304 805T361 694Q361 679 360 671L341 497L340 483Q340 437 375 416T487 395V305Q411 305 376 284T340 216L341 202L360 30Q361 22 361 7Q361 -71 305 -104T143 -137V-54Q200 -54 230 -38T256 19L238 203Q237
212 237 229Q237 285 267 312T361 349Q298 360 268 388T237 472Q237 488 238 497L256 681Q260 721 230 737T143 754V837Q248 837 304 805Z" />
<glyph unicode="~" glyph-name="asciitilde" d="M241 412T267 397T326 353Q351 331 366 322T399 312Q427 312 450 333T494 394L565 360Q533 295 495 258T396 221Q361 221 335 236T277 279Q253 300 237 310T201 321Q172 321 150 300T106 239L35 273Q67 337 105
374T204 412Q241 412 267 397Z" />
<glyph unicode="&#xa0;" glyph-name="uni00A0" />
<glyph unicode="&#xa1;" glyph-name="exclamdown" d="M331 504T353 482T375 427Q375 396 353 374T299 352Q268 352 246 374T224 427Q224 459 246 481T299 504Q331 504 353 482ZM362 -200H238L253 252H346L362 -200Z" />
<glyph unicode="&#xa2;" glyph-name="cent" d="M380 537Q450 528 504 482L452 412Q422 434 397 443T342 452Q281 452 248 405T215 261Q215 79 342 79Q371 79 396 88T452 121L504 46Q451 1 380 -8V-156H291V-7Q196 7 146 77T96 261Q96 372 147 446T292 535V686H380V537Z" />
<glyph unicode="&#xa3;" glyph-name="sterling" d="M472 704T538 612L466 558Q443 588 417 601T355 615Q256 615 256 504V393H453V325H256V219Q256 174 243 142T193 90H527L513 0H62V85Q99 97 117 115T139 156T144 219V325H66V393H144V510Q144 566 168 610T239
679T349 704Q472 704 538 612Z" />
<glyph unicode="&#xa4;" glyph-name="currency" d="M179 524Q231 556 301 556Q371 556 421 524L506 610L567 549L483 465Q518 413 518 342Q518 272 482 218L567 134L506 74L420 158Q369 127 301 127Q232 127 179 158L94 72L33 133L119 219Q85 270 85 342Q85 412
118 464L33 550L94 611L179 524ZM244 473T214 439T184 342Q184 279 214 245T301 211Q358 211 387 245T417 342Q417 404 388 438T301 473Q244 473 214 439Z" />
<glyph unicode="&#xa5;" glyph-name="yen" d="M385 348H497V281H358V201H497V134H358V0H243V134H106V201H243V281H106V348H215L27 690H150L301 386H305L456 690H573L385 348Z" />
<glyph unicode="&#xa6;" glyph-name="brokenbar" d="M351 450H248V808H351V450ZM351 -103H248V255H351V-103Z" />
<glyph unicode="&#xa7;" glyph-name="section" d="M416 704T494 649L448 579Q417 600 386 610T317 620Q277 620 254 603T230 558Q230 537 239 524T274 498T351 468Q432 442 468 408T504 314Q504 274 482 242T424 187Q482 144 482 77Q482 8 426 -33T278 -75Q174
-75 99 -20L144 52Q176 31 208 20T278 9Q319 9 344 26T370 71Q370 92 361 105T326 131T248 161Q167 188 131 222T95 315Q95 354 118 386T177 441Q118 486 118 552Q118 597 144 631T215 685T318 704Q416 704 494 649ZM220 391T210 371T200 331Q200 304 212 289T255
261T360 221Q379 239 389 259T400 299Q400 324 388 339T345 367T240 408Q220 391 210 371Z" />
<glyph unicode="&#xa8;" glyph-name="dieresis" d="M164 644T145 662T126 707Q126 735 145 753T192 771Q219 771 237 753T256 707Q256 680 238 662T192 644Q164 644 145 662ZM381 644T362 662T343 707Q343 734 362 752T408 771Q436 771 454 753T473 707Q473 680
455 662T408 644Q381 644 362 662Z" />
<glyph unicode="&#xa9;" glyph-name="copyright" d="M387 751T450 709T546 594T579 431Q579 342 546 269T450 154T301 112Q214 112 151 154T54 268T21 431Q21 521 54 593T151 708T301 751Q387 751 450 709ZM197 694T143 620T88 431Q88 317 142 244T301 170Q404
170 458 243T513 431Q513 546 459 620T301 694Q197 694 143 620ZM343 624T370 614T423 582L383 529Q349 556 313 556Q275 556 252 526T229 432Q229 370 251 340T313 310Q356 310 391 342L428 288Q376 240 307 240Q232 240 187 290T142 432Q142 492 163 535T222
601T306 624Q343 624 370 614Z" />
<glyph unicode="&#xaa;" glyph-name="ordfeminine" d="M379 753T422 716T466 608V423Q466 402 473 391T498 374L475 307Q439 311 417 324T381 365Q356 337 321 322T247 306Q179 306 137 343T95 441Q95 508 152 545T312 582H369V605Q369 643 346 659T276 676Q254
676 222 670T156 652L129 722Q214 753 290 753Q379 753 422 716ZM321 515Q259 515 231 498T202 445Q202 412 220 395T274 378Q301 378 326 392T369 431V515H321ZM504 0H104V88H504V0Z" />
<glyph unicode="&#xab;" glyph-name="guillemotleft" d="M244 41L71 253V329L244 541L310 500L182 291L310 82L244 41ZM463 41L288 253V329L463 541L529 500L401 291L529 82L463 41Z" />
<glyph unicode="&#xac;" glyph-name="logicalnot" d="M497 123H399V269H103V360H497V123Z" />
<glyph unicode="&#xad;" glyph-name="uni00AD" d="M141 359H459V267H141V359Z" />
<glyph unicode="&#xae;" glyph-name="registered" d="M372 751T432 716T526 621T561 489Q561 417 527 358T432 264T300 229Q228 229 168 263T73 357T38 489Q38 561 73 621T168 716T300 751Q372 751 432 716ZM244 697T198 670T126 594T100 489Q100 432 126 385T197
310T300 283Q356 283 401 310T473 384T499 489Q499 546 473 594T402 669T300 697Q244 697 198 670ZM410 636T410 550Q410 520 393 500T347 471L429 353H357L287 460H260V353H198V636H284Q410 636 410 550ZM260 588V508H289Q346 508 346 550Q346 588 287 588H260Z"
/>
<glyph unicode="&#xaf;" glyph-name="overscore" d="M158 669V750H441V669H158Z" />
<glyph unicode="&#xb0;" glyph-name="degree" d="M279 753T318 734T380 677T404 591Q404 542 381 506T318 450T236 430Q193 430 154 449T91 506T67 592Q67 641 91 677T154 733T236 753Q279 753 318 734ZM201 681T178 658T154 592Q154 549 177 525T236 501Q271
501 294 524T318 591Q318 634 295 657T236 681Q201 681 178 658Z" />
<glyph unicode="&#xb1;" glyph-name="plusminus" d="M350 394H497V304H350V167H250V304H103V394H250V546H350V394ZM497 0H103V91H497V0Z" />
<glyph unicode="&#xb2;" glyph-name="uni00B2" d="M438 506T424 483T375 437T279 384H449L438 315H158V376Q241 424 279 449T331 492T346 530Q346 550 332 561T294 573Q245 573 209 530L151 573Q211 642 302 642Q366 642 402 613T438 537Q438 506 424 483Z" />
<glyph unicode="&#xb3;" glyph-name="uni00B3" d="M370 642T405 618T441 553Q441 525 425 509T371 485Q415 478 435 461T455 409Q455 364 413 337T297 309Q253 309 212 323T143 366L196 411Q239 374 298 374Q331 374 347 385T364 415Q364 436 349 445T301 455H252L261
506H298Q352 506 352 540Q352 578 299 578Q272 578 249 570T200 543L154 590Q219 642 307 642Q370 642 405 618Z" />
<glyph unicode="&#xb4;" glyph-name="acute" d="M428 722L209 633L176 692L381 811L428 722Z" />
<glyph unicode="&#xb5;" glyph-name="uni00B5" d="M499 176Q499 94 521 0L418 -13Q412 1 406 24T398 69Q374 32 339 10T267 -13Q231 -13 211 -2T169 37Q179 2 184 -23T189 -74V-203L80 -215V528H192V230Q192 174 197 143T218 95T268 78Q305 78 335 97T387 148V528H499V176Z"
/>
<glyph unicode="&#xb6;" glyph-name="paragraph" d="M566 -204L468 -215V606H367V-204L269 -215V280Q155 284 95 339T34 484Q34 543 63 590T149 663T287 690H566V-204Z" />
<glyph unicode="&#xb7;" glyph-name="middot" d="M203 382T231 410T299 438Q340 438 368 410T396 342Q396 301 368 273T299 245Q259 245 231 273T203 342Q203 382 231 410Z" />
<glyph unicode="&#xb8;" glyph-name="cedilla" d="M332 -119T311 -111T244 -103L254 16H324V-54Q372 -58 396 -82T421 -143Q421 -191 383 -219T288 -247Q257 -247 228 -240T179 -221L209 -163Q243 -180 275 -180Q332 -180 332 -142Q332 -119 311 -111Z" />
<glyph unicode="&#xb9;" glyph-name="uni00B9" d="M343 543L254 496L212 553L358 636H430V315H343V543Z" />
<glyph unicode="&#xba;" glyph-name="ordmasculine" d="M397 753T453 692T510 530Q510 464 485 414T411 335T300 306Q203 306 146 367T89 530Q89 595 115 645T189 724T300 753Q397 753 453 692ZM250 676T222 640T194 530Q194 456 222 420T300 384Q350 384 377
420T405 530Q405 604 378 640T300 676Q250 676 222 640ZM501 0H100V88H501V0Z" />
<glyph unicode="&#xbb;" glyph-name="guillemotright" d="M71 500L137 541L310 329V253L137 41L71 82L198 291L71 500ZM288 500L354 541L529 329V253L354 41L288 82L416 291L288 500Z" />
<glyph unicode="&#xbc;" glyph-name="onequarter" d="M123 597L34 549L-8 607L138 690H210V369H123V597ZM14 243L549 499L582 437L48 181L14 243ZM556 0H472V56H292V111L422 331L496 303L387 121H472L482 204H556V121H607V56H556V0Z" />
<glyph unicode="&#xbd;" glyph-name="onehalf" d="M120 597L31 549L-11 607L135 690H207V369H120V597ZM10 243L545 499L578 437L44 181L10 243ZM599 191T585 168T536 122T440 69H610L599 0H319V61Q402 109 440 134T492 177T507 215Q507 235 493 246T455 258Q406
258 370 215L312 258Q372 327 463 327Q527 327 563 298T599 222Q599 191 585 168Z" />
<glyph unicode="&#xbe;" glyph-name="threequarters" d="M220 696T255 672T291 607Q291 579 275 563T221 539Q265 532 285 515T305 463Q305 418 263 391T147 363Q103 363 62 377T-7 420L46 464Q89 428 148 428Q181 428 197 439T214 469Q214 490 199 499T151 509H102L111
560H148Q202 560 202 594Q202 631 149 631Q122 631 99 623T50 597L4 644Q69 696 157 696Q220 696 255 672ZM22 243L557 499L590 437L56 181L22 243ZM556 0H472V56H292V111L422 331L496 303L387 121H472L482 204H556V121H607V56H556V0Z" />
<glyph unicode="&#xbf;" glyph-name="questiondown" d="M352 504T374 482T397 427Q397 396 375 374T321 352Q290 352 268 374T246 427Q246 459 268 481T321 504Q352 504 374 482ZM378 216Q378 173 364 143T329 93T276 49Q239 21 222 2T205 -48Q205 -84 234 -104T309
-125Q345 -125 380 -108T444 -56L519 -113Q433 -216 298 -216Q233 -216 186 -194T113 -135T88 -56Q88 -17 101 10T134 55T185 96Q228 127 249 153T271 223V252H378V216Z" />
<glyph unicode="&#xc0;" glyph-name="Agrave" d="M175 166L127 0H8L228 690H372L592 0H469L421 166H175ZM397 256L298 600L199 256H397ZM680 812L650 754L433 836L484 926L680 812Z" />
<glyph unicode="&#xc1;" glyph-name="Aacute" d="M175 166L127 0H8L228 690H372L592 0H469L421 166H175ZM397 256L298 600L199 256H397ZM427 834L204 754L176 812L381 924L427 834Z" />
<glyph unicode="&#xc2;" glyph-name="Acircumflex" d="M175 166L127 0H8L228 690H372L592 0H469L421 166H175ZM397 256L298 600L199 256H397ZM473 807L429 756L300 838L172 756L127 807L264 923H336L473 807Z" />
<glyph unicode="&#xc3;" glyph-name="Atilde" d="M175 166L127 0H8L228 690H372L592 0H469L421 166H175ZM397 256L298 600L199 256H397ZM594 771T578 778T543 798Q530 808 520 813T498 818Q482 818 470 807T445 773L382 804Q402 848 431 874T498 901Q519 901 534
894T569 874Q583 864 593 859T614 854Q629 854 641 864T666 898L729 866Q709 820 680 796T614 771Q594 771 578 778Z" />
<glyph unicode="&#xc4;" glyph-name="Adieresis" d="M175 166L127 0H8L228 690H372L592 0H469L421 166H175ZM397 256L298 600L199 256H397ZM420 766T402 784T383 829Q383 856 401 874T448 893Q476 893 494 875T513 829Q513 802 495 784T448 766Q420 766 402 784ZM637
766T618 784T599 829Q599 856 618 874T664 893Q692 893 710 875T729 829Q729 802 711 784T664 766Q637 766 618 784Z" />
<glyph unicode="&#xc5;" glyph-name="Aring" d="M175 166L127 0H8L228 690H372L592 0H469L421 166H175ZM397 256L298 600L199 256H397ZM610 961T644 928T678 847Q678 799 644 767T556 734Q503 734 469 767T435 847Q435 895 469 928T556 961Q610 961 644 928ZM533
901T520 887T506 847Q506 821 519 807T556 793Q580 793 593 807T607 847Q607 872 593 886T556 901Q533 901 520 887Z" />
<glyph unicode="&#xc6;" glyph-name="AE" d="M144 167L103 0H-12L180 690H566L553 604H337L382 393H557V307H397L443 86H606V0H355L324 167H144ZM307 254L242 606L164 254H307Z" />
<glyph unicode="&#xc7;" glyph-name="Ccedilla" d="M423 -58T447 -82T472 -143Q472 -191 434 -219T339 -247Q308 -247 279 -240T230 -221L260 -163Q294 -180 326 -180Q383 -180 383 -142Q383 -119 362 -111T295 -103L303 -9Q189 10 121 102T52 346Q52 458 92 539T203
662T358 704Q426 704 474 687T566 634L506 562Q443 613 363 613Q279 613 226 549T173 346Q173 210 225 146T364 81Q414 81 449 96T520 140L576 69Q498 -9 375 -13V-54Q423 -58 447 -82Z" />
<glyph unicode="&#xc8;" glyph-name="Egrave" d="M229 394H479V307H229V88H534V0H113V690H528L515 602H229V394ZM444 812L414 754L197 836L248 926L444 812Z" />
<glyph unicode="&#xc9;" glyph-name="Eacute" d="M229 394H479V307H229V88H534V0H113V690H528L515 602H229V394ZM448 834L225 754L197 812L402 924L448 834Z" />
<glyph unicode="&#xca;" glyph-name="Ecircumflex" d="M229 394H479V307H229V88H534V0H113V690H528L515 602H229V394ZM494 807L450 756L321 838L193 756L148 807L285 923H357L494 807Z" />
<glyph unicode="&#xcb;" glyph-name="Edieresis" d="M229 394H479V307H229V88H534V0H113V690H528L515 602H229V394ZM184 766T166 784T147 829Q147 856 165 874T212 893Q240 893 258 875T277 829Q277 802 259 784T212 766Q184 766 166 784ZM401 766T382 784T363
829Q363 856 382 874T428 893Q456 893 474 875T493 829Q493 802 475 784T428 766Q401 766 382 784Z" />
<glyph unicode="&#xcc;" glyph-name="Igrave" d="M508 602H358V89H508V0H92V89H242V602H92V690H508V602ZM680 812L650 754L433 836L484 926L680 812Z" />
<glyph unicode="&#xcd;" glyph-name="Iacute" d="M508 602H358V89H508V0H92V89H242V602H92V690H508V602ZM427 834L204 754L176 812L381 924L427 834Z" />
<glyph unicode="&#xce;" glyph-name="Icircumflex" d="M508 602H358V89H508V0H92V89H242V602H92V690H508V602ZM473 807L429 756L300 838L172 756L127 807L264 923H336L473 807Z" />
<glyph unicode="&#xcf;" glyph-name="Idieresis" d="M508 602H358V89H508V0H92V89H242V602H92V690H508V602ZM420 766T402 784T383 829Q383 856 401 874T448 893Q476 893 494 875T513 829Q513 802 495 784T448 766Q420 766 402 784ZM637 766T618 784T599 829Q599
856 618 874T664 893Q692 893 710 875T729 829Q729 802 711 784T664 766Q637 766 618 784Z" />
<glyph unicode="&#xd0;" glyph-name="Eth" d="M389 690T480 617T572 349Q572 153 481 77T251 0H82V314H16V392H82V690H240Q389 690 480 617ZM450 88T450 349Q450 497 399 549T262 601H198V392H342V314H198V88H263Q450 88 450 349Z" />
<glyph unicode="&#xd1;" glyph-name="Ntilde" d="M158 587Q174 423 174 313V0H71V690H222L442 103Q435 177 431 236T426 376V690H529V0H378L158 587ZM340 771T324 778T289 798Q276 808 266 813T244 818Q228 818 216 807T191 773L128 804Q148 848 177 874T244 901Q265
901 280 894T315 874Q329 864 339 859T360 854Q375 854 387 864T412 898L475 866Q455 820 426 796T360 771Q340 771 324 778Z" />
<glyph unicode="&#xd2;" glyph-name="Ograve" d="M562 181T495 84T300 -13Q173 -13 106 82T38 344Q38 508 105 606T300 704Q427 704 494 608T562 345Q562 181 495 84ZM443 481T409 547T300 613Q225 613 191 547T157 344Q157 209 191 143T300 77Q375 77 409 143T443
345Q443 481 409 547ZM680 812L650 754L433 836L484 926L680 812Z" />
<glyph unicode="&#xd3;" glyph-name="Oacute" d="M562 181T495 84T300 -13Q173 -13 106 82T38 344Q38 508 105 606T300 704Q427 704 494 608T562 345Q562 181 495 84ZM443 481T409 547T300 613Q225 613 191 547T157 344Q157 209 191 143T300 77Q375 77 409 143T443
345Q443 481 409 547ZM427 834L204 754L176 812L381 924L427 834Z" />
<glyph unicode="&#xd4;" glyph-name="Ocircumflex" d="M562 181T495 84T300 -13Q173 -13 106 82T38 344Q38 508 105 606T300 704Q427 704 494 608T562 345Q562 181 495 84ZM443 481T409 547T300 613Q225 613 191 547T157 344Q157 209 191 143T300 77Q375 77 409
143T443 345Q443 481 409 547ZM473 807L429 756L300 838L172 756L127 807L264 923H336L473 807Z" />
<glyph unicode="&#xd5;" glyph-name="Otilde" d="M562 181T495 84T300 -13Q173 -13 106 82T38 344Q38 508 105 606T300 704Q427 704 494 608T562 345Q562 181 495 84ZM443 481T409 547T300 613Q225 613 191 547T157 344Q157 209 191 143T300 77Q375 77 409 143T443
345Q443 481 409 547ZM594 771T578 778T543 798Q530 808 520 813T498 818Q482 818 470 807T445 773L382 804Q402 848 431 874T498 901Q519 901 534 894T569 874Q583 864 593 859T614 854Q629 854 641 864T666 898L729 866Q709 820 680 796T614 771Q594 771 578
778Z" />
<glyph unicode="&#xd6;" glyph-name="Odieresis" d="M562 181T495 84T300 -13Q173 -13 106 82T38 344Q38 508 105 606T300 704Q427 704 494 608T562 345Q562 181 495 84ZM443 481T409 547T300 613Q225 613 191 547T157 344Q157 209 191 143T300 77Q375 77 409
143T443 345Q443 481 409 547ZM420 766T402 784T383 829Q383 856 401 874T448 893Q476 893 494 875T513 829Q513 802 495 784T448 766Q420 766 402 784ZM637 766T618 784T599 829Q599 856 618 874T664 893Q692 893 710 875T729 829Q729 802 711 784T664 766Q637
766 618 784Z" />
<glyph unicode="&#xd7;" glyph-name="multiply" d="M485 427L365 307L485 187L420 122L300 242L180 122L115 187L235 307L115 427L180 493L300 372L420 493L485 427Z" />
<glyph unicode="&#xd8;" glyph-name="Oslash" d="M500 617T531 536T562 345Q562 181 495 84T300 -13Q268 -13 241 -7L210 -110L121 -85L158 31Q100 74 69 154T38 344Q38 508 105 606T300 704Q333 704 360 697L391 803L479 778L442 660Q500 617 531 536ZM224 614T190
548T156 344Q156 181 201 121L342 609Q322 614 300 614Q224 614 190 548ZM376 76T410 142T444 345Q444 429 434 484T400 570L258 81Q280 76 300 76Q376 76 410 142Z" />
<glyph unicode="&#xd9;" glyph-name="Ugrave" d="M539 226Q539 156 511 102T428 18T299 -13Q186 -13 124 52T61 226V690H177V248Q177 162 206 121T299 79Q363 79 392 120T422 248V690H539V226ZM680 812L650 754L433 836L484 926L680 812Z" />
<glyph unicode="&#xda;" glyph-name="Uacute" d="M539 226Q539 156 511 102T428 18T299 -13Q186 -13 124 52T61 226V690H177V248Q177 162 206 121T299 79Q363 79 392 120T422 248V690H539V226ZM427 834L204 754L176 812L381 924L427 834Z" />
<glyph unicode="&#xdb;" glyph-name="Ucircumflex" d="M539 226Q539 156 511 102T428 18T299 -13Q186 -13 124 52T61 226V690H177V248Q177 162 206 121T299 79Q363 79 392 120T422 248V690H539V226ZM473 807L429 756L300 838L172 756L127 807L264 923H336L473 807Z" />
<glyph unicode="&#xdc;" glyph-name="Udieresis" d="M539 226Q539 156 511 102T428 18T299 -13Q186 -13 124 52T61 226V690H177V248Q177 162 206 121T299 79Q363 79 392 120T422 248V690H539V226ZM420 766T402 784T383 829Q383 856 401 874T448 893Q476 893 494
875T513 829Q513 802 495 784T448 766Q420 766 402 784ZM637 766T618 784T599 829Q599 856 618 874T664 893Q692 893 710 875T729 829Q729 802 711 784T664 766Q637 766 618 784Z" />
<glyph unicode="&#xdd;" glyph-name="Yacute" d="M358 0H242V263L11 690H139L302 363L467 690H589L358 264V0ZM429 834L206 754L178 812L383 924L429 834Z" />
<glyph unicode="&#xde;" glyph-name="Thorn" d="M205 575H287Q420 575 492 520T564 355Q564 238 493 181T295 124H205V0H89V690H205V575ZM205 488V212H298Q367 212 404 244T442 353Q442 423 404 455T296 488H205Z" />
<glyph unicode="&#xdf;" glyph-name="germandbls" d="M379 753T429 711T479 604Q479 569 464 547T418 497Q395 476 385 463T374 430Q374 407 391 390T444 349Q482 323 506 302T547 248T565 167Q565 111 540 70T471 8T373 -13Q300 -13 245 20L285 96Q322 75 361
75Q404 75 427 97T450 164Q450 203 428 228T363 283Q333 304 315 319T284 358T271 413Q271 446 285 468T325 517Q348 539 359 556T371 597Q371 627 352 648T293 669Q243 669 219 638T194 539V0H82V532Q82 639 137 696T295 753Q379 753 429 711Z" />
<glyph unicode="&#xe0;" glyph-name="agrave" d="M493 99T502 85T533 63L507 -13Q424 -3 398 60Q369 24 326 6T230 -13Q150 -13 103 32T56 151Q56 234 121 279T307 324H382V358Q382 408 352 431T265 454Q237 454 200 447T125 427L97 506Q192 542 282 542Q387 542
440 496T493 365V129Q493 99 502 85ZM298 69T330 87T382 137V254H320Q244 254 209 229T174 155Q174 113 196 91T263 69Q298 69 330 87ZM424 715L476 805L673 681L639 622L424 715Z" />
<glyph unicode="&#xe1;" glyph-name="aacute" d="M493 99T502 85T533 63L507 -13Q424 -3 398 60Q369 24 326 6T230 -13Q150 -13 103 32T56 151Q56 234 121 279T307 324H382V358Q382 408 352 431T265 454Q237 454 200 447T125 427L97 506Q192 542 282 542Q387 542
440 496T493 365V129Q493 99 502 85ZM298 69T330 87T382 137V254H320Q244 254 209 229T174 155Q174 113 196 91T263 69Q298 69 330 87ZM676 722L457 633L424 692L629 811L676 722Z" />
<glyph unicode="&#xe2;" glyph-name="acircumflex" d="M493 99T502 85T533 63L507 -13Q424 -3 398 60Q369 24 326 6T230 -13Q150 -13 103 32T56 151Q56 234 121 279T307 324H382V358Q382 408 352 431T265 454Q237 454 200 447T125 427L97 506Q192 542 282 542Q387
542 440 496T493 365V129Q493 99 502 85ZM298 69T330 87T382 137V254H320Q244 254 209 229T174 155Q174 113 196 91T263 69Q298 69 330 87ZM375 672L512 799H584L721 672L676 622L549 714L421 622L375 672Z" />
<glyph unicode="&#xe3;" glyph-name="atilde" d="M493 99T502 85T533 63L507 -13Q424 -3 398 60Q369 24 326 6T230 -13Q150 -13 103 32T56 151Q56 234 121 279T307 324H382V358Q382 408 352 431T265 454Q237 454 200 447T125 427L97 506Q192 542 282 542Q387 542
440 496T493 365V129Q493 99 502 85ZM298 69T330 87T382 137V254H320Q244 254 209 229T174 155Q174 113 196 91T263 69Q298 69 330 87ZM585 650T570 657T535 677Q520 688 511 692T490 697Q473 697 462 686T437 651L374 682Q394 726 423 753T489 780Q510 780 526
773T561 752Q575 742 584 737T605 732Q620 732 632 742T658 776L721 745Q701 699 672 675T605 650Q585 650 570 657Z" />
<glyph unicode="&#xe4;" glyph-name="adieresis" d="M493 99T502 85T533 63L507 -13Q424 -3 398 60Q369 24 326 6T230 -13Q150 -13 103 32T56 151Q56 234 121 279T307 324H382V358Q382 408 352 431T265 454Q237 454 200 447T125 427L97 506Q192 542 282 542Q387
542 440 496T493 365V129Q493 99 502 85ZM298 69T330 87T382 137V254H320Q244 254 209 229T174 155Q174 113 196 91T263 69Q298 69 330 87ZM412 644T393 662T374 707Q374 735 393 753T440 771Q467 771 485 753T504 707Q504 680 486 662T440 644Q412 644 393 662ZM629
644T610 662T591 707Q591 734 610 752T656 771Q684 771 702 753T721 707Q721 680 703 662T656 644Q629 644 610 662Z" />
<glyph unicode="&#xe5;" glyph-name="aring" d="M493 99T502 85T533 63L507 -13Q424 -3 398 60Q369 24 326 6T230 -13Q150 -13 103 32T56 151Q56 234 121 279T307 324H382V358Q382 408 352 431T265 454Q237 454 200 447T125 427L97 506Q192 542 282 542Q387 542
440 496T493 365V129Q493 99 502 85ZM298 69T330 87T382 137V254H320Q244 254 209 229T174 155Q174 113 196 91T263 69Q298 69 330 87ZM602 839T635 807T669 726Q669 678 636 645T548 612Q494 612 460 645T426 726Q426 774 460 806T548 839Q602 839 635 807ZM524
779T511 765T497 726Q497 700 510 686T548 671Q571 671 584 685T598 726Q598 751 585 765T548 779Q524 779 511 765Z" />
<glyph unicode="&#xe6;" glyph-name="ae" d="M604 542T604 278Q604 258 602 230H344Q351 147 376 109T450 70Q476 70 498 79T545 107L592 41Q560 15 525 1T446 -13Q344 -13 293 74Q260 27 227 7T145 -13Q76 -13 35 32T-6 151Q-6 235 47 279T204 323H248V358Q248
462 157 462Q133 462 112 456T57 435L30 507Q105 542 168 542Q223 542 255 521T306 461Q322 499 354 520T432 542Q604 542 604 278ZM388 461T368 426T344 304H508Q507 385 490 423T428 461Q388 461 368 426ZM213 254Q152 254 126 230T100 157Q100 113 117 90T164
66Q191 66 212 86T258 149Q248 195 248 254H213Z" />
<glyph unicode="&#xe7;" glyph-name="ccedilla" d="M411 -58T435 -82T460 -143Q460 -191 422 -219T327 -247Q296 -247 267 -240T218 -221L248 -163Q282 -180 314 -180Q371 -180 371 -142Q371 -119 350 -111T283 -103L291 -10Q192 5 138 77T83 261Q83 342 114 405T203
505T342 542Q447 542 525 478L473 408Q409 452 344 452Q278 452 240 405T202 261Q202 167 240 123T344 79Q407 79 474 124L525 52Q494 25 452 8T363 -13V-54Q411 -58 435 -82Z" />
<glyph unicode="&#xe8;" glyph-name="egrave" d="M187 151T226 113T326 74Q363 74 396 85T465 120L513 52Q476 21 426 4T321 -13Q200 -13 133 62T66 264Q66 343 95 406T179 506T307 542Q412 542 473 472T535 278Q535 248 532 228H182Q187 151 226 113ZM254 459T220
420T181 304H426Q424 379 394 419T308 459Q254 459 220 420ZM185 715L237 805L434 681L400 622L185 715Z" />
<glyph unicode="&#xe9;" glyph-name="eacute" d="M187 151T226 113T326 74Q363 74 396 85T465 120L513 52Q476 21 426 4T321 -13Q200 -13 133 62T66 264Q66 343 95 406T179 506T307 542Q412 542 473 472T535 278Q535 248 532 228H182Q187 151 226 113ZM254 459T220
420T181 304H426Q424 379 394 419T308 459Q254 459 220 420ZM437 722L218 633L185 692L390 811L437 722Z" />
<glyph unicode="&#xea;" glyph-name="ecircumflex" d="M187 151T226 113T326 74Q363 74 396 85T465 120L513 52Q476 21 426 4T321 -13Q200 -13 133 62T66 264Q66 343 95 406T179 506T307 542Q412 542 473 472T535 278Q535 248 532 228H182Q187 151 226 113ZM254
459T220 420T181 304H426Q424 379 394 419T308 459Q254 459 220 420ZM136 672L273 799H345L482 672L437 622L310 714L182 622L136 672Z" />
<glyph unicode="&#xeb;" glyph-name="edieresis" d="M187 151T226 113T326 74Q363 74 396 85T465 120L513 52Q476 21 426 4T321 -13Q200 -13 133 62T66 264Q66 343 95 406T179 506T307 542Q412 542 473 472T535 278Q535 248 532 228H182Q187 151 226 113ZM254
459T220 420T181 304H426Q424 379 394 419T308 459Q254 459 220 420ZM173 644T154 662T135 707Q135 735 154 753T201 771Q228 771 246 753T265 707Q265 680 247 662T201 644Q173 644 154 662ZM390 644T371 662T352 707Q352 734 371 752T417 771Q445 771 463 753T482
707Q482 680 464 662T417 644Q390 644 371 662Z" />
<glyph unicode="&#xec;" glyph-name="igrave" d="M377 82H521V0H108V82H265V446H113V528H377V82ZM176 715L228 805L425 681L391 622L176 715Z" />
<glyph unicode="&#xed;" glyph-name="iacute" d="M377 82H521V0H108V82H265V446H113V528H377V82ZM428 722L209 633L176 692L381 811L428 722Z" />
<glyph unicode="&#xee;" glyph-name="icircumflex" d="M377 82H521V0H108V82H265V446H113V528H377V82ZM127 672L264 799H336L473 672L428 622L301 714L173 622L127 672Z" />
<glyph unicode="&#xef;" glyph-name="idieresis" d="M377 82H521V0H108V82H265V446H113V528H377V82ZM164 644T145 662T126 707Q126 735 145 753T192 771Q219 771 237 753T256 707Q256 680 238 662T192 644Q164 644 145 662ZM381 644T362 662T343 707Q343 734 362
752T408 771Q436 771 454 753T473 707Q473 680 455 662T408 644Q381 644 362 662Z" />
<glyph unicode="&#xf0;" glyph-name="eth" d="M225 641Q181 660 118 672L141 752Q226 737 289 708L360 782L423 728L364 668Q455 607 498 509T541 269Q541 186 512 122T426 23T295 -13Q228 -13 174 16T89 102T57 235Q57 307 86 363T164 450T270 481Q317 481 353
466T419 419Q390 535 298 601L228 529L153 565L225 641ZM428 287T426 331Q403 363 369 380T292 398Q239 398 205 358T171 238Q171 157 204 115T295 72Q359 72 393 120T428 263Q428 287 426 331Z" />
<glyph unicode="&#xf1;" glyph-name="ntilde" d="M89 528H186L194 459Q227 499 271 520T365 542Q438 542 475 501T512 385V0H400V329Q400 378 395 404T373 443T325 456Q289 456 257 434T201 379V0H89V528ZM337 650T322 657T287 677Q272 688 263 692T242 697Q225
697 214 686T189 651L126 682Q146 726 175 753T241 780Q262 780 278 773T313 752Q327 742 336 737T357 732Q372 732 384 742T410 776L473 745Q453 699 424 675T357 650Q337 650 322 657Z" />
<glyph unicode="&#xf2;" glyph-name="ograve" d="M415 542T477 468T539 265Q539 137 476 62T300 -13Q186 -13 124 60T61 264Q61 390 124 466T301 542Q415 542 477 468ZM240 455T210 408T179 264Q179 166 209 120T300 73Q361 73 391 120T421 265Q421 362 391 408T301
455Q240 455 210 408ZM176 715L228 805L425 681L391 622L176 715Z" />
<glyph unicode="&#xf3;" glyph-name="oacute" d="M415 542T477 468T539 265Q539 137 476 62T300 -13Q186 -13 124 60T61 264Q61 390 124 466T301 542Q415 542 477 468ZM240 455T210 408T179 264Q179 166 209 120T300 73Q361 73 391 120T421 265Q421 362 391 408T301
455Q240 455 210 408ZM428 722L209 633L176 692L381 811L428 722Z" />
<glyph unicode="&#xf4;" glyph-name="ocircumflex" d="M415 542T477 468T539 265Q539 137 476 62T300 -13Q186 -13 124 60T61 264Q61 390 124 466T301 542Q415 542 477 468ZM240 455T210 408T179 264Q179 166 209 120T300 73Q361 73 391 120T421 265Q421 362 391
408T301 455Q240 455 210 408ZM127 672L264 799H336L473 672L428 622L301 714L173 622L127 672Z" />
<glyph unicode="&#xf5;" glyph-name="otilde" d="M415 542T477 468T539 265Q539 137 476 62T300 -13Q186 -13 124 60T61 264Q61 390 124 466T301 542Q415 542 477 468ZM240 455T210 408T179 264Q179 166 209 120T300 73Q361 73 391 120T421 265Q421 362 391 408T301
455Q240 455 210 408ZM337 650T322 657T287 677Q272 688 263 692T242 697Q225 697 214 686T189 651L126 682Q146 726 175 753T241 780Q262 780 278 773T313 752Q327 742 336 737T357 732Q372 732 384 742T410 776L473 745Q453 699 424 675T357 650Q337 650 322
657Z" />
<glyph unicode="&#xf6;" glyph-name="odieresis" d="M415 542T477 468T539 265Q539 137 476 62T300 -13Q186 -13 124 60T61 264Q61 390 124 466T301 542Q415 542 477 468ZM240 455T210 408T179 264Q179 166 209 120T300 73Q361 73 391 120T421 265Q421 362 391
408T301 455Q240 455 210 408ZM164 644T145 662T126 707Q126 735 145 753T192 771Q219 771 237 753T256 707Q256 680 238 662T192 644Q164 644 145 662ZM381 644T362 662T343 707Q343 734 362 752T408 771Q436 771 454 753T473 707Q473 680 455 662T408 644Q381
644 362 662Z" />
<glyph unicode="&#xf7;" glyph-name="divide" d="M332 593T354 571T376 517Q376 486 354 464T300 442Q268 442 246 464T224 517Q224 549 246 571T300 593Q332 593 354 571ZM497 269H103V360H497V269ZM332 187T354 165T376 112Q376 80 354 58T300 36Q268 36 246
58T224 112Q224 143 246 165T300 187Q332 187 354 165Z" />
<glyph unicode="&#xf8;" glyph-name="oslash" d="M481 475T510 413T539 265Q539 137 476 62T300 -13Q278 -13 257 -10L220 -133L133 -107L174 19Q120 52 91 115T61 264Q61 390 124 466T301 542Q322 542 343 539L381 657L468 632L427 509Q481 475 510 413ZM239
456T209 409T178 264Q178 146 217 102L327 454Q311 456 301 456Q239 456 209 409ZM362 72T392 119T422 265Q422 383 384 425L274 74Q290 72 300 72Q362 72 392 119Z" />
<glyph unicode="&#xf9;" glyph-name="ugrave" d="M201 159Q201 113 219 93T276 72Q312 72 345 93T399 146V528H511V0H414L407 68Q379 29 334 8T241 -13Q165 -13 127 28T89 145V528H201V159ZM176 715L228 805L425 681L391 622L176 715Z" />
<glyph unicode="&#xfa;" glyph-name="uacute" d="M201 159Q201 113 219 93T276 72Q312 72 345 93T399 146V528H511V0H414L407 68Q379 29 334 8T241 -13Q165 -13 127 28T89 145V528H201V159ZM428 722L209 633L176 692L381 811L428 722Z" />
<glyph unicode="&#xfb;" glyph-name="ucircumflex" d="M201 159Q201 113 219 93T276 72Q312 72 345 93T399 146V528H511V0H414L407 68Q379 29 334 8T241 -13Q165 -13 127 28T89 145V528H201V159ZM127 672L264 799H336L473 672L428 622L301 714L173 622L127 672Z" />
<glyph unicode="&#xfc;" glyph-name="udieresis" d="M201 159Q201 113 219 93T276 72Q312 72 345 93T399 146V528H511V0H414L407 68Q379 29 334 8T241 -13Q165 -13 127 28T89 145V528H201V159ZM164 644T145 662T126 707Q126 735 145 753T192 771Q219 771 237 753T256
707Q256 680 238 662T192 644Q164 644 145 662ZM381 644T362 662T343 707Q343 734 362 752T408 771Q436 771 454 753T473 707Q473 680 455 662T408 644Q381 644 362 662Z" />
<glyph unicode="&#xfd;" glyph-name="yacute" d="M369 -2Q337 -98 277 -152T110 -216L96 -132Q148 -124 180 -108T231 -66T265 0H227L49 528H168L301 78L436 528H551L369 -2ZM428 722L209 633L176 692L381 811L428 722Z" />
<glyph unicode="&#xfe;" glyph-name="thorn" d="M201 467Q228 503 266 522T347 542Q539 542 539 265Q539 140 486 64T335 -13Q252 -13 201 45V-203L89 -216V740L201 753V467ZM281 456T252 435T201 380V133Q240 74 305 74Q363 74 392 120T421 264Q421 365 395 410T316
456Q281 456 252 435Z" />
<glyph unicode="&#xff;" glyph-name="ydieresis" d="M369 -2Q337 -98 277 -152T110 -216L96 -132Q148 -124 180 -108T231 -66T265 0H227L49 528H168L301 78L436 528H551L369 -2ZM164 644T145 662T126 707Q126 735 145 753T192 771Q219 771 237 753T256 707Q256
680 238 662T192 644Q164 644 145 662ZM381 644T362 662T343 707Q343 734 362 752T408 771Q436 771 454 753T473 707Q473 680 455 662T408 644Q381 644 362 662Z" />
<glyph unicode="&#x2013;" glyph-name="endash" d="M31 359H569V267H31V359Z" />
<glyph unicode="&#x2014;" glyph-name="emdash" d="M0 359H600V267H0V359Z" />
<glyph unicode="&#x2018;" glyph-name="quoteleft" d="M377 512T353 489T294 465Q260 465 236 488T212 545Q212 561 217 579T235 625L313 789H388L346 608Q377 585 377 545Q377 512 353 489Z" />
<glyph unicode="&#x2019;" glyph-name="quoteright" d="M222 743T246 766T305 789Q340 789 364 766T388 709Q388 693 383 676T364 629L286 465H211L253 647Q238 657 230 673T222 709Q222 743 246 766Z" />
<glyph unicode="&#x201a;" glyph-name="quotesinglbase" d="M222 95T246 118T305 142Q339 142 363 119T388 62Q388 45 383 28T364 -18L286 -182H211L253 -1Q222 22 222 62Q222 95 246 118Z" />
<glyph unicode="&#x201c;" glyph-name="quotedblleft" d="M266 512T242 489T183 465Q148 465 125 488T101 545Q101 561 106 579T124 625L201 789H276L235 608Q266 585 266 545Q266 512 242 489ZM489 512T465 489T406 465Q371 465 348 488T324 545Q324 562 328
580T346 625L424 789H499L457 608Q489 584 489 545Q489 512 465 489Z" />
<glyph unicode="&#x201d;" glyph-name="quotedblright" d="M111 745T135 768T194 791Q229 791 252 769T276 712Q276 695 271 678T252 631L175 468H100L141 649Q111 672 111 712Q111 745 135 768ZM333 745T357 768T416 791Q451 791 475 769T499 712Q499 694 494
677T475 631L397 468H323L365 649Q333 673 333 712Q333 745 357 768Z" />
<glyph unicode="&#x201e;" glyph-name="quotedblbase" d="M111 95T135 118T194 142Q229 142 253 119T277 62Q277 44 272 27T254 -18L176 -182H101L143 -1Q111 23 111 62Q111 95 135 118ZM333 95T357 118T416 142Q450 142 474 119T498 62Q498 44 493 26T475 -18L397
-182H323L365 -1Q333 23 333 62Q333 95 357 118Z" />
<glyph unicode="&#x2022;" glyph-name="bullet" d="M245 212T208 249T170 342Q170 397 207 434T300 471Q356 471 393 434T430 341Q430 286 393 249T300 212Q245 212 208 249Z" />
<glyph unicode="&#x2039;" glyph-name="guilsinglleft" d="M356 41L176 253V329L356 541L424 498L292 291L424 85L356 41Z" />
<glyph unicode="&#x203a;" glyph-name="guilsinglright" d="M176 498L244 541L424 329V253L244 41L176 85L308 291L176 498Z" />
</font>
</defs>
</svg>
