<?xml version="1.0" standalone="no"?>
<!DOCTYPE svg PUBLIC "-//W3C//DTD SVG 1.1//EN" "http://www.w3.org/Graphics/SVG/1.1/DTD/svg11.dtd">
<svg xmlns="http://www.w3.org/2000/svg">
<defs >
<font id="FiraMono" horiz-adv-x="600" ><font-face
    font-family="Fira Mono"
    units-per-em="1000"
    panose-1="2 11 5 9 5 0 0 2 0 4"
    ascent="935"
    descent="-265"
    alphabetic="0" />
<glyph unicode=" " glyph-name="space" />
<glyph unicode="!" glyph-name="exclam" d="M336 227H261L251 689H345L336 227ZM328 123T347 104T366 56Q366 27 347 8T299 -11Q271 -11 252 8T232 56Q232 84 251 103T299 123Q328 123 347 104Z" />
<glyph unicode="&quot;" glyph-name="quotedbl" d="M164 739H269L253 479H179L164 739ZM331 739H436L421 479H347L331 739Z" />
<glyph unicode="#" glyph-name="numbersign" d="M429 234H510V170H419L398 0H327L349 170H204L181 0H110L132 170H53V234H140L171 456H90V522H179L202 689H273L250 522H396L419 689H490L467 522H547V456H458L429 234ZM357 234L388 456H241L212 234H357Z" />
<glyph unicode="$" glyph-name="dollar" d="M346 698Q401 692 448 671T529 618L478 565Q419 619 346 628V401Q434 372 486 323T538 189Q538 114 488 60T346 -7V-153H278V-10Q213 -7 160 19T69 83L119 139Q190 68 278 61V337Q188 367 142 413T95 528Q95 569 115
606T177 667T278 698V848H346V698ZM235 619T210 595T184 529Q184 492 204 468T278 423V626Q235 619 210 595ZM346 65Q447 85 447 188Q447 231 424 261T346 314V65Z" />
<glyph unicode="%" glyph-name="percent" d="M558 672L85 -20L32 15L505 707L558 672ZM234 700T273 654T313 539Q313 496 296 459T245 400T166 378Q121 378 88 400T37 459T19 539Q19 607 59 653T166 700Q234 700 273 654ZM135 640T116 614T96 539Q96 492 115 465T166
437Q198 437 216 462T235 539Q235 591 217 615T166 640Q135 640 116 614ZM504 316T543 270T583 156Q583 113 566 76T515 17T436 -6Q391 -6 358 16T307 76T289 156Q289 223 329 269T436 316Q504 316 543 270ZM404 256T385 231T366 156Q366 108 385 81T436 53Q468
53 486 78T505 156Q505 208 487 232T436 256Q404 256 385 231Z" />
<glyph unicode="&amp;" glyph-name="ampersand" d="M328 699T367 683T446 624L396 578Q369 608 342 622T278 636Q226 636 199 608T172 534Q172 504 188 478T233 436T296 420H574V353H484V81Q454 44 404 17T277 -11Q203 -11 153 18T78 94T54 195Q54 272 94 321T210
387V390Q147 405 119 444T90 534Q90 578 113 616T179 676T279 699Q328 699 367 683ZM283 353Q234 353 201 330T152 272T136 198Q136 138 172 98T279 57Q321 57 354 70T407 109V353H283Z" />
<glyph unicode="&apos;" glyph-name="quotesingle" d="M247 739H353L337 479H263L247 739Z" />
<glyph unicode="(" glyph-name="parenleft" d="M213 248T236 173T304 36T426 -94L383 -140Q295 -69 240 0T155 154T125 350Q125 461 154 546T239 700T383 840L426 794Q349 726 304 665T236 529T213 350Q213 248 236 173Z" />
<glyph unicode=")" glyph-name="parenright" d="M387 453T365 528T297 665T174 794L217 840Q305 769 360 700T445 546T475 350Q475 239 446 154T361 0T217 -140L174 -94Q250 -26 295 35T364 172T387 350Q387 453 365 528Z" />
<glyph unicode="*" glyph-name="asterisk" d="M327 362L479 425L504 345L346 309L456 189L388 137L301 277L220 134L149 182L255 309L96 345L121 425L272 362L258 527H342L327 362Z" />
<glyph unicode="+" glyph-name="plus" d="M338 346H484V276H338V127H260V276H116V346H260V495H338V346Z" />
<glyph unicode="," glyph-name="comma" d="M334 165T357 142T381 85Q381 48 362 6L281 -179H205L252 18Q238 29 229 47T220 84Q220 118 243 141T300 165Q334 165 357 142Z" />
<glyph unicode="-" glyph-name="hyphen" d="M125 349H475V277H125V349Z" />
<glyph unicode="." glyph-name="period" d="M211 114T236 139T299 165Q337 165 362 140T387 77Q387 39 362 14T299 -11Q262 -11 237 14T211 77Q211 114 236 139Z" />
<glyph unicode="/" glyph-name="slash" d="M53 -73L480 809L547 777L121 -103L53 -73Z" />
<glyph unicode="0" glyph-name="zero" d="M410 700T467 609T525 345Q525 172 468 81T300 -11Q190 -11 133 80T75 345Q75 517 132 608T300 700Q410 700 467 609ZM163 632T163 345Q163 57 300 57Q437 57 437 345Q437 632 300 632Q163 632 163 345ZM328 410T347 391T366
345Q366 317 347 298T300 279Q272 279 254 298T235 345Q235 372 253 391T300 410Q328 410 347 391Z" />
<glyph unicode="1" glyph-name="one" d="M517 68V0H120V68H289V597L132 502L95 561L300 689H374V68H517Z" />
<glyph unicode="2" glyph-name="two" d="M332 700T379 675T452 607T477 508Q477 444 448 384T353 253T169 72H493L483 0H73V68Q208 197 273 270T364 395T389 505Q389 563 356 596T265 629Q216 629 184 613T117 556L59 601Q100 652 150 676T269 700Q332 700 379 675Z" />
<glyph unicode="3" glyph-name="three" d="M332 700T380 677T454 614T480 527Q480 467 441 423T346 367Q411 362 456 318T502 198Q502 139 472 91T388 16T263 -11Q202 -11 146 12T52 80L108 126Q136 93 176 76T261 58Q333 58 373 95T414 198Q414 329 271 329H214L224
396H265Q319 396 357 426T395 516Q395 571 359 601T265 632Q222 632 189 617T119 569L73 620Q157 700 269 700Q332 700 380 677Z" />
<glyph unicode="4" glyph-name="four" d="M528 167H439V0H358V167H72V229L274 700L344 670L161 235H359L366 430H439V235H528V167Z" />
<glyph unicode="5" glyph-name="five" d="M475 621H203V404Q232 421 260 427T321 434Q407 434 458 377T510 218Q510 150 482 98T400 18T277 -11Q162 -11 77 71L129 122Q192 58 277 58Q346 58 384 100T422 221Q422 299 388 333T297 368Q270 368 248 363T190 345H122V689H487L475
621Z" />
<glyph unicode="6" glyph-name="six" d="M384 448T428 424T499 352T525 232Q525 158 496 103T418 18T308 -11Q188 -11 134 76T79 325Q79 439 109 523T197 654T335 700Q410 700 472 659L439 603Q390 632 334 632Q255 632 211 558T164 356Q196 404 237 426T330 448Q384
448 428 424ZM372 57T405 102T439 229Q439 380 317 380Q269 380 231 354T165 282Q167 165 201 111T308 57Q372 57 405 102Z" />
<glyph unicode="7" glyph-name="seven" d="M152 14L420 619H97V689H505V624L230 -9L152 14Z" />
<glyph unicode="8" glyph-name="eight" d="M506 476T476 439T387 369Q457 340 496 293T535 185Q535 129 506 84T423 14T298 -11Q226 -11 173 14T93 84T65 183Q65 298 204 363Q147 390 121 426T94 520Q94 579 125 620T203 680T300 700Q353 700 400 681T476 623T506
525Q506 476 476 439ZM176 481T193 459T240 423T328 390Q379 420 401 448T424 521Q424 573 392 603T300 634Q241 634 209 604T176 519Q176 481 193 459ZM446 227T424 254T367 298T261 339Q154 289 154 183Q154 124 191 91T298 57Q368 57 407 92T446 183Q446 227
424 254Z" />
<glyph unicode="9" glyph-name="nine" d="M402 699T458 629T514 433Q514 288 477 202T362 67T147 -21L127 43Q274 82 349 150T425 337Q399 300 358 276T262 252Q205 252 161 279T91 355T66 472Q66 544 95 595T175 672T289 699Q402 699 458 629ZM324 320T361 344T427
412Q429 532 396 581T289 631Q222 631 188 590T154 469Q154 393 185 357T276 320Q324 320 361 344Z" />
<glyph unicode=":" glyph-name="colon" d="M219 464T242 487T299 511Q334 511 357 488T380 431Q380 397 357 373T299 349Q265 349 242 373T219 431Q219 464 242 487ZM219 103T242 127T299 151Q334 151 357 128T380 70Q380 35 357 12T299 -11Q265 -11 242 12T219
70Q219 103 242 127Z" />
<glyph unicode=";" glyph-name="semicolon" d="M334 511T357 488T380 431Q380 397 357 373T299 349Q265 349 242 373T219 431Q219 464 242 487T299 511Q334 511 357 488ZM333 166T356 143T380 85Q380 49 361 6L279 -180H203L251 18Q236 29 228 47T219 85Q219 119
242 142T299 166Q333 166 356 143Z" />
<glyph unicode="&lt;" glyph-name="less" d="M513 530L160 313L513 94L468 33L88 270V357L472 594L513 530Z" />
<glyph unicode="=" glyph-name="equal" d="M494 370H106V442H494V370ZM494 180H106V252H494V180Z" />
<glyph unicode="&gt;" glyph-name="greater" d="M513 356V270L133 33L88 95L441 313L88 530L129 594L513 356Z" />
<glyph unicode="?" glyph-name="question" d="M358 700T403 678T472 621T497 545Q497 507 485 480T454 436T404 396Q374 375 357 359T328 319T316 261V227H232V266Q232 307 246 337T280 386T332 430Q372 461 390 483T409 540Q409 582 376 606T291 630Q254 630
217 612T149 556L90 601Q174 700 299 700Q358 700 403 678ZM306 123T325 104T344 56Q344 27 325 8T277 -11Q249 -11 230 8T210 56Q210 84 229 103T277 123Q306 123 325 104Z" />
<glyph unicode="@" glyph-name="at" d="M459 700T522 586T586 285Q586 151 574 71T530 -50T439 -91Q400 -91 373 -67T333 -10T321 52H317Q277 -46 180 -46Q102 -46 66 15T30 183Q30 312 80 376T226 441Q263 441 295 433T367 404V108Q367 34 385 6T437 -23Q466
-23 479 13T496 107T499 268Q499 382 484 458T421 580T285 626Q228 626 172 606T58 534L9 591Q74 647 144 673T284 700Q459 700 522 586ZM163 379T137 332T111 183Q111 104 129 61T190 17Q222 17 242 31T272 62T293 105V365Q264 379 229 379Q163 379 137 332Z"
/>
<glyph unicode="A" glyph-name="A" d="M161 176L106 0H20L245 689H355L579 0H489L434 176H161ZM411 248L298 615L184 248H411Z" />
<glyph unicode="B" glyph-name="B" d="M540 92T466 46T282 0H96V689H266Q371 689 440 649T510 515Q510 453 473 416T381 365Q540 338 540 196Q540 92 466 46ZM421 567T386 592T286 618H183V396H294Q421 396 421 510Q421 567 386 592ZM448 266T409 295T300 324H183V72H297Q360
72 404 98T448 193Q448 266 409 295Z" />
<glyph unicode="C" glyph-name="C" d="M422 700T468 684T558 633L509 576Q448 627 364 627Q271 627 213 560T154 345Q154 199 211 131T363 63Q415 63 452 78T523 120L568 64Q491 -11 362 -11Q277 -11 209 30T102 152T63 345Q63 457 102 537T209 659T358 700Q422
700 468 684Z" />
<glyph unicode="D" glyph-name="D" d="M553 152T463 76T241 0H83V689H230Q375 689 464 616T553 348Q553 152 463 76ZM460 460T430 519T354 598T251 618H170V70H252Q341 70 400 131T460 348Q460 460 430 519Z" />
<glyph unicode="E" glyph-name="E" d="M212 385H468V314H212V70H526V0H126V689H517L507 617H212V385Z" />
<glyph unicode="F" glyph-name="F" d="M225 376H495V306H225V0H138V689H544L534 617H225V376Z" />
<glyph unicode="G" glyph-name="G" d="M188 -11T117 79T45 345Q45 459 85 539T191 659T334 700Q399 700 443 682T530 624L478 570Q446 599 412 613T334 627Q250 627 194 560T138 345Q138 198 183 130T321 62Q394 62 452 95V304H317L307 377H539V49Q487 20 435
5T314 -11Q188 -11 117 79Z" />
<glyph unicode="H" glyph-name="H" d="M430 327H170V0H83V689H170V398H430V689H517V0H430V327Z" />
<glyph unicode="I" glyph-name="I" d="M497 619H344V69H497V0H103V69H256V619H103V689H497V619Z" />
<glyph unicode="J" glyph-name="J" d="M497 229Q497 128 442 58T261 -12Q210 -12 162 4T73 51L111 108Q186 61 260 61Q332 61 371 106T410 233V618H206V689H497V229Z" />
<glyph unicode="K" glyph-name="K" d="M105 0V689H192V0H105ZM467 689H568L299 373L587 0H478L197 368L467 689Z" />
<glyph unicode="L" glyph-name="L" d="M136 689H222V77H537L526 0H136V689Z" />
<glyph unicode="M" glyph-name="M" d="M570 0H486L465 360Q459 455 459 609L343 124H256L132 609Q134 573 134 513Q134 421 130 360L112 0H30L69 689H190L302 217L409 689H531L570 0Z" />
<glyph unicode="N" glyph-name="N" d="M152 605Q152 598 158 518T164 345V0H83V689H201L448 81L446 117Q436 240 436 344V689H517V0H395L152 605Z" />
<glyph unicode="O" glyph-name="O" d="M553 183T488 86T300 -11Q177 -11 112 84T47 343Q47 448 76 529T162 655T300 700Q422 700 487 604T553 344Q553 183 488 86ZM463 485T424 556T300 627Q215 627 176 556T137 343Q137 203 176 133T300 62Q385 62 424 132T463
344Q463 485 424 556Z" />
<glyph unicode="P" glyph-name="P" d="M557 362T486 309T291 256H202V0H116V689H291Q418 689 487 636T557 477Q557 362 486 309ZM464 551T421 585T302 620H202V325H299Q377 325 420 359T464 476Q464 551 421 585Z" />
<glyph unicode="Q" glyph-name="Q" d="M554 228T521 149T411 27Q485 12 526 -25T593 -137L501 -173Q467 -88 421 -49T290 -10Q212 -10 157 33T74 156T45 343Q45 448 74 529T160 655T300 700Q422 700 488 604T554 344Q554 228 521 149ZM463 485T424 556T300 627Q215
627 176 556T136 343Q136 203 176 133T300 62Q385 62 424 132T463 344Q463 485 424 556Z" />
<glyph unicode="R" glyph-name="R" d="M537 421T491 373T369 305L574 0H470L281 295H188V0H102V689H278Q406 689 471 640T537 495Q537 421 491 373ZM445 561T407 590T288 619H188V363H289Q366 363 405 394T445 495Q445 561 407 590Z" />
<glyph unicode="S" glyph-name="S" d="M537 131T507 86T420 15T285 -11Q210 -11 149 11T43 76L95 135Q133 99 179 80T286 61Q354 61 400 94T446 189Q446 224 433 247T388 288T296 323Q184 356 129 400T74 522Q74 573 102 614T181 677T297 700Q365 700 418 680T517
621L465 565Q394 627 300 627Q240 627 201 601T162 525Q162 495 178 474T231 435T335 398Q432 370 484 325T537 191Q537 131 507 86Z" />
<glyph unicode="T" glyph-name="T" d="M342 0H255V614H40V689H559L550 614H342V0Z" />
<glyph unicode="U" glyph-name="U" d="M528 223Q528 154 500 101T420 18T299 -11Q229 -11 178 18T100 101T72 223V689H159V220Q159 142 195 103T299 64Q367 64 403 103T440 220V689H528V223Z" />
<glyph unicode="V" glyph-name="V" d="M488 689H575L345 0H255L25 689H118L302 99L488 689Z" />
<glyph unicode="W" glyph-name="W" d="M491 0H377L298 520L218 0H101L5 689H92L165 95L248 609H354L433 95L515 689H595L491 0Z" />
<glyph unicode="X" glyph-name="X" d="M149 689L300 424L452 689H545L350 372L569 0H469L298 311L124 0H31L247 367L49 689H149Z" />
<glyph unicode="Y" glyph-name="Y" d="M344 0H256V265L23 689H119L302 343L487 689H577L344 266V0Z" />
<glyph unicode="Z" glyph-name="Z" d="M527 75L517 0H72V70L435 614H108V689H528V617L167 75H527Z" />
<glyph unicode="[" glyph-name="bracketleft" d="M184 815H435V743H264V-44H435V-115H184V815Z" />
<glyph unicode="\" glyph-name="backslash" d="M119 809L547 -73L479 -103L53 777L119 809Z" />
<glyph unicode="]" glyph-name="bracketright" d="M416 -115H165V-44H336V743H165V815H416V-115Z" />
<glyph unicode="^" glyph-name="asciicircum" d="M526 527H435L299 764L164 527H74L263 840H337L526 527Z" />
<glyph unicode="_" glyph-name="underscore" d="M50 -108H550V-182H50V-108Z" />
<glyph unicode="`" glyph-name="grave" d="M184 715L230 787L414 668L387 622L184 715Z" />
<glyph unicode="a" glyph-name="a" d="M478 84T488 70T521 48L500 -12Q423 -2 404 63Q376 27 334 8T239 -11Q160 -11 115 33T69 151Q69 232 132 276T315 320H393V363Q393 419 361 443T268 468Q208 468 131 441L108 505Q201 538 281 538Q377 538 427 493T478 368V115Q478
84 488 70ZM299 52T334 72T393 127V262H317Q233 262 196 234T159 152Q159 52 260 52Q299 52 334 72Z" />
<glyph unicode="b" glyph-name="b" d="M245 538T335 538Q436 538 484 466T532 264Q532 140 477 65T323 -11Q232 -11 180 55L174 0H100V739L184 749V458Q245 538 335 538ZM370 57T405 109T441 264Q441 366 410 418T316 470Q276 470 243 446T184 386V125Q205 93
236 75T304 57Q370 57 405 109Z" />
<glyph unicode="c" glyph-name="c" d="M408 61T476 107L516 52Q483 23 434 6T339 -11Q222 -11 157 62T91 261Q91 340 120 403T206 502T339 538Q441 538 515 476L474 421Q405 467 338 467Q267 467 225 415T182 261Q182 160 224 111T339 61Q408 61 476 107Z" />
<glyph unicode="d" glyph-name="d" d="M500 739V0H426L418 69Q389 29 351 9T269 -11Q169 -11 119 62T68 263Q68 342 93 404T164 502T274 538Q361 538 416 475V749L500 739ZM230 470T195 418T159 263Q159 161 191 109T286 56Q361 56 416 140V402Q394 435 363 452T296
470Q230 470 195 418Z" />
<glyph unicode="e" glyph-name="e" d="M170 147T212 103T320 59Q359 59 391 70T461 106L500 50Q463 21 416 5T320 -11Q206 -11 143 63T79 263Q79 342 107 404T187 502T308 538Q408 538 465 469T523 279Q523 256 521 234H167Q170 147 212 103ZM248 469T210 426T167
298H441Q440 381 405 425T309 469Q248 469 210 426Z" />
<glyph unicode="f" glyph-name="f" d="M486 749T554 721L527 658Q477 680 414 680Q304 680 304 593V486H482L473 419H304V0H219V419H94V486H219V591Q219 662 273 705T411 749Q486 749 554 721Z" />
<glyph unicode="g" glyph-name="g" d="M554 503Q524 493 489 491T400 488Q492 446 492 355Q492 275 439 226T294 176Q247 176 215 187Q203 178 196 164T188 136Q188 91 258 91H353Q405 91 447 73T514 21T539 -52Q539 -129 474 -170T288 -212Q166 -212 116 -174T66
-53H142Q142 -86 154 -105T198 -134T288 -144Q373 -144 413 -122T454 -57Q454 -21 421 -2T336 18H242Q177 18 143 46T109 118Q109 143 124 167T167 210Q122 233 101 268T79 355Q79 408 105 449T179 514T289 538Q379 538 426 548T529 582L554 503ZM227 476T196 444T165
355Q165 299 196 266T290 232Q346 232 375 264T405 356Q405 476 288 476Q227 476 196 444Z" />
<glyph unicode="h" glyph-name="h" d="M184 454Q215 494 260 516T353 538Q501 538 501 382V0H417V381Q417 428 395 449T325 471Q284 471 246 445T184 384V0H100V738L184 747V454Z" />
<glyph unicode="i" glyph-name="i" d="M328 773T345 757T362 714Q362 688 345 672T300 655Q273 655 257 671T240 714Q240 740 256 756T300 773Q328 773 345 757ZM367 67H515V0H121V67H283V460H126V527H367V67Z" />
<glyph unicode="j" glyph-name="j" d="M394 773T411 757T428 714Q428 688 411 672T367 655Q340 655 323 671T306 714Q306 740 323 756T367 773Q394 773 411 757ZM445 84Q445 -43 361 -113T110 -212L96 -147Q223 -126 292 -74T361 79V460H142V527H445V84Z" />
<glyph unicode="k" glyph-name="k" d="M190 0H106V739L190 749V0ZM305 289L569 0H458L199 288L433 527H541L305 289Z" />
<glyph unicode="l" glyph-name="l" d="M306 130Q306 59 393 59Q434 59 481 77L503 16Q453 -11 378 -11Q307 -11 265 28T222 134V672H60V739H306V130Z" />
<glyph unicode="m" glyph-name="m" d="M492 538T520 507T549 392V0H472V378Q472 433 465 452T431 472Q380 472 339 409V0H261V378Q261 433 254 452T220 472Q169 472 128 409V0H51V527H116L122 465Q146 500 172 519T236 538Q310 538 331 468Q355 502 382 520T447
538Q492 538 520 507Z" />
<glyph unicode="n" glyph-name="n" d="M100 527H172L179 453Q210 493 257 515T353 538Q501 538 501 382V0H417V320Q417 379 411 410T385 456T327 471Q284 471 246 445T184 383V0H100V527Z" />
<glyph unicode="o" glyph-name="o" d="M410 538T468 465T527 264Q527 140 468 65T300 -11Q191 -11 132 62T73 263Q73 388 132 463T301 538Q410 538 468 465ZM232 469T198 418T164 263Q164 159 197 109T300 58Q369 58 402 108T436 264Q436 368 403 418T301 469Q232
469 198 418Z" />
<glyph unicode="p" glyph-name="p" d="M527 538T527 264Q527 139 475 64T324 -11Q238 -11 184 49V-202L100 -212V527H172L179 453Q208 494 248 516T336 538Q527 538 527 264ZM276 470T243 446T184 386V125Q205 94 236 77T305 59Q371 59 403 109T436 264Q436 368
407 419T316 470Q276 470 243 446Z" />
<glyph unicode="q" glyph-name="q" d="M366 538T421 469L428 527H500V-212L416 -202V66Q360 -11 267 -11Q73 -11 73 263Q73 385 126 461T274 538Q366 538 421 469ZM164 470T164 263Q164 160 194 110T285 59Q326 59 359 81T416 140V402Q395 434 364 452T295 470Q164
470 164 263Z" />
<glyph unicode="r" glyph-name="r" d="M488 538T530 527L518 348H450V461H445Q323 461 272 287V65H379V0H105V65H188V462H105V527H251L267 402Q299 470 343 504T456 538Q488 538 530 527Z" />
<glyph unicode="s" glyph-name="s" d="M340 58T375 81T410 142Q410 168 401 184T365 214T283 242Q191 265 147 297T103 394Q103 460 158 499T303 538Q413 538 495 480L457 422Q424 445 388 457T305 470Q191 470 191 401Q191 377 203 362T244 336T330 308Q416 285
458 250T501 146Q501 67 437 28T280 -11Q156 -11 74 60L121 115Q153 89 194 74T280 58Q340 58 375 81Z" />
<glyph unicode="t" glyph-name="t" d="M492 9T454 -1T377 -11Q294 -11 247 32T200 147V461H79V527H200V646L284 656V527H467L456 461H284V148Q284 103 308 81T385 59Q439 59 486 84L519 27Q492 9 454 -1Z" />
<glyph unicode="u" glyph-name="u" d="M184 153Q184 102 205 79T273 55Q315 55 354 79T416 139V527H500V0H428L421 71Q390 32 345 11T252 -11Q177 -11 139 29T100 144V527H184V153Z" />
<glyph unicode="v" glyph-name="v" d="M348 0H251L60 527H150L302 76L452 527H540L348 0Z" />
<glyph unicode="w" glyph-name="w" d="M372 0L303 386L229 0H113L18 527H103L171 52L255 460H354L433 52L501 527H582L491 0H372Z" />
<glyph unicode="x" glyph-name="x" d="M56 0L250 278L79 527H179L301 331L424 527H521L350 282L544 0H442L297 226L152 0H56Z" />
<glyph unicode="y" glyph-name="y" d="M354 -3Q323 -94 269 -148T118 -212L106 -145Q159 -136 190 -118T240 -72T273 0H245L62 527H151L302 64L451 527H538L354 -3Z" />
<glyph unicode="z" glyph-name="z" d="M498 72L488 0H102V64L394 453H125V527H495V461L205 72H498Z" />
<glyph unicode="{" glyph-name="braceleft" d="M451 769Q318 769 326 689L346 484Q347 475 347 458Q347 410 324 385T253 350Q302 341 324 317T347 243Q347 226 346 216L326 11Q322 -33 356 -51T451 -69V-136Q361 -136 304 -105T247 0Q247 13 248 20L269 210Q270
217 270 230Q270 274 237 295T117 316V384Q204 384 237 404T270 469Q270 481 269 488L248 680Q247 687 247 700Q247 774 304 805T451 836V769Z" />
<glyph unicode="|" glyph-name="bar" d="M337 -102H262V807H337V-102Z" />
<glyph unicode="}" glyph-name="braceright" d="M239 836T296 805T353 700Q353 687 352 680L331 488Q330 483 330 473Q330 428 365 406T483 384V316Q400 316 365 294T330 226Q330 216 331 210L352 20Q353 13 353 0Q353 -74 296 -105T149 -136V-69Q210 -69 244
-51T274 11L254 216Q252 236 252 243Q252 293 277 317T358 349Q304 359 279 384T253 459Q253 475 254 484L274 689Q282 769 149 769V836Q239 836 296 805Z" />
<glyph unicode="~" glyph-name="asciitilde" d="M242 401T268 386T326 342Q349 321 364 311T398 301Q451 301 497 386L557 354Q527 298 491 263T395 228Q361 228 337 242T279 285Q256 307 239 317T202 328Q172 328 149 306T103 243L43 273Q73 331 109 366T205
401Q242 401 268 386Z" />
<glyph unicode="&#xa0;" glyph-name="uni00A0" />
<glyph unicode="&#xa1;" glyph-name="exclamdown" d="M327 499T346 479T366 431Q366 403 347 384T299 365Q271 365 252 384T232 431Q232 460 251 479T299 499Q327 499 346 479ZM348 -197H251L263 260H335L348 -197Z" />
<glyph unicode="&#xa2;" glyph-name="cent" d="M373 533Q441 525 494 482L452 426Q420 449 394 458T336 467Q269 467 233 415T197 261Q197 159 233 110T336 61Q367 61 394 71T453 106L494 46Q442 2 373 -6V-153H298V-6Q204 6 155 76T106 261Q106 372 155 445T299
532V683H373V533Z" />
<glyph unicode="&#xa3;" glyph-name="sterling" d="M463 700T525 613L469 570Q444 601 415 615T349 629Q296 629 269 599T241 508V387H447V329H241V205Q241 158 228 125T179 72H517L507 0H75V68Q112 80 129 98T151 140T156 201V329H74V387H156V515Q156 568 179
610T245 676T346 700Q463 700 525 613Z" />
<glyph unicode="&#xa4;" glyph-name="currency" d="M177 520Q232 553 301 553Q374 553 422 520L511 609L566 555L479 467Q515 413 515 342Q515 274 478 215L566 128L511 74L421 162Q371 130 301 130Q230 130 178 162L89 73L34 127L123 216Q88 272 88 342Q88 412
122 465L34 556L89 610L177 520ZM239 486T206 448T173 342Q173 274 206 237T301 199Q363 199 395 236T428 342Q428 410 396 448T301 486Q239 486 206 448Z" />
<glyph unicode="&#xa5;" glyph-name="yen" d="M367 345H486V287H344V201H486V142H344V0H256V142H116V201H256V287H116V345H232L39 689H135L301 372H305L472 689H561L367 345Z" />
<glyph unicode="&#xa6;" glyph-name="brokenbar" d="M337 452H262V807H337V452ZM337 -102H262V253H337V-102Z" />
<glyph unicode="&#xa7;" glyph-name="section" d="M369 700T408 686T484 646L444 589Q412 611 382 621T311 631Q268 631 242 612T216 561Q216 537 226 522T262 494T340 462Q423 435 458 401T493 310Q493 271 471 239T413 184Q472 140 472 76Q472 9 419 -30T279
-69Q181 -69 108 -15L148 42Q179 20 211 10T284 -1Q327 -1 355 18T384 70Q384 93 374 108T338 137T260 167Q177 195 142 228T106 320Q106 358 128 390T187 445Q128 490 128 554Q128 620 182 660T317 700Q369 700 408 686ZM215 398T203 375T190 331Q190 303 202
287T243 259T342 220Q346 219 350 217T361 213Q384 232 397 254T410 299Q410 327 397 343T353 372T239 416Q215 398 203 375Z" />
<glyph unicode="&#xa8;" glyph-name="dieresis" d="M173 648T157 663T141 701Q141 725 157 740T196 756Q219 756 234 741T250 701Q250 678 235 663T196 648Q173 648 157 663ZM380 648T365 663T349 701Q349 725 364 740T403 756Q426 756 442 741T458 701Q458 679
442 664T403 648Q380 648 365 663Z" />
<glyph unicode="&#xa9;" glyph-name="copyright" d="M385 747T446 706T539 593T571 435Q571 348 539 278T446 166T301 125Q217 125 156 166T62 278T29 435Q29 522 61 593T155 705T301 747Q385 747 446 706ZM231 697T183 663T110 569T85 435Q85 361 109 303T182
210T301 176Q371 176 419 210T492 302T516 435Q516 509 492 568T420 662T301 697Q231 697 183 663ZM342 625T368 616T422 586L386 539Q347 569 308 569Q266 569 240 537T214 436Q214 372 239 340T308 307Q356 307 394 342L427 294Q374 247 305 247Q232 247 187
297T142 436Q142 496 164 538T223 603T304 625Q342 625 368 616Z" />
<glyph unicode="&#xaa;" glyph-name="ordfeminine" d="M372 749T414 713T456 609V412Q456 390 464 378T490 361L471 307Q439 311 419 325T388 366Q364 338 329 323T254 307Q186 307 144 343T102 440Q102 506 159 541T319 577H378V606Q378 685 279 685Q224 685
157 660L134 719Q214 749 290 749Q372 749 414 713ZM320 520Q187 520 187 444Q187 406 209 387T273 367Q303 367 330 382T378 423V520H320ZM498 0H106V75H498V0Z" />
<glyph unicode="&#xab;" glyph-name="guillemotleft" d="M258 55L82 263V324L258 532L309 500L173 294L309 87L258 55ZM466 55L289 263V324L466 532L517 500L381 294L517 87L466 55Z" />
<glyph unicode="&#xac;" glyph-name="logicalnot" d="M484 134H407V276H116V348H484V134Z" />
<glyph unicode="&#xad;" glyph-name="uni00AD" d="M144 349H456V277H144V349Z" />
<glyph unicode="&#xae;" glyph-name="registered" d="M369 747T427 713T519 620T553 492Q553 423 519 365T427 273T300 239Q231 239 173 273T80 365T46 492Q46 561 80 619T172 712T300 747Q369 747 427 713ZM244 700T198 672T126 596T99 492Q99 435 125 388T198
314T300 286Q356 286 402 313T474 388T500 492Q500 549 474 596T402 672T300 700Q244 700 198 672ZM408 636T408 551Q408 521 390 501T341 472L427 354H361L286 463H257V354H201V636H286Q408 636 408 551ZM257 592V506H289Q350 506 350 551Q350 592 287 592H257Z"
/>
<glyph unicode="&#xaf;" glyph-name="overscore" d="M165 676V740H434V676H165Z" />
<glyph unicode="&#xb0;" glyph-name="degree" d="M270 749T307 731T367 677T390 592Q390 544 368 509T308 455T228 436Q185 436 148 454T88 509T65 593Q65 641 88 676T148 730T228 749Q270 749 307 731ZM191 689T165 665T139 593Q139 546 165 521T228 495Q265
495 291 520T317 592Q317 639 291 664T228 689Q191 689 165 665Z" />
<glyph unicode="&#xb1;" glyph-name="plusminus" d="M340 389H484V318H340V163H260V318H116V389H260V538H340V389ZM484 0H116V73H484V0Z" />
<glyph unicode="&#xb2;" glyph-name="uni00B2" d="M435 504T419 480T368 433T266 376H445L436 315H159V368Q253 425 289 449T342 492T359 533Q359 556 344 568T300 581Q245 581 205 533L154 572Q184 606 222 624T302 642Q364 642 399 613T435 536Q435 504 419 480Z" />
<glyph unicode="&#xb3;" glyph-name="uni00B3" d="M368 642T403 618T438 553Q438 525 422 509T367 486Q411 479 431 462T452 410Q452 364 411 337T298 309Q255 309 216 323T147 367L193 406Q237 366 301 366Q339 366 358 378T377 412Q377 437 359 448T305 459H259L266
502H301Q365 502 365 543Q365 587 303 587Q249 587 199 549L159 590Q223 642 308 642Q368 642 403 618Z" />
<glyph unicode="&#xb4;" glyph-name="acute" d="M422 725L213 640L187 685L384 797L422 725Z" />
<glyph unicode="&#xb5;" glyph-name="uni00B5" d="M484 168Q484 90 511 0L432 -12Q425 1 418 27T408 73Q385 35 346 12T267 -12Q227 -12 205 -1T163 39Q172 -26 172 -49V-202L88 -212V527H172V231Q172 171 178 137T203 83T261 63Q305 63 340 85T400 142V527H484V168Z" />
<glyph unicode="&#xb6;" glyph-name="paragraph" d="M556 -201L479 -212V619H367V-201L290 -212V289Q211 289 155 315T71 386T43 487Q43 545 72 590T158 662T297 689H556V-201Z" />
<glyph unicode="&#xb7;" glyph-name="middot" d="M211 379T236 404T299 429Q337 429 362 404T387 342Q387 304 362 279T299 253Q262 253 237 278T211 342Q211 379 236 404Z" />
<glyph unicode="&#xb8;" glyph-name="cedilla" d="M340 -115T319 -106T254 -97L262 16H320V-57Q366 -61 389 -84T413 -140Q413 -187 378 -212T291 -238Q261 -238 234 -232T186 -214L213 -166Q243 -182 280 -182Q340 -182 340 -141Q340 -115 319 -106Z" />
<glyph unicode="&#xb9;" glyph-name="uni00B9" d="M364 554L268 502L233 551L378 636H435V315H364V554Z" />
<glyph unicode="&#xba;" glyph-name="ordmasculine" d="M394 749T448 690T503 529Q503 464 478 414T407 335T300 307Q207 307 152 367T96 529Q96 594 121 643T193 721T300 749Q394 749 448 690ZM244 685T212 646T180 529Q180 450 211 411T300 372Q356 372 387
411T419 529Q419 607 388 646T300 685Q244 685 212 646ZM497 0H104V75H497V0Z" />
<glyph unicode="&#xbb;" glyph-name="guillemotright" d="M82 500L133 532L309 324V263L133 55L82 87L217 294L82 500ZM289 500L340 532L517 324V263L340 55L289 87L424 294L289 500Z" />
<glyph unicode="&#xbc;" glyph-name="onequarter" d="M129 607L33 554L-2 604L143 689H200V368H129V607ZM14 238L549 494L578 440L44 184L14 238ZM546 0H473V56H294V104L430 331L491 306L376 115H473L479 201H546V115H601V56H546V0Z" />
<glyph unicode="&#xbd;" glyph-name="onehalf" d="M126 607L30 554L-5 604L140 689H197V368H126V607ZM10 238L545 494L574 440L40 184L10 238ZM594 189T578 165T527 118T425 61H604L595 0H318V53Q412 110 448 134T501 177T518 218Q518 241 503 253T459 266Q404
266 364 218L313 257Q343 291 381 309T461 327Q523 327 558 298T594 221Q594 189 578 165Z" />
<glyph unicode="&#xbe;" glyph-name="threequarters" d="M218 695T253 671T288 606Q288 578 272 562T217 539Q261 532 281 515T302 463Q302 417 261 390T148 362Q105 362 66 376T-3 420L43 458Q66 438 94 428T151 418Q189 418 208 430T227 465Q227 490 209 501T155
512H109L116 554H151Q215 554 215 595Q215 639 153 639Q97 639 49 601L9 643Q73 695 158 695Q218 695 253 671ZM24 238L559 494L588 440L54 184L24 238ZM548 0H475V56H296V104L432 331L493 306L378 115H475L481 201H548V115H603V56H548V0Z" />
<glyph unicode="&#xbf;" glyph-name="questiondown" d="M352 499T371 479T391 431Q391 403 372 384T324 365Q296 365 277 384T257 431Q257 460 276 479T324 499Q352 499 371 479ZM370 222Q370 181 356 151T322 101T269 57Q230 28 211 5T192 -52Q192 -94 225 -118T310
-142Q348 -142 385 -124T452 -68L512 -113Q428 -212 302 -212Q243 -212 198 -190T129 -133T105 -57Q105 -19 117 7T148 51T198 91Q241 123 263 151T285 226V260H370V222Z" />
<glyph unicode="&#xc0;" glyph-name="Agrave" d="M161 176L106 0H20L245 689H355L579 0H489L434 176H161ZM411 248L298 615L184 248H411ZM416 801L390 755L185 837L231 909L416 801Z" />
<glyph unicode="&#xc1;" glyph-name="Aacute" d="M161 176L106 0H20L245 689H355L579 0H489L434 176H161ZM411 248L298 615L184 248H411ZM420 834L207 755L185 801L383 906L420 834Z" />
<glyph unicode="&#xc2;" glyph-name="Acircumflex" d="M161 176L106 0H20L245 689H355L579 0H489L434 176H161ZM411 248L298 615L184 248H411ZM463 803L426 760L300 841L175 760L137 803L272 910H329L463 803Z" />
<glyph unicode="&#xc3;" glyph-name="Atilde" d="M161 176L106 0H20L245 689H355L579 0H489L434 176H161ZM411 248L298 615L184 248H411ZM340 778T325 785T290 805Q275 816 264 821T242 826Q226 826 214 815T189 780L136 807Q177 891 243 891Q263 891 278 884T312
864Q328 853 338 848T359 843Q374 843 386 853T412 887L465 860Q427 778 359 778Q340 778 325 785Z" />
<glyph unicode="&#xc4;" glyph-name="Adieresis" d="M161 176L106 0H20L245 689H355L579 0H489L434 176H161ZM411 248L298 615L184 248H411ZM173 768T158 783T142 821Q142 844 157 859T197 875Q220 875 235 860T251 821Q251 798 236 783T197 768Q173 768 158 783ZM380
768T365 783T349 821Q349 844 364 859T403 875Q426 875 442 860T458 821Q458 798 442 783T403 768Q380 768 365 783Z" />
<glyph unicode="&#xc5;" glyph-name="Aring" d="M161 176L106 0H20L245 689H355L579 0H489L434 176H161ZM411 248L298 615L184 248H411ZM349 943T380 914T411 840Q411 797 380 768T301 738Q253 738 221 767T189 840Q189 884 221 913T301 943Q349 943 380 914ZM276
897T261 882T246 840Q246 814 261 799T301 783Q326 783 340 798T354 840Q354 866 340 881T301 897Q276 897 261 882Z" />
<glyph unicode="&#xc6;" glyph-name="AE" d="M126 175L77 0H-12L190 689H566L556 618H320L371 385H557V314H384L436 71H607V0H366L330 175H126ZM314 248L241 620L148 248H314Z" />
<glyph unicode="&#xc7;" glyph-name="Ccedilla" d="M416 -61T439 -84T463 -140Q463 -187 428 -212T341 -238Q311 -238 284 -232T236 -214L263 -166Q293 -182 330 -182Q390 -182 390 -141Q390 -115 369 -106T304 -97L310 -7Q238 5 182 49T95 169T63 345Q63 457
102 537T209 659T358 700Q422 700 468 684T558 633L509 576Q448 627 364 627Q271 627 213 560T154 345Q154 199 211 131T363 63Q415 63 452 78T523 120L568 64Q494 -8 370 -11V-57Q416 -61 439 -84Z" />
<glyph unicode="&#xc8;" glyph-name="Egrave" d="M212 385H468V314H212V70H526V0H126V689H517L507 617H212V385ZM437 801L411 755L206 837L252 909L437 801Z" />
<glyph unicode="&#xc9;" glyph-name="Eacute" d="M212 385H468V314H212V70H526V0H126V689H517L507 617H212V385ZM441 834L228 755L206 801L404 906L441 834Z" />
<glyph unicode="&#xca;" glyph-name="Ecircumflex" d="M212 385H468V314H212V70H526V0H126V689H517L507 617H212V385ZM484 803L447 760L321 841L196 760L158 803L293 910H350L484 803Z" />
<glyph unicode="&#xcb;" glyph-name="Edieresis" d="M212 385H468V314H212V70H526V0H126V689H517L507 617H212V385ZM194 768T179 783T163 821Q163 844 178 859T218 875Q241 875 256 860T272 821Q272 798 257 783T218 768Q194 768 179 783ZM401 768T386 783T370
821Q370 844 385 859T424 875Q447 875 463 860T479 821Q479 798 463 783T424 768Q401 768 386 783Z" />
<glyph unicode="&#xcc;" glyph-name="Igrave" d="M497 619H344V69H497V0H103V69H256V619H103V689H497V619ZM416 801L390 755L185 837L231 909L416 801Z" />
<glyph unicode="&#xcd;" glyph-name="Iacute" d="M497 619H344V69H497V0H103V69H256V619H103V689H497V619ZM420 834L207 755L185 801L383 906L420 834Z" />
<glyph unicode="&#xce;" glyph-name="Icircumflex" d="M497 619H344V69H497V0H103V69H256V619H103V689H497V619ZM463 803L426 760L300 841L175 760L137 803L272 910H329L463 803Z" />
<glyph unicode="&#xcf;" glyph-name="Idieresis" d="M497 619H344V69H497V0H103V69H256V619H103V689H497V619ZM173 768T158 783T142 821Q142 844 157 859T197 875Q220 875 235 860T251 821Q251 798 236 783T197 768Q173 768 158 783ZM380 768T365 783T349 821Q349
844 364 859T403 875Q426 875 442 860T458 821Q458 798 442 783T403 768Q380 768 365 783Z" />
<glyph unicode="&#xd0;" glyph-name="Eth" d="M384 689T473 616T562 348Q562 152 473 76T251 0H93V320H20V386H93V689H240Q384 689 473 616ZM351 70T410 131T470 348Q470 509 411 563T261 618H180V386H338V320H180V70H262Q351 70 410 131Z" />
<glyph unicode="&#xd1;" glyph-name="Ntilde" d="M152 605Q152 598 158 518T164 345V0H83V689H201L448 81L446 117Q436 240 436 344V689H517V0H395L152 605ZM594 778T579 785T544 805Q529 816 518 821T496 826Q480 826 468 815T443 780L390 807Q431 891 497 891Q517
891 532 884T566 864Q582 853 592 848T613 843Q628 843 640 853T666 887L719 860Q681 778 613 778Q594 778 579 785Z" />
<glyph unicode="&#xd2;" glyph-name="Ograve" d="M553 183T488 86T300 -11Q177 -11 112 84T47 343Q47 448 76 529T162 655T300 700Q422 700 487 604T553 344Q553 183 488 86ZM463 485T424 556T300 627Q215 627 176 556T137 343Q137 203 176 133T300 62Q385 62
424 132T463 344Q463 485 424 556ZM416 801L390 755L185 837L231 909L416 801Z" />
<glyph unicode="&#xd3;" glyph-name="Oacute" d="M553 183T488 86T300 -11Q177 -11 112 84T47 343Q47 448 76 529T162 655T300 700Q422 700 487 604T553 344Q553 183 488 86ZM463 485T424 556T300 627Q215 627 176 556T137 343Q137 203 176 133T300 62Q385 62
424 132T463 344Q463 485 424 556ZM420 834L207 755L185 801L383 906L420 834Z" />
<glyph unicode="&#xd4;" glyph-name="Ocircumflex" d="M553 183T488 86T300 -11Q177 -11 112 84T47 343Q47 448 76 529T162 655T300 700Q422 700 487 604T553 344Q553 183 488 86ZM463 485T424 556T300 627Q215 627 176 556T137 343Q137 203 176 133T300 62Q385
62 424 132T463 344Q463 485 424 556ZM463 803L426 760L300 841L175 760L137 803L272 910H329L463 803Z" />
<glyph unicode="&#xd5;" glyph-name="Otilde" d="M553 183T488 86T300 -11Q177 -11 112 84T47 343Q47 448 76 529T162 655T300 700Q422 700 487 604T553 344Q553 183 488 86ZM463 485T424 556T300 627Q215 627 176 556T137 343Q137 203 176 133T300 62Q385 62
424 132T463 344Q463 485 424 556ZM340 778T325 785T290 805Q275 816 264 821T242 826Q226 826 214 815T189 780L136 807Q177 891 243 891Q263 891 278 884T312 864Q328 853 338 848T359 843Q374 843 386 853T412 887L465 860Q427 778 359 778Q340 778 325 785Z"
/>
<glyph unicode="&#xd6;" glyph-name="Odieresis" d="M553 183T488 86T300 -11Q177 -11 112 84T47 343Q47 448 76 529T162 655T300 700Q422 700 487 604T553 344Q553 183 488 86ZM463 485T424 556T300 627Q215 627 176 556T137 343Q137 203 176 133T300 62Q385
62 424 132T463 344Q463 485 424 556ZM173 768T158 783T142 821Q142 844 157 859T197 875Q220 875 235 860T251 821Q251 798 236 783T197 768Q173 768 158 783ZM380 768T365 783T349 821Q349 844 364 859T403 875Q426 875 442 860T458 821Q458 798 442 783T403
768Q380 768 365 783Z" />
<glyph unicode="&#xd7;" glyph-name="multiply" d="M475 430L352 307L475 184L423 132L300 255L177 132L125 184L248 307L125 430L177 483L300 359L423 483L475 430Z" />
<glyph unicode="&#xd8;" glyph-name="Oslash" d="M493 617T523 536T553 344Q553 183 488 86T300 -11Q264 -11 237 -4L204 -110L129 -91L167 28Q108 70 78 151T47 343Q47 448 76 529T162 655T300 700Q333 700 365 692L397 803L472 783L434 659Q493 617 523 536ZM138
248T152 189T198 98L349 621Q326 627 300 627Q215 627 177 556T138 343Q138 248 152 189ZM385 62T423 132T462 344Q462 441 448 500T402 591L251 68Q274 62 300 62Q385 62 423 132Z" />
<glyph unicode="&#xd9;" glyph-name="Ugrave" d="M528 223Q528 154 500 101T420 18T299 -11Q229 -11 178 18T100 101T72 223V689H159V220Q159 142 195 103T299 64Q367 64 403 103T440 220V689H528V223ZM416 801L390 755L185 837L231 909L416 801Z" />
<glyph unicode="&#xda;" glyph-name="Uacute" d="M528 223Q528 154 500 101T420 18T299 -11Q229 -11 178 18T100 101T72 223V689H159V220Q159 142 195 103T299 64Q367 64 403 103T440 220V689H528V223ZM420 834L207 755L185 801L383 906L420 834Z" />
<glyph unicode="&#xdb;" glyph-name="Ucircumflex" d="M528 223Q528 154 500 101T420 18T299 -11Q229 -11 178 18T100 101T72 223V689H159V220Q159 142 195 103T299 64Q367 64 403 103T440 220V689H528V223ZM463 803L426 760L300 841L175 760L137 803L272 910H329L463
803Z" />
<glyph unicode="&#xdc;" glyph-name="Udieresis" d="M528 223Q528 154 500 101T420 18T299 -11Q229 -11 178 18T100 101T72 223V689H159V220Q159 142 195 103T299 64Q367 64 403 103T440 220V689H528V223ZM173 768T158 783T142 821Q142 844 157 859T197 875Q220
875 235 860T251 821Q251 798 236 783T197 768Q173 768 158 783ZM380 768T365 783T349 821Q349 844 364 859T403 875Q426 875 442 860T458 821Q458 798 442 783T403 768Q380 768 365 783Z" />
<glyph unicode="&#xdd;" glyph-name="Yacute" d="M344 0H256V265L23 689H119L302 343L487 689H577L344 266V0ZM423 834L210 755L188 801L386 906L423 834Z" />
<glyph unicode="&#xde;" glyph-name="Thorn" d="M194 572H292Q419 572 487 518T556 355Q556 239 485 184T292 128H194V0H107V689H194V572ZM194 503V198H303Q381 198 422 232T464 353Q464 430 422 466T303 503H194Z" />
<glyph unicode="&#xdf;" glyph-name="germandbls" d="M374 749T422 709T471 605Q471 569 454 546T405 496Q380 475 369 462T357 429Q357 404 375 387T434 343Q473 318 497 298T540 245T558 167Q558 111 533 71T466 10T372 -11Q296 -11 242 23L277 81Q295 70 318
64T364 57Q415 57 443 83T472 163Q472 206 448 232T374 289Q341 310 321 326T288 365T274 419Q274 452 290 474T337 520Q364 541 377 557T390 597Q390 630 368 656T296 682Q238 682 209 648T180 539V0H96V533Q96 638 149 693T297 749Q374 749 422 709Z" />
<glyph unicode="&#xe0;" glyph-name="agrave" d="M478 84T488 70T521 48L500 -12Q423 -2 404 63Q376 27 334 8T239 -11Q160 -11 115 33T69 151Q69 232 132 276T315 320H393V363Q393 419 361 443T268 468Q208 468 131 441L108 505Q201 538 281 538Q377 538 427
493T478 368V115Q478 84 488 70ZM299 52T334 72T393 127V262H317Q233 262 196 234T159 152Q159 52 260 52Q299 52 334 72ZM432 715L478 787L662 668L635 622L432 715Z" />
<glyph unicode="&#xe1;" glyph-name="aacute" d="M478 84T488 70T521 48L500 -12Q423 -2 404 63Q376 27 334 8T239 -11Q160 -11 115 33T69 151Q69 232 132 276T315 320H393V363Q393 419 361 443T268 468Q208 468 131 441L108 505Q201 538 281 538Q377 538 427
493T478 368V115Q478 84 488 70ZM299 52T334 72T393 127V262H317Q233 262 196 234T159 152Q159 52 260 52Q299 52 334 72ZM670 725L461 640L435 685L632 797L670 725Z" />
<glyph unicode="&#xe2;" glyph-name="acircumflex" d="M478 84T488 70T521 48L500 -12Q423 -2 404 63Q376 27 334 8T239 -11Q160 -11 115 33T69 151Q69 232 132 276T315 320H393V363Q393 419 361 443T268 468Q208 468 131 441L108 505Q201 538 281 538Q377 538
427 493T478 368V115Q478 84 488 70ZM299 52T334 72T393 127V262H317Q233 262 196 234T159 152Q159 52 260 52Q299 52 334 72ZM385 670L520 789H577L711 670L673 629L549 720L425 629L385 670Z" />
<glyph unicode="&#xe3;" glyph-name="atilde" d="M478 84T488 70T521 48L500 -12Q423 -2 404 63Q376 27 334 8T239 -11Q160 -11 115 33T69 151Q69 232 132 276T315 320H393V363Q393 419 361 443T268 468Q208 468 131 441L108 505Q201 538 281 538Q377 538 427
493T478 368V115Q478 84 488 70ZM299 52T334 72T393 127V262H317Q233 262 196 234T159 152Q159 52 260 52Q299 52 334 72ZM587 659T572 666T537 686Q522 697 512 702T490 707Q474 707 462 696T437 661L384 687Q403 726 429 749T490 772Q511 772 526 765T560 744Q577
732 586 728T606 723Q621 723 633 733T659 768L713 741Q694 700 667 680T606 659Q587 659 572 666Z" />
<glyph unicode="&#xe4;" glyph-name="adieresis" d="M478 84T488 70T521 48L500 -12Q423 -2 404 63Q376 27 334 8T239 -11Q160 -11 115 33T69 151Q69 232 132 276T315 320H393V363Q393 419 361 443T268 468Q208 468 131 441L108 505Q201 538 281 538Q377 538 427
493T478 368V115Q478 84 488 70ZM299 52T334 72T393 127V262H317Q233 262 196 234T159 152Q159 52 260 52Q299 52 334 72ZM421 648T405 663T389 701Q389 725 405 740T444 756Q467 756 482 741T498 701Q498 678 483 663T444 648Q421 648 405 663ZM628 648T613 663T597
701Q597 725 612 740T651 756Q674 756 690 741T706 701Q706 679 690 664T651 648Q628 648 613 663Z" />
<glyph unicode="&#xe5;" glyph-name="aring" d="M478 84T488 70T521 48L500 -12Q423 -2 404 63Q376 27 334 8T239 -11Q160 -11 115 33T69 151Q69 232 132 276T315 320H393V363Q393 419 361 443T268 468Q208 468 131 441L108 505Q201 538 281 538Q377 538 427 493T478
368V115Q478 84 488 70ZM299 52T334 72T393 127V262H317Q233 262 196 234T159 152Q159 52 260 52Q299 52 334 72ZM596 824T627 794T659 721Q659 678 628 649T548 619Q500 619 469 648T437 721Q437 764 468 794T548 824Q596 824 627 794ZM523 777T509 762T494 721Q494
694 508 679T548 664Q574 664 588 679T602 721Q602 747 588 762T548 777Q523 777 509 762Z" />
<glyph unicode="&#xe6;" glyph-name="ae" d="M522 538T564 471T607 279Q607 257 605 233H336Q343 142 369 101T449 59Q476 59 498 68T548 99L587 41Q554 15 521 2T447 -11Q396 -11 360 11T299 78Q264 30 230 10T146 -11Q76 -11 35 33T-6 151Q-6 234 48 277T208
320H254V363Q254 468 163 468Q137 468 115 462T58 441L36 504Q107 538 171 538Q227 538 259 516T309 450Q323 491 355 514T435 538Q522 538 564 471ZM386 468T364 430T336 299H525Q523 385 502 426T432 468Q386 468 364 430ZM212 262Q143 262 114 235T85 156Q85
106 105 80T159 53Q190 53 214 76T268 150Q254 195 254 262H212Z" />
<glyph unicode="&#xe7;" glyph-name="ccedilla" d="M405 -61T428 -84T452 -140Q452 -187 417 -212T330 -238Q300 -238 273 -232T225 -214L252 -166Q282 -182 319 -182Q379 -182 379 -141Q379 -115 358 -106T293 -97L299 -9Q200 4 146 75T91 261Q91 340 120 403T206
502T339 538Q441 538 515 476L474 421Q405 467 338 467Q267 467 225 415T182 261Q182 160 224 111T339 61Q408 61 476 107L516 52Q487 26 445 10T359 -11V-57Q405 -61 428 -84Z" />
<glyph unicode="&#xe8;" glyph-name="egrave" d="M170 147T212 103T320 59Q359 59 391 70T461 106L500 50Q463 21 416 5T320 -11Q206 -11 143 63T79 263Q79 342 107 404T187 502T308 538Q408 538 465 469T523 279Q523 256 521 234H167Q170 147 212 103ZM248 469T210
426T167 298H441Q440 381 405 425T309 469Q248 469 210 426ZM194 715L240 787L424 668L397 622L194 715Z" />
<glyph unicode="&#xe9;" glyph-name="eacute" d="M170 147T212 103T320 59Q359 59 391 70T461 106L500 50Q463 21 416 5T320 -11Q206 -11 143 63T79 263Q79 342 107 404T187 502T308 538Q408 538 465 469T523 279Q523 256 521 234H167Q170 147 212 103ZM248 469T210
426T167 298H441Q440 381 405 425T309 469Q248 469 210 426ZM432 725L223 640L197 685L394 797L432 725Z" />
<glyph unicode="&#xea;" glyph-name="ecircumflex" d="M170 147T212 103T320 59Q359 59 391 70T461 106L500 50Q463 21 416 5T320 -11Q206 -11 143 63T79 263Q79 342 107 404T187 502T308 538Q408 538 465 469T523 279Q523 256 521 234H167Q170 147 212 103ZM248
469T210 426T167 298H441Q440 381 405 425T309 469Q248 469 210 426ZM147 670L282 789H339L473 670L435 629L311 720L187 629L147 670Z" />
<glyph unicode="&#xeb;" glyph-name="edieresis" d="M170 147T212 103T320 59Q359 59 391 70T461 106L500 50Q463 21 416 5T320 -11Q206 -11 143 63T79 263Q79 342 107 404T187 502T308 538Q408 538 465 469T523 279Q523 256 521 234H167Q170 147 212 103ZM248
469T210 426T167 298H441Q440 381 405 425T309 469Q248 469 210 426ZM183 648T167 663T151 701Q151 725 167 740T206 756Q229 756 244 741T260 701Q260 678 245 663T206 648Q183 648 167 663ZM390 648T375 663T359 701Q359 725 374 740T413 756Q436 756 452 741T468
701Q468 679 452 664T413 648Q390 648 375 663Z" />
<glyph unicode="&#xec;" glyph-name="igrave" d="M367 67H515V0H121V67H283V460H126V527H367V67ZM185 715L231 787L415 668L388 622L185 715Z" />
<glyph unicode="&#xed;" glyph-name="iacute" d="M367 67H515V0H121V67H283V460H126V527H367V67ZM423 725L214 640L188 685L385 797L423 725Z" />
<glyph unicode="&#xee;" glyph-name="icircumflex" d="M367 67H515V0H121V67H283V460H126V527H367V67ZM138 670L273 789H330L464 670L426 629L302 720L178 629L138 670Z" />
<glyph unicode="&#xef;" glyph-name="idieresis" d="M367 67H515V0H121V67H283V460H126V527H367V67ZM174 648T158 663T142 701Q142 725 158 740T197 756Q220 756 235 741T251 701Q251 678 236 663T197 648Q174 648 158 663ZM381 648T366 663T350 701Q350 725 365
740T404 756Q427 756 443 741T459 701Q459 679 443 664T404 648Q381 648 366 663Z" />
<glyph unicode="&#xf0;" glyph-name="eth" d="M250 647Q201 670 133 683L152 749Q244 730 301 700L371 773L422 729L360 665Q449 604 490 506T532 264Q532 180 503 118T420 23T295 -11Q231 -11 179 18T97 102T67 235Q67 307 96 363T174 450T280 481Q377 481 437
412Q424 475 391 526T308 612L229 532L170 562L250 647ZM448 292T444 332Q419 372 379 393T290 414Q231 414 192 370T153 239Q153 152 191 105T294 57Q365 57 406 111T448 267Q448 292 444 332Z" />
<glyph unicode="&#xf1;" glyph-name="ntilde" d="M100 527H172L179 453Q210 493 257 515T353 538Q501 538 501 382V0H417V320Q417 379 411 410T385 456T327 471Q284 471 246 445T184 383V0H100V527ZM339 659T324 666T289 686Q274 697 264 702T242 707Q226 707
214 696T189 661L136 687Q155 726 181 749T242 772Q263 772 278 765T312 744Q329 732 338 728T358 723Q373 723 385 733T411 768L465 741Q446 700 419 680T358 659Q339 659 324 666Z" />
<glyph unicode="&#xf2;" glyph-name="ograve" d="M410 538T468 465T527 264Q527 140 468 65T300 -11Q191 -11 132 62T73 263Q73 388 132 463T301 538Q410 538 468 465ZM232 469T198 418T164 263Q164 159 197 109T300 58Q369 58 402 108T436 264Q436 368 403 418T301
469Q232 469 198 418ZM184 715L230 787L414 668L387 622L184 715Z" />
<glyph unicode="&#xf3;" glyph-name="oacute" d="M410 538T468 465T527 264Q527 140 468 65T300 -11Q191 -11 132 62T73 263Q73 388 132 463T301 538Q410 538 468 465ZM232 469T198 418T164 263Q164 159 197 109T300 58Q369 58 402 108T436 264Q436 368 403 418T301
469Q232 469 198 418ZM422 725L213 640L187 685L384 797L422 725Z" />
<glyph unicode="&#xf4;" glyph-name="ocircumflex" d="M410 538T468 465T527 264Q527 140 468 65T300 -11Q191 -11 132 62T73 263Q73 388 132 463T301 538Q410 538 468 465ZM232 469T198 418T164 263Q164 159 197 109T300 58Q369 58 402 108T436 264Q436 368 403
418T301 469Q232 469 198 418ZM137 670L272 789H329L463 670L425 629L301 720L177 629L137 670Z" />
<glyph unicode="&#xf5;" glyph-name="otilde" d="M410 538T468 465T527 264Q527 140 468 65T300 -11Q191 -11 132 62T73 263Q73 388 132 463T301 538Q410 538 468 465ZM232 469T198 418T164 263Q164 159 197 109T300 58Q369 58 402 108T436 264Q436 368 403 418T301
469Q232 469 198 418ZM339 659T324 666T289 686Q274 697 264 702T242 707Q226 707 214 696T189 661L136 687Q155 726 181 749T242 772Q263 772 278 765T312 744Q329 732 338 728T358 723Q373 723 385 733T411 768L465 741Q446 700 419 680T358 659Q339 659 324
666Z" />
<glyph unicode="&#xf6;" glyph-name="odieresis" d="M410 538T468 465T527 264Q527 140 468 65T300 -11Q191 -11 132 62T73 263Q73 388 132 463T301 538Q410 538 468 465ZM232 469T198 418T164 263Q164 159 197 109T300 58Q369 58 402 108T436 264Q436 368 403
418T301 469Q232 469 198 418ZM173 648T157 663T141 701Q141 725 157 740T196 756Q219 756 234 741T250 701Q250 678 235 663T196 648Q173 648 157 663ZM380 648T365 663T349 701Q349 725 364 740T403 756Q426 756 442 741T458 701Q458 679 442 664T403 648Q380
648 365 663Z" />
<glyph unicode="&#xf7;" glyph-name="divide" d="M328 575T348 556T368 508Q368 480 349 461T300 442Q271 442 252 461T232 508Q232 536 252 555T300 575Q328 575 348 556ZM484 276H116V348H484V276ZM328 183T348 164T368 116Q368 88 348 69T300 49Q272 49 252
68T232 116Q232 144 252 163T300 183Q328 183 348 164Z" />
<glyph unicode="&#xf8;" glyph-name="oslash" d="M470 476T498 413T527 264Q527 140 468 65T300 -11Q271 -11 250 -7L213 -130L143 -110L185 18Q131 50 102 113T73 263Q73 388 132 463T301 538Q323 538 350 533L388 654L458 633L417 508Q470 476 498 413ZM164
469T164 263Q164 131 216 85L334 466Q319 469 301 469Q164 469 164 263ZM436 58T436 264Q436 396 385 441L267 61Q282 58 300 58Q436 58 436 264Z" />
<glyph unicode="&#xf9;" glyph-name="ugrave" d="M184 153Q184 102 205 79T273 55Q315 55 354 79T416 139V527H500V0H428L421 71Q390 32 345 11T252 -11Q177 -11 139 29T100 144V527H184V153ZM184 715L230 787L414 668L387 622L184 715Z" />
<glyph unicode="&#xfa;" glyph-name="uacute" d="M184 153Q184 102 205 79T273 55Q315 55 354 79T416 139V527H500V0H428L421 71Q390 32 345 11T252 -11Q177 -11 139 29T100 144V527H184V153ZM422 725L213 640L187 685L384 797L422 725Z" />
<glyph unicode="&#xfb;" glyph-name="ucircumflex" d="M184 153Q184 102 205 79T273 55Q315 55 354 79T416 139V527H500V0H428L421 71Q390 32 345 11T252 -11Q177 -11 139 29T100 144V527H184V153ZM137 670L272 789H329L463 670L425 629L301 720L177 629L137 670Z" />
<glyph unicode="&#xfc;" glyph-name="udieresis" d="M184 153Q184 102 205 79T273 55Q315 55 354 79T416 139V527H500V0H428L421 71Q390 32 345 11T252 -11Q177 -11 139 29T100 144V527H184V153ZM173 648T157 663T141 701Q141 725 157 740T196 756Q219 756 234
741T250 701Q250 678 235 663T196 648Q173 648 157 663ZM380 648T365 663T349 701Q349 725 364 740T403 756Q426 756 442 741T458 701Q458 679 442 664T403 648Q380 648 365 663Z" />
<glyph unicode="&#xfd;" glyph-name="yacute" d="M354 -3Q323 -94 269 -148T118 -212L106 -145Q159 -136 190 -118T240 -72T273 0H245L62 527H151L302 64L451 527H538L354 -3ZM422 725L213 640L187 685L384 797L422 725Z" />
<glyph unicode="&#xfe;" glyph-name="thorn" d="M184 461Q213 498 252 518T336 538Q527 538 527 264Q527 139 475 64T324 -11Q238 -11 184 49V-202L100 -212V739L184 749V461ZM276 470T243 446T184 386V125Q205 94 236 77T305 59Q371 59 403 109T436 264Q436 368
407 419T316 470Q276 470 243 446Z" />
<glyph unicode="&#xff;" glyph-name="ydieresis" d="M354 -3Q323 -94 269 -148T118 -212L106 -145Q159 -136 190 -118T240 -72T273 0H245L62 527H151L302 64L451 527H538L354 -3ZM173 648T157 663T141 701Q141 725 157 740T196 756Q219 756 234 741T250 701Q250
678 235 663T196 648Q173 648 157 663ZM380 648T365 663T349 701Q349 725 364 740T403 756Q426 756 442 741T458 701Q458 679 442 664T403 648Q380 648 365 663Z" />
<glyph unicode="&#x2013;" glyph-name="endash" d="M33 349H567V277H33V349Z" />
<glyph unicode="&#x2014;" glyph-name="emdash" d="M0 349H600V277H0V349Z" />
<glyph unicode="&#x2018;" glyph-name="quoteleft" d="M369 520T347 499T293 477Q262 477 240 498T218 551Q218 580 235 616L317 789H383L342 605Q354 597 361 582T369 551Q369 520 347 499Z" />
<glyph unicode="&#x2019;" glyph-name="quoteright" d="M230 746T253 767T306 789Q338 789 360 768T383 716Q383 702 379 688T364 650L282 477H216L257 661Q245 670 238 684T230 716Q230 746 253 767Z" />
<glyph unicode="&#x201a;" glyph-name="quotesinglbase" d="M230 86T253 108T306 130Q338 130 360 109T382 56Q382 42 379 28T364 -9L282 -182H216L257 2Q245 10 238 25T230 56Q230 86 253 108Z" />
<glyph unicode="&#x201c;" glyph-name="quotedblleft" d="M260 520T238 499T184 477Q153 477 131 498T109 551Q109 578 127 616L208 789H275L234 605Q246 597 253 583T260 551Q260 520 238 499ZM477 521T454 499T401 477Q370 477 348 498T326 551Q326 580 343
616L425 789H491L450 605Q462 597 469 582T477 551Q477 521 454 499Z" />
<glyph unicode="&#x201d;" glyph-name="quotedblright" d="M122 745T145 766T198 788Q230 788 252 767T274 715Q274 701 270 687T255 649L174 476H108L148 660Q136 668 129 683T122 715Q122 745 145 766ZM339 745T361 766T415 788Q446 788 468 767T491 715Q491
701 487 687T472 649L390 476H324L365 660Q353 668 346 683T339 715Q339 745 361 766Z" />
<glyph unicode="&#x201e;" glyph-name="quotedblbase" d="M123 86T146 108T199 130Q231 130 253 109T276 56Q276 42 272 29T257 -9L175 -182H109L150 2Q138 10 131 25T123 56Q123 86 146 108ZM339 87T361 108T415 130Q446 130 468 109T490 56Q490 30 472 -9L390
-182H324L365 2Q353 10 346 24T339 56Q339 87 361 108Z" />
<glyph unicode="&#x2022;" glyph-name="bullet" d="M248 220T213 255T178 342Q178 394 212 428T300 463Q353 463 387 429T422 341Q422 289 388 255T300 220Q248 220 213 255Z" />
<glyph unicode="&#x2039;" glyph-name="guilsinglleft" d="M362 55L188 263V324L362 532L412 501L278 294L412 87L362 55Z" />
<glyph unicode="&#x203a;" glyph-name="guilsinglright" d="M188 501L238 532L412 324V263L238 55L188 87L322 294L188 501Z" />
</font>
</defs>
</svg>
