<?xml version="1.0" standalone="no"?>
<!DOCTYPE svg PUBLIC "-//W3C//DTD SVG 1.1//EN" "http://www.w3.org/Graphics/SVG/1.1/DTD/svg11.dtd">
<svg xmlns="http://www.w3.org/2000/svg">
<defs >
<font id="Exo2" horiz-adv-x="564" ><font-face
    font-family="Exo 2 Semi Bold"
    units-per-em="1000"
    panose-1="0 0 7 0 0 0 0 0 0 0"
    ascent="1005"
    descent="-195"
    alphabetic="0" />
<glyph unicode=" " glyph-name="space" horiz-adv-x="220" />
<glyph unicode="!" glyph-name="exclam" horiz-adv-x="287" d="M204 410L191 216H96L83 410V695H204V410ZM130 137H159Q183 137 192 128T202 94V43Q202 19 193 10T159 0H130Q105 0 96 9T86 43V94Q86 118 95 127T130 137Z" />
<glyph unicode="&quot;" glyph-name="quotedbl" horiz-adv-x="367" d="M146 472H67L60 690H154L146 472ZM300 472H222L214 690H308L300 472Z" />
<glyph unicode="#" glyph-name="numbersign" horiz-adv-x="698" d="M537 435L509 278H619L604 204H497L461 0H368L403 204H246L210 0H117L152 204H36L50 278H165L192 435H78L92 510H205L237 690H330L299 510H456L488 690H581L550 510H661L646 435H537ZM443 435H286L258
278H416L443 435Z" />
<glyph unicode="$" glyph-name="dollar" horiz-adv-x="570" d="M326 400L385 382Q463 357 494 309T526 181Q526 67 473 28T282 -12H280L271 -122H216L226 -11Q146 -7 58 10L66 105L236 102L253 297L189 317Q114 341 82 389T50 517Q50 630 102 666T286 702H298L306
796H360L352 701Q438 696 502 679L494 590Q365 593 342 593L326 400ZM272 417L288 594Q220 593 198 580T175 515Q175 472 192 455T253 423L272 417ZM305 280L290 101Q356 102 378 117T400 182Q400 226 385 243T327 273L305 280Z" />
<glyph unicode="%" glyph-name="percent" horiz-adv-x="901" d="M113 703T206 703T336 657T373 498Q373 386 336 340T206 293T77 339T39 498Q39 611 76 657ZM276 0H195L623 690H703L276 0ZM249 631T205 631T146 603T130 498Q130 420 145 393T205 365T265 392T282
498Q282 575 266 603ZM602 400T694 400T823 354T861 195Q861 81 824 35T694 -11Q602 -11 565 35T528 195Q528 307 565 353ZM694 327Q649 327 634 300T619 195Q618 117 634 89T694 61T754 89T770 195T754 300T694 327Z" />
<glyph unicode="&amp;" glyph-name="ampersand" horiz-adv-x="767" d="M713 92L726 6Q677 -11 608 -11Q508 -11 484 67Q442 25 392 7T263 -11Q152 -11 105 30T58 175Q58 258 89 304T194 356V360Q132 366 106 405T79 521Q79 581 92 616T141 671T221 695T343 701Q438
701 504 690L489 599Q443 602 339 602Q259 602 233 584T206 502Q206 443 229 423T315 402H481L490 516H592V402H707V311H592V149Q592 117 603 105T646 92H713ZM478 311H308Q241 311 216 287T190 198Q190 137 212 116T297 94Q408 96 478 152V311Z" />
<glyph unicode="&apos;" glyph-name="quotesingle" horiz-adv-x="213" d="M146 472H67L60 690H154L146 472Z" />
<glyph unicode="(" glyph-name="parenleft" horiz-adv-x="362" d="M324 790L338 736Q246 693 205 588T163 313Q163 -23 338 -111L324 -165Q180 -115 113 1T45 312Q45 509 112 625T324 790Z" />
<glyph unicode=")" glyph-name="parenright" horiz-adv-x="362" d="M24 736L39 790Q183 741 250 625T318 312Q318 117 251 1T39 -165L24 -111Q199 -23 199 313Q199 482 158 587T24 736Z" />
<glyph unicode="*" glyph-name="asterisk" horiz-adv-x="450" d="M249 527L353 398L298 357L225 479L152 358L96 398L200 526L190 691H260L249 527ZM406 541L283 511L267 530V560L384 607L406 541ZM182 560V530L168 511L44 542L66 607L182 560Z" />
<glyph unicode="+" glyph-name="plus" horiz-adv-x="546" d="M497 255H318V84H227V255H49V345H227V516H318V345H497V255Z" />
<glyph unicode="," glyph-name="comma" horiz-adv-x="238" d="M103 137H136Q160 137 169 128T178 94V30Q177 -64 134 -140L79 -125Q92 -64 92 0Q58 0 58 38V94Q59 118 69 127T103 137Z" />
<glyph unicode="-" glyph-name="hyphen" horiz-adv-x="428" d="M364 211H64V297H364V211Z" />
<glyph unicode="." glyph-name="period" horiz-adv-x="240" d="M102 137H138Q163 137 172 128T182 94V43Q182 19 173 10T138 0H102Q77 0 68 9T58 43V94Q58 118 67 127T102 137Z" />
<glyph unicode="/" glyph-name="slash" horiz-adv-x="534" d="M119 -69H22L415 690H512L119 -69Z" />
<glyph unicode="0" glyph-name="zero" horiz-adv-x="617" d="M168 703T308 703T504 622T561 345T505 69T308 -13T112 68T56 345T112 621ZM307 598Q233 598 206 544T178 345T205 146T307 92Q383 92 411 146T439 345T411 544T307 598Z" />
<glyph unicode="1" glyph-name="one" horiz-adv-x="414" d="M312 0H187V509Q187 548 192 577L30 531L15 620L187 690H312V0Z" />
<glyph unicode="2" glyph-name="two" horiz-adv-x="569" d="M62 581L55 677Q169 702 277 702Q389 702 443 670T498 546Q498 483 474 433T383 309L200 112Q241 118 307 118H520V0H50V75Q50 108 68 127L248 326Q373 459 372 536Q371 572 347 582T264 593Q168 593 62 581Z" />
<glyph unicode="3" glyph-name="three" horiz-adv-x="561" d="M65 590L59 685Q165 703 265 703Q383 703 433 668T484 543Q484 468 462 424T383 369V365Q448 354 474 312T502 192Q504 84 452 36T275 -13Q177 -13 46 5L52 103Q172 95 242 95Q319 95 348 119T378
207Q378 264 354 289T261 314H133V407H261Q326 407 345 433T365 512Q364 566 341 581T245 596Q137 596 65 590Z" />
<glyph unicode="4" glyph-name="four" horiz-adv-x="627" d="M590 253V169L503 156H501V0H383V156H112Q66 156 44 193T39 272L223 690H344L169 289Q153 253 191 253H383V445L404 557H501V253H590Z" />
<glyph unicode="5" glyph-name="five" horiz-adv-x="544" d="M471 587H187L179 440L266 430Q392 418 444 366T495 209Q495 163 485 127T451 57T380 6T264 -12Q165 -12 44 11L57 112Q152 97 233 97T342 122T372 210Q373 236 370 254T356 286T333 306T295 319T247
327T181 334L115 341Q95 342 83 356T72 391L88 690H475L471 587Z" />
<glyph unicode="6" glyph-name="six" horiz-adv-x="579" d="M488 685L480 598Q432 600 336 600Q278 600 248 586T201 528T181 396Q213 428 249 441T340 454Q449 454 491 404T533 231Q533 171 524 130T491 55T421 5T303 -12Q154 -12 106 58T58 337Q58 431 69 496T101
602T158 664T235 694T336 702Q427 702 488 685ZM304 90Q373 90 393 121T414 230Q414 302 392 329T305 357Q242 357 180 311Q180 173 201 132T304 90Z" />
<glyph unicode="7" glyph-name="seven" horiz-adv-x="519" d="M32 690H434Q469 690 484 670T489 618L278 0H154L336 526Q346 560 362 585H38L32 690Z" />
<glyph unicode="8" glyph-name="eight" horiz-adv-x="610" d="M175 356V360Q124 366 100 408T76 518Q76 617 124 659T305 701Q439 701 487 660T535 518Q535 451 511 409T435 360V356Q499 350 525 303T551 172Q551 73 500 31T305 -12Q164 -13 112 30T60 172Q60
255 85 302T175 356ZM376 606T306 606T213 585T189 505Q189 445 212 425T307 405T399 425T421 505Q421 564 399 585ZM307 311Q229 310 204 288T178 199Q178 136 203 114T306 91Q382 91 407 113T432 199Q432 266 408 288T307 311Z" />
<glyph unicode="9" glyph-name="nine" horiz-adv-x="579" d="M78 5L87 93Q139 90 242 90Q328 90 361 132T399 297Q366 263 329 250T237 236Q48 236 48 459Q47 586 100 644T280 702Q343 702 384 691T453 658T495 592T514 494T520 353Q520 238 506 167T456 56T372
2T243 -12Q146 -12 78 5ZM273 332Q308 332 335 342T400 380Q400 439 398 471T389 532T369 573T334 593T279 600Q210 600 188 568T166 460Q165 393 188 363T273 332Z" />
<glyph unicode=":" glyph-name="colon" horiz-adv-x="251" d="M103 446H139Q164 446 173 437T183 403V352Q183 328 174 319T139 309H103Q78 309 69 318T59 352V403Q59 427 68 436T103 446ZM103 137H139Q164 137 173 128T183 94V44Q183 19 174 10T139 0H103Q78
0 69 9T59 44V94Q59 119 68 128T103 137Z" />
<glyph unicode=";" glyph-name="semicolon" horiz-adv-x="252" d="M109 446H146Q170 446 179 437T189 403V352Q189 328 180 319T146 309H109Q85 309 76 318T66 352V403Q66 427 75 436T109 446ZM111 137H143Q167 137 176 128T186 94V30Q185 -62 141 -140L87 -125Q99
-71 100 0Q66 0 66 38V94Q68 118 77 127T111 137Z" />
<glyph unicode="&lt;" glyph-name="less" horiz-adv-x="523" d="M460 420L149 300L460 180V85L46 252V347L460 516V420Z" />
<glyph unicode="=" glyph-name="equal" horiz-adv-x="582" d="M516 357H66V445H516V357ZM516 145H66V233H516V145Z" />
<glyph unicode="&gt;" glyph-name="greater" horiz-adv-x="523" d="M477 347V252L63 85V180L374 300L63 420V516L477 347Z" />
<glyph unicode="?" glyph-name="question" horiz-adv-x="508" d="M39 604L34 689Q43 691 67 695T99 701T129 705T167 709T209 711T265 712Q370 712 421 674T473 557Q473 516 456 482T413 421T362 368T317 302T294 216H193Q192 266 206 308T243 379T287 433T327
483T345 534Q347 574 322 592T238 611Q158 611 39 604ZM229 137H258Q283 137 292 128T302 94V43Q302 19 293 10T258 0H229Q204 0 195 9T185 43V94Q185 118 194 127T229 137Z" />
<glyph unicode="@" glyph-name="at" horiz-adv-x="737" d="M363 594H510Q591 594 632 558T673 438V134H583L572 205Q542 173 493 149T389 124Q328 124 291 156T253 249V298Q253 348 283 376T372 405H559V435Q559 472 544 485T486 498H363Q315 498 292 497T243
488T209 467T190 426T180 362T178 267Q178 230 178 204T182 154T188 115T199 85T214 63T237 49T265 40T302 35T346 33T402 33H672V-53Q532 -64 402 -64Q321 -65 271 -62T180 -44T119 -10T85 51T68 140T64 267Q64 345 67 391T82 478T112 538T166 572T247 590T363
594ZM559 337L417 333Q387 332 376 322T364 286V270Q364 215 417 215Q453 215 492 229T559 269V337Z" />
<glyph unicode="A" glyph-name="A" horiz-adv-x="636" d="M446 195H190L133 0H5L212 657Q221 690 257 690H379Q415 690 424 657L631 0H503L446 195ZM416 298L347 536Q333 590 332 595H305L289 536L220 298H416Z" />
<glyph unicode="B" glyph-name="B" horiz-adv-x="628" d="M439 360V356Q514 349 546 304T578 172Q578 68 527 30T352 -8Q172 -8 77 0V690Q162 698 321 698Q454 698 505 661T557 518Q557 443 529 405T439 360ZM200 403H325Q389 403 413 423T437 502Q437 559 411
578T315 597H200V403ZM200 94L331 93Q402 93 427 113T453 195Q453 263 426 287T327 312H200V94Z" />
<glyph unicode="C" glyph-name="C" horiz-adv-x="578" d="M535 108L546 14Q463 -12 334 -12Q179 -12 116 68T53 345T116 622T334 702Q449 702 532 680L520 585Q433 592 334 592Q248 592 217 540T185 345T216 151T334 98Q461 98 535 108Z" />
<glyph unicode="D" glyph-name="D" horiz-adv-x="671" d="M77 0V690Q214 699 335 699Q492 699 554 622T617 345T555 68T335 -9Q214 -9 77 0ZM202 594V98Q280 96 335 96Q421 96 453 149T485 345T453 541T335 595Q308 595 265 595T202 594Z" />
<glyph unicode="E" glyph-name="E" horiz-adv-x="568" d="M517 101L523 6Q432 -2 219 -2Q151 -2 112 33T71 129V561Q72 622 111 657T219 692Q432 692 523 684L517 588H247Q220 588 209 575T197 530V409H480V313H197V159Q197 127 208 114T247 101H517Z" />
<glyph unicode="F" glyph-name="F" horiz-adv-x="546" d="M510 588H260Q227 588 214 575T201 530V397H473V300H201V0H75V556Q75 620 115 656T223 692Q429 692 517 683L510 588Z" />
<glyph unicode="G" glyph-name="G" horiz-adv-x="635" d="M576 398V0H483L472 68Q386 -13 270 -13Q156 -13 105 73T54 348Q54 552 120 627T356 703Q471 703 554 680L544 587Q447 593 362 593Q308 593 278 586T225 552T194 476T185 341Q185 202 212 149T309 95Q376
95 454 143V398H576Z" />
<glyph unicode="H" glyph-name="H" horiz-adv-x="678" d="M600 690V0H475V316H202V0H77V690H202V419H475V690H600Z" />
<glyph unicode="I" glyph-name="I" horiz-adv-x="279" d="M202 0H77V690H202V0Z" />
<glyph unicode="J" glyph-name="J" horiz-adv-x="354" d="M279 690V152Q279 73 242 31T135 -11Q68 -11 25 6L38 93H85Q155 93 155 155V690H279Z" />
<glyph unicode="K" glyph-name="K" horiz-adv-x="612" d="M263 311H195Q202 279 202 243V0H77V690H202V487Q202 443 195 407H263L452 690H588L402 412Q385 385 356 360V357Q391 328 410 298L601 0H461L263 311Z" />
<glyph unicode="L" glyph-name="L" horiz-adv-x="521" d="M200 690V161Q200 129 213 117T259 104H499L504 7Q406 -2 230 -2Q75 -2 75 141V690H200Z" />
<glyph unicode="M" glyph-name="M" horiz-adv-x="894" d="M625 690H754Q801 690 803 641L831 0H708L685 589H666L547 130Q536 88 495 88H399Q357 88 346 130L225 589H208L186 0H64L90 641Q92 690 139 690H269Q310 690 320 648L418 274Q420 267 439 180H454Q465
238 475 275L573 648Q584 690 625 690Z" />
<glyph unicode="N" glyph-name="N" horiz-adv-x="715" d="M638 690V46Q638 0 592 0H493Q457 0 441 38L247 461Q212 536 206 564H194Q200 522 200 460V0H77V644Q77 690 124 690H221Q241 690 252 681T273 652L461 241Q464 234 482 194T509 132H521Q516 195 516 244V690H638Z"
/>
<glyph unicode="O" glyph-name="O" horiz-adv-x="675" d="M337 703Q497 703 559 626T622 345T560 64T337 -13Q178 -13 116 64T53 345T115 626T337 703ZM337 596Q250 596 218 543T185 345T217 148T337 94Q425 94 457 147T490 345T458 542T337 596Z" />
<glyph unicode="P" glyph-name="P" horiz-adv-x="601" d="M77 0V690Q166 699 327 699Q463 699 513 653T564 477T516 302T343 255Q269 255 202 263V0H77ZM202 357H324Q390 358 414 382T438 477T414 571T324 596H202V357Z" />
<glyph unicode="Q" glyph-name="Q" horiz-adv-x="677" d="M179 703T338 703T560 626T623 345T560 65T338 -13T117 64T54 345T116 626ZM338 596Q251 596 218 543T185 345T218 148T338 94Q426 94 458 147T491 345T459 542T338 596ZM261 -111L292 -38Q417 -82 580
-104L541 -224Q408 -192 261 -111Z" />
<glyph unicode="R" glyph-name="R" horiz-adv-x="629" d="M593 0H460L405 214Q386 276 325 276L201 277V0H77V690Q166 699 328 699Q459 699 513 656T568 497Q568 417 538 375T439 323V318Q469 311 495 286T531 216L593 0ZM201 379H325Q392 380 416 403T441 489T417
574T325 596H201V379Z" />
<glyph unicode="S" glyph-name="S" horiz-adv-x="570" d="M326 273L187 317Q112 341 80 389T48 517Q48 630 100 666T285 702Q412 702 502 679L494 590Q380 594 289 594Q220 594 197 581T174 515Q174 472 190 455T251 423L384 382Q463 357 494 309T526 181Q526
67 472 28T281 -12Q167 -12 57 10L65 102Q240 98 284 98Q353 98 376 114T399 182Q399 226 384 243T326 273Z" />
<glyph unicode="T" glyph-name="T" horiz-adv-x="592" d="M571 583H358V0H232V583H21V690H571V583Z" />
<glyph unicode="U" glyph-name="U" horiz-adv-x="671" d="M599 690V270Q599 115 541 51T341 -13Q193 -13 133 51T72 270V690H197V270Q197 171 227 133T336 94Q413 94 443 132T473 270V690H599Z" />
<glyph unicode="V" glyph-name="V" horiz-adv-x="622" d="M611 690L416 35Q406 0 370 0H252Q236 0 224 9T207 35L11 690H140L281 172Q284 160 290 134T299 95H324Q330 127 343 172L482 690H611Z" />
<glyph unicode="W" glyph-name="W" horiz-adv-x="961" d="M932 690L813 35Q809 19 797 10T767 0H636Q597 0 590 36L503 517Q498 544 490 598H470Q461 540 457 517L371 36Q368 20 355 10T324 0H194Q177 0 164 9T148 35L29 690H159L241 187Q247 153 252 93H273Q282
151 289 187L374 650Q381 690 420 690H542Q559 690 571 679T587 650L672 186Q682 136 686 93H708Q710 107 713 138T719 185L802 690H932Z" />
<glyph unicode="X" glyph-name="X" horiz-adv-x="626" d="M322 312H303L149 0H17L200 355L30 690H161L302 402H323L464 690H596L425 355L609 0H476L322 312Z" />
<glyph unicode="Y" glyph-name="Y" horiz-adv-x="589" d="M357 233V0H232V235L5 690H137L263 422Q270 406 291 339H299Q320 406 327 422L453 690H583L357 233Z" />
<glyph unicode="Z" glyph-name="Z" horiz-adv-x="574" d="M530 102V0H45V102L385 588H51V690H523V588L183 102H530Z" />
<glyph unicode="[" glyph-name="bracketleft" horiz-adv-x="339" d="M303 691H213Q196 691 196 673V-70Q196 -88 213 -88H303V-165H150Q83 -165 83 -98V701Q83 730 102 749T150 768H303V691Z" />
<glyph unicode="\" glyph-name="backslash" horiz-adv-x="535" d="M513 -69H415L22 690H120L513 -69Z" />
<glyph unicode="]" glyph-name="bracketright" horiz-adv-x="339" d="M36 768H188Q218 768 237 749T256 701V-98Q256 -127 237 -146T188 -165H36V-88H125Q142 -88 142 -70V673Q142 691 125 691H36V768Z" />
<glyph unicode="^" glyph-name="asciicircum" horiz-adv-x="447" d="M417 397L369 369L228 538H220L78 369L30 397L180 616H268L417 397Z" />
<glyph unicode="_" glyph-name="underscore" horiz-adv-x="568" d="M505 -86H63V0H505V-86Z" />
<glyph unicode="`" glyph-name="grave" horiz-adv-x="337" d="M274 584L236 530L24 642L86 731L274 584Z" />
<glyph unicode="a" glyph-name="a" horiz-adv-x="558" d="M77 394L65 480Q194 504 310 504Q405 504 449 466T494 333V0H398L385 75Q308 -11 198 -11Q129 -11 86 26T43 131V181Q43 240 81 272T188 304H372V334Q371 376 353 390T282 404Q205 404 77 394ZM164 166V147Q164
87 228 87Q301 87 372 145V221H216Q187 220 176 206T164 166Z" />
<glyph unicode="b" glyph-name="b" horiz-adv-x="581" d="M188 700V535Q188 464 176 421Q254 504 356 504Q449 504 492 444T535 248Q535 120 485 54T305 -12Q248 -12 179 -3T66 25V700H188ZM188 347V97Q246 83 302 85Q361 86 385 121T410 248Q409 338 390 370T310
402Q280 402 254 389T188 347Z" />
<glyph unicode="c" glyph-name="c" horiz-adv-x="498" d="M454 98L465 18Q392 -12 285 -12Q154 -12 100 46T46 246T100 446T286 504Q389 504 457 476L443 400Q394 402 307 402Q231 402 202 369T173 246Q173 155 202 122T307 88Q387 88 454 98Z" />
<glyph unicode="d" glyph-name="d" horiz-adv-x="583" d="M515 700V0H419L409 67Q324 -12 219 -12Q129 -12 88 53T47 248Q47 389 92 446T235 504Q329 504 398 461Q393 501 393 559V700H515ZM393 142V385Q313 405 271 405Q214 405 193 375T172 249Q172 156 192
124T264 91Q298 91 323 101T393 142Z" />
<glyph unicode="e" glyph-name="e" horiz-adv-x="548" d="M375 194H175Q182 130 211 109T306 87Q381 87 482 99L493 21Q424 -12 291 -12T102 47T46 246Q46 389 101 446T283 504Q400 504 453 462T506 334Q506 194 375 194ZM173 279H341Q385 279 385 336Q385 376
364 392T288 408Q224 408 200 382T173 279Z" />
<glyph unicode="f" glyph-name="f" horiz-adv-x="395" d="M403 624H307Q266 624 250 609T233 555V490H376V402H233V0H111V402H24V485L111 490V571Q111 643 147 681T264 719Q360 719 413 710L403 624Z" />
<glyph unicode="g" glyph-name="g" horiz-adv-x="568" d="M545 431L481 424Q494 392 494 346Q494 261 445 225T273 188Q219 188 183 195Q171 177 178 155T212 129L391 104Q463 94 494 60T526 -39Q526 -129 473 -162T279 -196Q137 -196 84 -164T31 -46Q31 -8 49
16T108 62Q75 93 80 141T121 213Q52 246 52 345Q52 432 101 468T274 504Q347 504 397 490H552L545 431ZM211 273T273 273T358 289T382 346T359 402T273 418T187 403T163 346T187 289ZM326 19L186 36Q148 1 148 -33Q148 -76 172 -87T278 -99T384 -87T409 -34Q409
-4 394 4T326 19Z" />
<glyph unicode="h" glyph-name="h" horiz-adv-x="590" d="M191 700V520Q191 466 183 421Q292 504 390 504Q455 504 490 469T525 368V0H403V331Q403 372 392 386T351 401Q293 401 190 341V0H68V700H191Z" />
<glyph unicode="i" glyph-name="i" horiz-adv-x="265" d="M104 703H160Q195 703 195 668V613Q195 578 160 578H104Q69 578 69 613V668Q69 703 104 703ZM193 0H72V490H193V0Z" />
<glyph unicode="j" glyph-name="j" horiz-adv-x="267" d="M106 704H162Q197 704 197 669V615Q197 580 162 580H106Q71 580 71 615V669Q71 704 106 704ZM195 490V9Q195 -55 165 -111T83 -200L15 -147Q73 -78 73 9V490H195Z" />
<glyph unicode="k" glyph-name="k" horiz-adv-x="534" d="M238 234H184Q190 182 190 159V0H68V700H191V402Q191 355 184 316H237L371 490H509L372 316Q356 291 331 275V273Q351 260 372 226L525 0H387L238 234Z" />
<glyph unicode="l" glyph-name="l" horiz-adv-x="314" d="M191 700V153Q190 124 204 110T249 96H291L305 6Q271 -11 201 -11Q140 -11 105 24T69 123V700H191Z" />
<glyph unicode="m" glyph-name="m" horiz-adv-x="875" d="M167 490L174 418Q272 504 366 504Q465 504 491 422Q583 504 677 504Q742 504 776 469T810 368V0H691V331Q690 369 677 385T630 401Q601 401 576 389T498 342V0H381V331Q382 370 368 385T320 401Q292 401
266 389T189 343V0H68V490H167Z" />
<glyph unicode="n" glyph-name="n" horiz-adv-x="590" d="M170 490L178 418Q292 504 390 504Q455 504 490 469T525 368V0H403V331Q403 372 392 386T351 401Q317 401 282 387T190 341V0H68V490H170Z" />
<glyph unicode="o" glyph-name="o" horiz-adv-x="576" d="M289 504Q421 504 475 445T530 245T476 46T289 -13Q156 -13 101 45T46 245T101 445T289 504ZM289 407Q221 407 197 374T173 245Q173 151 197 118T289 84Q355 84 379 117T404 245Q404 340 380 373T289 407Z" />
<glyph unicode="p" glyph-name="p" horiz-adv-x="591" d="M168 490L176 417Q210 455 266 479T377 503Q544 503 544 241Q544 102 499 45T356 -12Q257 -12 186 36Q190 -15 189 -66V-195H68V490H168ZM189 342V108Q283 87 320 87Q376 87 397 117T419 242Q419 334 400
368T332 403Q299 403 268 389T189 342Z" />
<glyph unicode="q" glyph-name="q" horiz-adv-x="580" d="M514 -195H392V-44Q392 19 402 62Q313 -13 218 -13Q131 -13 89 49T46 243T96 439T279 504Q333 504 401 494T514 467V-195ZM393 140V394Q337 409 277 407Q216 405 194 370T171 237Q171 158 189 125T261
91Q295 91 324 103T393 140Z" />
<glyph unicode="r" glyph-name="r" horiz-adv-x="413" d="M400 504L387 390H352Q300 390 190 346V0H68V490H163L174 418Q279 504 376 504H400Z" />
<glyph unicode="s" glyph-name="s" horiz-adv-x="517" d="M287 186L158 221Q94 239 69 272T43 365Q43 444 88 474T243 504Q363 502 460 486L451 402Q327 406 264 406Q198 406 179 400T160 364Q160 357 161 351T164 341T169 334T176 328T186 323T197 319T211 315T227
311L359 275Q422 257 449 227T476 134Q476 48 427 19T257 -11Q147 -11 52 5L60 90Q112 86 227 86Q306 86 332 95T359 133Q359 139 358 144T355 153T351 160T344 166T336 170T326 174T315 178T301 182T287 186Z" />
<glyph unicode="t" glyph-name="t" horiz-adv-x="400" d="M231 402V153Q231 121 244 109T290 96H357L370 6Q317 -11 244 -11Q180 -11 146 26T111 132V402H22V485L110 490V631H231V490H375V402H231Z" />
<glyph unicode="u" glyph-name="u" horiz-adv-x="579" d="M511 490V0H415L406 66Q302 -13 201 -13Q65 -13 65 123V490H187V159Q186 120 199 105T247 90Q297 90 390 144V490H511Z" />
<glyph unicode="v" glyph-name="v" horiz-adv-x="546" d="M535 490L367 29Q356 0 326 0H220Q188 0 180 29L12 490H140L242 167Q264 90 266 82H279L305 167L406 490H535Z" />
<glyph unicode="w" glyph-name="w" horiz-adv-x="834" d="M815 490L686 33Q678 0 643 0H540Q502 0 495 38L436 339Q434 350 430 377T423 419H411L397 339L340 38Q337 21 324 11T294 0H193Q155 0 149 33L19 490H143L224 153Q235 107 237 75H250Q252 84 255 99T260
128T265 153L325 454Q332 490 368 490H467Q484 490 496 480T511 453L569 153Q571 138 576 111T584 75H597Q606 136 610 153L691 490H815Z" />
<glyph unicode="x" glyph-name="x" horiz-adv-x="546" d="M280 210H266L143 0H15L170 252L27 490H154L265 298H281L392 490H519L376 252L531 0H403L280 210Z" />
<glyph unicode="y" glyph-name="y" horiz-adv-x="546" d="M533 490L351 -15Q322 -98 262 -153T104 -203L94 -126Q152 -110 186 -83T238 -11L243 0H219Q186 0 178 30L12 490H141L248 153Q258 122 264 88H278Q282 100 288 122T298 153L403 490H533Z" />
<glyph unicode="z" glyph-name="z" horiz-adv-x="518" d="M473 93V0H45V93L333 397H49V490H469V397L181 93H473Z" />
<glyph unicode="{" glyph-name="braceleft" horiz-adv-x="331" d="M292 768V693Q244 693 227 678T210 621V458Q211 395 191 367T113 328Q171 311 192 284T214 202V-19Q214 -60 231 -75T296 -90V-165Q98 -186 98 -29V218Q98 252 87 262T39 287V369Q62 376 67 378T82
388T92 407T94 442V632Q94 789 292 768Z" />
<glyph unicode="|" glyph-name="bar" horiz-adv-x="254" d="M170 -169H84V781H170V-169Z" />
<glyph unicode="}" glyph-name="braceright" horiz-adv-x="332" d="M40 693V768Q238 789 238 632V442Q238 412 243 399T257 382T293 369V287Q271 279 265 276T249 265T237 247T234 218V-29Q234 -186 36 -165V-90Q84 -90 101 -75T118 -19V202Q119 256 140 283T219
328Q162 338 142 366T122 458V621Q122 662 105 677T40 693Z" />
<glyph unicode="~" glyph-name="asciitilde" horiz-adv-x="519" d="M128 221H69Q60 289 83 324T148 357Q182 355 256 331T353 304Q377 300 384 311T392 352H451Q460 285 438 251T372 218Q334 219 260 244T166 271Q142 274 135 263T128 221Z" />
<glyph unicode="&#xa0;" glyph-name="uni00A0" horiz-adv-x="220" />
<glyph unicode="&#xa1;" glyph-name="exclamdown" horiz-adv-x="271" d="M122 501H151Q175 501 184 492T194 458V406Q194 382 185 373T151 364H122Q97 364 88 373T78 406V458Q78 482 87 491T122 501ZM196 91V-190H75V91L88 285H183L196 91Z" />
<glyph unicode="&#xa2;" glyph-name="cent" horiz-adv-x="513" d="M453 199L465 121Q399 94 302 91L293 0H239L248 92Q137 99 91 158T45 349Q45 490 99 548T286 607L299 606L308 690H362L354 603Q417 596 457 579L443 501Q411 504 343 506L313 190Q390 190 453
199ZM260 193L288 506Q219 503 192 469T165 349Q165 271 186 236T260 193Z" />
<glyph unicode="&#xa3;" glyph-name="sterling" horiz-adv-x="577" d="M531 105V0H55V105Q104 127 120 169T132 275L129 330H52L51 397H125L117 518Q111 628 158 665T315 702Q399 702 509 692L502 594Q431 597 325 597Q274 597 255 580T240 514L248 397H440L436
330H252L256 275Q260 209 243 172T185 99Q209 105 256 105H531Z" />
<glyph unicode="&#xa4;" glyph-name="currency" horiz-adv-x="589" d="M479 115L407 187Q356 152 294 152T181 187L111 116L56 171L127 242Q94 291 94 351Q94 414 129 465L59 535L111 587L180 516Q232 551 294 551Q358 551 408 515L480 587L531 535L459 464Q493
415 493 351Q493 289 458 238L531 167L479 115ZM294 223Q346 222 383 260T421 352T384 443T294 481Q241 481 203 444T165 352T203 260T294 223Z" />
<glyph unicode="&#xa5;" glyph-name="yen" horiz-adv-x="635" d="M424 333H549V265H389L381 249V217H549V150H381V0H256V150H92L91 217H256V248L247 265H92L90 333H212L28 690H158L285 431Q289 422 314 348H323Q338 400 352 432L478 690H607L424 333Z" />
<glyph unicode="&#xa6;" glyph-name="brokenbar" horiz-adv-x="256" d="M171 381H85V781H171V381ZM171 -169H85V231H171V-169Z" />
<glyph unicode="&#xa7;" glyph-name="section" horiz-adv-x="548" d="M317 314L155 407Q106 435 81 468T55 564Q55 646 105 674T266 703Q393 701 486 691L478 599Q408 604 300 604Q238 605 212 598T184 560Q183 533 197 517T243 483L389 403Q464 364 482 304T476
161H390Q394 223 379 255T317 314ZM73 372H159Q154 309 168 278T231 219L393 127Q443 99 468 65T494 -32Q494 -116 443 -144T284 -172Q150 -170 62 -160L71 -68Q140 -73 250 -74Q292 -74 313 -72T349 -59T364 -27Q366 0 351 17T307 49L161 130Q86 168 67 228T73
372Z" />
<glyph unicode="&#xa8;" glyph-name="dieresis" horiz-adv-x="418" d="M100 703H141Q170 703 170 672V617Q170 587 141 587H100Q71 587 71 617V672Q71 703 100 703ZM280 703H319Q350 703 350 672V617Q350 587 319 587H280Q249 587 249 617V672Q249 703 280 703Z" />
<glyph unicode="&#xa9;" glyph-name="copyright" horiz-adv-x="822" d="M259 703T411 703T667 602T771 345T667 89T411 -13T155 89T50 345T154 601ZM535 643T411 643T200 558T113 345T200 133T411 47T621 132T708 345T622 558ZM554 217L561 150Q501 134 416 134Q309
134 265 181T221 347Q221 464 265 512T416 560Q495 560 551 546L543 478Q478 481 415 481Q357 481 336 453T314 347Q314 269 335 241T415 213Q499 213 554 217Z" />
<glyph unicode="&#xaa;" glyph-name="ordfeminine" horiz-adv-x="439" d="M79 533L71 596Q167 612 251 612Q313 612 344 585T376 494V274H304L294 331Q238 266 158 266Q111 266 83 289T54 356V393Q54 431 80 453T153 475H286V495Q286 539 231 539Q187 539 79 533ZM141
385V375Q141 355 152 347T188 339Q235 339 286 378V428L184 419Q141 416 141 385Z" />
<glyph unicode="&#xab;" glyph-name="guillemotleft" horiz-adv-x="504" d="M262 421L148 251L263 77L199 36L39 238V264L198 462L262 421ZM458 421L344 251L459 77L395 36L235 238V264L394 462L458 421Z" />
<glyph unicode="&#xac;" glyph-name="logicalnot" horiz-adv-x="587" d="M516 344V134H425V255H65V344H516Z" />
<glyph unicode="&#xad;" glyph-name="softhyphen" horiz-adv-x="428" d="M364 211H64V297H364V211Z" />
<glyph unicode="&#xae;" glyph-name="registered" horiz-adv-x="536" d="M269 702Q361 702 426 637T491 480Q491 387 426 322T269 257Q176 257 111 322T46 480Q46 572 111 637T269 702ZM269 295Q344 295 398 349T452 480Q452 557 398 611T269 665Q192 665 139
611T85 480T139 349T269 295ZM323 476V474Q354 470 363 436L389 360H333L310 434Q301 457 275 457H222V360H169V604Q203 607 276 607Q332 607 355 592T379 536Q379 483 323 476ZM222 494H275Q305 495 315 502T325 531Q326 553 316 560T275 567H222V494Z" />
<glyph unicode="&#xaf;" glyph-name="overscore" horiz-adv-x="400" d="M345 601H55V685H345V601Z" />
<glyph unicode="&#xb0;" glyph-name="degree" horiz-adv-x="352" d="M176 703Q230 703 269 666T309 574T270 481T176 442T82 481T43 574Q43 627 82 665T176 703ZM203 636T176 636T131 619T113 574Q113 546 131 528T176 510Q202 510 220 528T238 574Q238 601 221 618Z" />
<glyph unicode="&#xb1;" glyph-name="plusminus" horiz-adv-x="581" d="M515 411V321H335V196H245V321H66V411H245V537H336V411H515ZM66 145H515V55H66V145Z" />
<glyph unicode="&#xb2;" glyph-name="twosuperior" horiz-adv-x="433" d="M62 697L58 767Q134 781 204 781Q289 781 326 761T363 679Q363 620 287 547L173 439Q199 444 237 442H378V360H54V411Q54 436 69 450L181 556Q258 629 261 669Q263 689 248 695T196 702Q136
702 62 697Z" />
<glyph unicode="&#xb3;" glyph-name="threesuperior" horiz-adv-x="414" d="M64 704L60 771Q135 782 202 782Q287 782 320 762T353 686Q353 639 337 613T276 581V579Q324 572 343 548T364 475Q366 409 330 381T207 352Q142 352 52 363L56 432Q125 428 183 428Q232
428 250 440T269 488Q269 514 254 527T195 541H110V608H195Q236 608 249 622T262 662Q262 688 247 697T187 706Q130 706 64 704Z" />
<glyph unicode="&#xb4;" glyph-name="acute" horiz-adv-x="337" d="M302 642L89 530L51 584L239 731L302 642Z" />
<glyph unicode="&#xb6;" glyph-name="paragraph" horiz-adv-x="596" d="M262 -210V201Q140 212 87 270T33 450Q33 588 104 645T345 702Q442 702 507 685V0H420V624Q374 626 347 627V-210H262Z" />
<glyph unicode="&#xb7;" glyph-name="middot" horiz-adv-x="249" d="M106 327H143Q167 327 176 318T186 283V233Q186 208 177 199T143 189H106Q82 189 73 198T63 233V283Q63 308 72 317T106 327Z" />
<glyph unicode="&#xb8;" glyph-name="cedilla" horiz-adv-x="242" d="M71 -93L83 -40Q156 -32 185 -44T214 -105Q212 -174 160 -209T29 -235L46 -176Q82 -177 106 -161T132 -115Q133 -101 121 -97T71 -93Z" />
<glyph unicode="&#xb9;" glyph-name="onesuperior" horiz-adv-x="300" d="M233 360H139V648Q139 678 143 693L37 669L26 732L139 774H233V360Z" />
<glyph unicode="&#xba;" glyph-name="ordmasculine" horiz-adv-x="441" d="M221 612Q315 612 353 573T392 438T354 305T221 266Q126 266 88 304T50 438Q50 534 88 573T221 612ZM266 541T221 541T160 520T143 438Q143 378 159 357T221 336T282 357T298 438Q298
499 282 520Z" />
<glyph unicode="&#xbb;" glyph-name="guillemotright" horiz-adv-x="504" d="M465 264V238L305 36L241 77L356 251L242 421L306 462L465 264ZM269 264V238L109 36L45 77L160 251L46 421L110 462L269 264Z" />
<glyph unicode="&#xbc;" glyph-name="onequarter" horiz-adv-x="881" d="M143 276V564Q143 589 147 609L41 585L30 648L143 690H236V276H143ZM655 690L227 0H145L573 690H655ZM845 97L796 90V0H709V89H527Q499 89 485 108T484 159L601 414H689L581 177Q578 169
582 164T597 159H709V268L724 334H796V159H845V97Z" />
<glyph unicode="&#xbd;" glyph-name="onehalf" horiz-adv-x="900" d="M236 276H143V564Q143 589 147 609L41 585L30 648L143 690H236V276ZM219 0H137L566 690H647L219 0ZM540 337L536 407Q611 421 681 421Q766 421 803 400T841 319Q841 262 765 187L651 79Q677
84 715 82H855V0H532V51Q532 76 546 90L658 196Q735 268 739 309Q740 329 725 335T674 342Q614 342 540 337Z" />
<glyph unicode="&#xbe;" glyph-name="threequarters" horiz-adv-x="970" d="M273 495V493Q321 486 340 462T361 389Q362 323 326 295T204 266Q139 266 49 277L53 346Q122 342 179 342Q228 342 246 354T265 401Q265 427 250 441T192 455L107 457V519L192 522Q233
522 245 536T258 575Q258 602 243 611T183 620Q110 620 61 617L57 685Q127 695 199 695Q284 695 316 675T349 600Q349 553 333 527T273 495ZM752 690L323 0H242L670 690H752ZM934 97L886 90V0H799V89H617Q588 89 574 108T574 159L691 414H779L671 177Q667 170 671
165T686 159H799V268L814 334H886V159H934V97Z" />
<glyph unicode="&#xbf;" glyph-name="questiondown" horiz-adv-x="503" d="M250 505H278Q303 505 312 496T322 462V410Q322 386 313 377T278 367H250Q225 367 216 376T206 410V462Q206 486 215 495T250 505ZM213 289H313Q315 239 301 197T264 125T219 72T179 21T161
-30Q159 -69 184 -87T269 -106Q348 -106 467 -99L472 -184Q467 -185 450 -188T427 -193T408 -196T386 -199T365 -202T339 -204T312 -206T279 -207T241 -207Q33 -207 33 -52Q33 -11 50 23T93 84T145 137T190 203T213 289Z" />
<glyph unicode="&#xc0;" glyph-name="Agrave" horiz-adv-x="636" d="M341 724L128 836L191 926L379 778L341 724ZM446 195H190L133 0H5L212 657Q221 690 257 690H379Q415 690 424 657L631 0H503L446 195ZM416 298L347 536Q333 590 332 595H305L289 536L220 298H416Z" />
<glyph unicode="&#xc1;" glyph-name="Aacute" horiz-adv-x="636" d="M281 724L243 778L431 926L493 836L281 724ZM446 195H190L133 0H5L212 657Q221 690 257 690H379Q415 690 424 657L631 0H503L446 195ZM416 298L347 536Q333 590 332 595H305L289 536L220 298H416Z" />
<glyph unicode="&#xc2;" glyph-name="Acircumflex" horiz-adv-x="636" d="M180 723L143 773L275 905H363L494 772L456 723L323 819H315L180 723ZM446 195H190L133 0H5L212 657Q221 690 257 690H379Q415 690 424 657L631 0H503L446 195ZM416 298L347 536Q333 590
332 595H305L289 536L220 298H416Z" />
<glyph unicode="&#xc3;" glyph-name="Atilde" horiz-adv-x="636" d="M205 760H152Q143 825 167 859T232 890Q265 887 313 865T387 840Q412 836 421 846T430 885H483Q492 822 469 788T403 756Q365 759 316 782T247 808Q222 811 214 800T205 760ZM446 195H190L133
0H5L212 657Q221 690 257 690H379Q415 690 424 657L631 0H503L446 195ZM416 298L347 536Q333 590 332 595H305L289 536L220 298H416Z" />
<glyph unicode="&#xc4;" glyph-name="Adieresis" horiz-adv-x="636" d="M249 763H209Q179 763 179 793V848Q179 879 209 879H249Q278 879 278 848V793Q278 763 249 763ZM428 763H388Q358 763 358 793V848Q358 879 388 879H428Q458 879 458 848V793Q458 763 428
763ZM446 195H190L133 0H5L212 657Q221 690 257 690H379Q415 690 424 657L631 0H503L446 195ZM416 298L347 536Q333 590 332 595H305L289 536L220 298H416Z" />
<glyph unicode="&#xc5;" glyph-name="Aring" horiz-adv-x="636" d="M319 713Q271 713 238 744T205 823T238 902T319 934Q365 934 398 902T432 823T399 745T319 713ZM319 878Q296 878 281 863T266 823Q266 799 281 785T319 770T356 784T372 823Q372 848 357 863T319
878ZM446 195H190L133 0H5L212 657Q221 690 257 690H379Q415 690 424 657L631 0H503L446 195ZM416 298L347 536Q333 590 332 595H305L289 536L220 298H416Z" />
<glyph unicode="&#xc6;" glyph-name="AE" horiz-adv-x="921" d="M870 102L876 6Q779 -2 569 -2Q514 -2 480 34T446 129V202H229L122 0H-8L304 568Q341 639 396 665T566 691Q762 691 876 684L870 587H622Q595 587 579 571T563 526V410H833V313H563V160Q563 128
576 115T622 102H870ZM446 301V540Q446 585 472 609H463Q441 595 415 552L282 301H446Z" />
<glyph unicode="&#xc7;" glyph-name="Ccedilla" horiz-adv-x="578" d="M535 108L546 14Q463 -12 334 -12Q179 -12 116 68T53 345T116 622T334 702Q449 702 532 680L520 585Q433 592 334 592Q248 592 217 540T185 345T216 151T334 98Q461 98 535 108ZM259 -108L271
-55Q345 -47 374 -59T402 -120Q400 -189 348 -224T217 -249L235 -190Q271 -191 295 -175T320 -130Q321 -116 310 -112T259 -108Z" />
<glyph unicode="&#xc8;" glyph-name="Egrave" horiz-adv-x="568" d="M334 741L121 852L184 942L372 795L334 741ZM517 101L523 6Q432 -2 219 -2Q151 -2 112 33T71 129V561Q72 622 111 657T219 692Q432 692 523 684L517 588H247Q220 588 209 575T197 530V409H480V313H197V159Q197
127 208 114T247 101H517Z" />
<glyph unicode="&#xc9;" glyph-name="Eacute" horiz-adv-x="568" d="M274 741L236 795L424 942L486 852L274 741ZM517 101L523 6Q432 -2 219 -2Q151 -2 112 33T71 129V561Q72 622 111 657T219 692Q432 692 523 684L517 588H247Q220 588 209 575T197 530V409H480V313H197V159Q197
127 208 114T247 101H517Z" />
<glyph unicode="&#xca;" glyph-name="Ecircumflex" horiz-adv-x="568" d="M173 740L136 790L268 921H356L487 789L449 740L316 835H308L173 740ZM517 101L523 6Q432 -2 219 -2Q151 -2 112 33T71 129V561Q72 622 111 657T219 692Q432 692 523 684L517 588H247Q220
588 209 575T197 530V409H480V313H197V159Q197 127 208 114T247 101H517Z" />
<glyph unicode="&#xcb;" glyph-name="Edieresis" horiz-adv-x="568" d="M242 779H202Q172 779 172 810V865Q172 895 202 895H242Q271 895 271 865V810Q271 779 242 779ZM421 779H381Q351 779 351 810V865Q351 895 381 895H421Q451 895 451 865V810Q451 779 421
779ZM517 101L523 6Q432 -2 219 -2Q151 -2 112 33T71 129V561Q72 622 111 657T219 692Q432 692 523 684L517 588H247Q220 588 209 575T197 530V409H480V313H197V159Q197 127 208 114T247 101H517Z" />
<glyph unicode="&#xcc;" glyph-name="Igrave" horiz-adv-x="279" d="M200 778L162 724L-50 836L12 926L200 778ZM202 0H77V690H202V0Z" />
<glyph unicode="&#xcd;" glyph-name="Iacute" horiz-adv-x="279" d="M315 836L102 724L64 778L252 926L315 836ZM202 0H77V690H202V0Z" />
<glyph unicode="&#xce;" glyph-name="Icircumflex" horiz-adv-x="279" d="M316 772L277 723L144 819H136L2 723L-35 773L96 905H184L316 772ZM202 0H77V690H202V0Z" />
<glyph unicode="&#xcf;" glyph-name="Idieresis" horiz-adv-x="279" d="M30 879H70Q100 879 100 848V793Q100 763 70 763H30Q1 763 1 793V848Q1 879 30 879ZM210 879H249Q279 879 279 848V793Q279 763 249 763H210Q179 763 179 793V848Q179 879 210 879ZM202 0H77V690H202V0Z"
/>
<glyph unicode="&#xd0;" glyph-name="Eth" horiz-adv-x="675" d="M81 397V690Q218 699 339 699Q496 699 558 623T621 345T559 68T339 -9Q218 -9 81 0V331H19V397H81ZM207 331V98Q283 96 339 96Q425 96 457 149T489 345T457 541T339 595Q313 595 269 595T207 594V397H341V331H207Z"
/>
<glyph unicode="&#xd1;" glyph-name="Ntilde" horiz-adv-x="715" d="M250 760H197Q188 825 212 859T277 890Q311 887 359 865T432 840Q457 836 466 846T475 885H528Q537 822 514 788T448 756Q410 759 361 782T292 808Q267 811 259 800T250 760ZM638 690V46Q638
0 592 0H493Q457 0 441 38L247 461Q212 536 206 564H194Q200 522 200 460V0H77V644Q77 690 124 690H221Q241 690 252 681T273 652L461 241Q464 234 482 194T509 132H521Q516 195 516 244V690H638Z" />
<glyph unicode="&#xd2;" glyph-name="Ograve" horiz-adv-x="675" d="M396 778L358 724L146 836L208 926L396 778ZM337 703Q497 703 559 626T622 345T560 64T337 -13Q178 -13 116 64T53 345T115 626T337 703ZM337 596Q250 596 218 543T185 345T217 148T337 94Q425
94 457 147T490 345T458 542T337 596Z" />
<glyph unicode="&#xd3;" glyph-name="Oacute" horiz-adv-x="675" d="M511 836L298 724L261 778L448 926L511 836ZM337 703Q497 703 559 626T622 345T560 64T337 -13Q178 -13 116 64T53 345T115 626T337 703ZM337 596Q250 596 218 543T185 345T217 148T337 94Q425
94 457 147T490 345T458 542T337 596Z" />
<glyph unicode="&#xd4;" glyph-name="Ocircumflex" horiz-adv-x="675" d="M512 772L473 723L340 819H332L198 723L161 773L293 905H380L512 772ZM337 703Q497 703 559 626T622 345T560 64T337 -13Q178 -13 116 64T53 345T115 626T337 703ZM337 596Q250 596 218
543T185 345T217 148T337 94Q425 94 457 147T490 345T458 542T337 596Z" />
<glyph unicode="&#xd5;" glyph-name="Otilde" horiz-adv-x="675" d="M223 760H170Q161 825 185 859T250 890Q283 887 331 865T405 840Q430 836 439 846T448 885H501Q510 822 487 788T421 756Q383 759 334 782T265 808Q240 811 232 800T223 760ZM337 703Q497 703
559 626T622 345T560 64T337 -13Q178 -13 116 64T53 345T115 626T337 703ZM337 596Q250 596 218 543T185 345T217 148T337 94Q425 94 457 147T490 345T458 542T337 596Z" />
<glyph unicode="&#xd6;" glyph-name="Odieresis" horiz-adv-x="675" d="M226 879H267Q296 879 296 848V793Q296 763 267 763H226Q197 763 197 793V848Q197 879 226 879ZM406 879H445Q476 879 476 848V793Q476 763 445 763H406Q376 763 376 793V848Q376 879 406
879ZM337 703Q497 703 559 626T622 345T560 64T337 -13Q178 -13 116 64T53 345T115 626T337 703ZM337 596Q250 596 218 543T185 345T217 148T337 94Q425 94 457 147T490 345T458 542T337 596Z" />
<glyph unicode="&#xd7;" glyph-name="multiply" horiz-adv-x="486" d="M36 417L396 94L454 164L95 487L36 417Z" />
<glyph unicode="&#xd8;" glyph-name="Oslash" horiz-adv-x="675" d="M549 731L518 663Q573 627 597 552T622 345Q622 141 560 64T337 -13Q261 -13 209 3L179 -61L123 -38L155 28Q101 64 77 139T53 345Q53 549 115 626T337 703Q415 703 463 688L494 754L549 731ZM213
154L414 582Q385 596 337 596Q250 596 218 543T185 345Q185 209 213 154ZM460 539L259 109Q289 94 337 94Q425 94 457 147T490 345Q490 486 460 539Z" />
<glyph unicode="&#xd9;" glyph-name="Ugrave" horiz-adv-x="671" d="M396 778L358 724L146 836L208 926L396 778ZM599 690V270Q599 115 541 51T341 -13Q193 -13 133 51T72 270V690H197V270Q197 171 227 133T336 94Q413 94 443 132T473 270V690H599Z" />
<glyph unicode="&#xda;" glyph-name="Uacute" horiz-adv-x="671" d="M511 836L298 724L261 778L448 926L511 836ZM599 690V270Q599 115 541 51T341 -13Q193 -13 133 51T72 270V690H197V270Q197 171 227 133T336 94Q413 94 443 132T473 270V690H599Z" />
<glyph unicode="&#xdb;" glyph-name="Ucircumflex" horiz-adv-x="671" d="M512 772L473 723L340 819H332L198 723L161 773L293 905H380L512 772ZM599 690V270Q599 115 541 51T341 -13Q193 -13 133 51T72 270V690H197V270Q197 171 227 133T336 94Q413 94 443 132T473
270V690H599Z" />
<glyph unicode="&#xdc;" glyph-name="Udieresis" horiz-adv-x="671" d="M226 879H267Q296 879 296 848V793Q296 763 267 763H226Q197 763 197 793V848Q197 879 226 879ZM406 879H445Q476 879 476 848V793Q476 763 445 763H406Q376 763 376 793V848Q376 879 406
879ZM599 690V270Q599 115 541 51T341 -13Q193 -13 133 51T72 270V690H197V270Q197 171 227 133T336 94Q413 94 443 132T473 270V690H599Z" />
<glyph unicode="&#xdd;" glyph-name="Yacute" horiz-adv-x="589" d="M256 724L218 778L406 926L469 836L256 724ZM357 233V0H232V235L5 690H137L263 422Q270 406 291 339H299Q320 406 327 422L453 690H583L357 233Z" />
<glyph unicode="&#xde;" glyph-name="Thorn" horiz-adv-x="601" d="M203 690V572Q237 573 327 573Q461 573 511 526T562 347Q562 217 514 170T342 123Q269 123 203 131V0H77V563V564V690H203ZM203 226H323Q389 227 412 251T436 347Q436 420 413 445T323 470H203V226Z" />
<glyph unicode="&#xdf;" glyph-name="germandbls" horiz-adv-x="691" d="M491 309L579 262Q626 236 644 209T663 130Q663 50 620 20T477 -11Q403 -11 315 0L322 87Q391 84 450 84Q506 84 524 93T543 135Q543 147 540 155T526 173T508 187T478 204L390 250Q312
292 312 366Q312 386 316 401T335 431T355 453T386 476T417 498Q449 522 460 538T472 578Q472 605 449 618T354 632Q281 632 257 613T232 536V0H110V401H23V490H110V550Q110 655 166 691T349 727Q482 727 533 696T585 583Q585 546 570 517T508 454Q497 445 476
431T448 411T434 394T427 370T436 346T454 329T491 309Z" />
<glyph unicode="&#xe0;" glyph-name="agrave" horiz-adv-x="558" d="M296 544L84 656L146 745L334 598L296 544ZM77 394L65 480Q194 504 310 504Q405 504 449 466T494 333V0H398L385 75Q308 -11 198 -11Q129 -11 86 26T43 131V181Q43 240 81 272T188 304H372V334Q371
376 353 390T282 404Q205 404 77 394ZM164 166V147Q164 87 228 87Q301 87 372 145V221H216Q187 220 176 206T164 166Z" />
<glyph unicode="&#xe1;" glyph-name="aacute" horiz-adv-x="558" d="M236 544L198 598L386 745L449 656L236 544ZM77 394L65 480Q194 504 310 504Q405 504 449 466T494 333V0H398L385 75Q308 -11 198 -11Q129 -11 86 26T43 131V181Q43 240 81 272T188 304H372V334Q371
376 353 390T282 404Q205 404 77 394ZM164 166V147Q164 87 228 87Q301 87 372 145V221H216Q187 220 176 206T164 166Z" />
<glyph unicode="&#xe2;" glyph-name="acircumflex" horiz-adv-x="558" d="M136 543L99 593L230 724H318L450 592L411 543L278 639H270L136 543ZM77 394L65 480Q194 504 310 504Q405 504 449 466T494 333V0H398L385 75Q308 -11 198 -11Q129 -11 86 26T43 131V181Q43
240 81 272T188 304H372V334Q371 376 353 390T282 404Q205 404 77 394ZM164 166V147Q164 87 228 87Q301 87 372 145V221H216Q187 220 176 206T164 166Z" />
<glyph unicode="&#xe3;" glyph-name="atilde" horiz-adv-x="558" d="M161 579H108Q99 644 123 678T187 709Q221 706 269 685T343 660Q368 656 376 666T385 704H439Q448 641 425 607T359 576Q321 579 272 602T203 628Q178 631 170 620T161 579ZM77 394L65 480Q194
504 310 504Q405 504 449 466T494 333V0H398L385 75Q308 -11 198 -11Q129 -11 86 26T43 131V181Q43 240 81 272T188 304H372V334Q371 376 353 390T282 404Q205 404 77 394ZM164 166V147Q164 87 228 87Q301 87 372 145V221H216Q187 220 176 206T164 166Z" />
<glyph unicode="&#xe4;" glyph-name="adieresis" horiz-adv-x="558" d="M205 583H164Q135 583 135 613V668Q135 699 164 699H205Q234 699 234 668V613Q234 583 205 583ZM383 583H344Q313 583 313 613V668Q313 699 344 699H383Q414 699 414 668V613Q414 583 383
583ZM77 394L65 480Q194 504 310 504Q405 504 449 466T494 333V0H398L385 75Q308 -11 198 -11Q129 -11 86 26T43 131V181Q43 240 81 272T188 304H372V334Q371 376 353 390T282 404Q205 404 77 394ZM164 166V147Q164 87 228 87Q301 87 372 145V221H216Q187 220 176
206T164 166Z" />
<glyph unicode="&#xe5;" glyph-name="aring" horiz-adv-x="558" d="M275 533Q227 533 194 564T161 643T194 722T275 754Q321 754 354 722T388 643T355 565T275 533ZM275 698Q251 698 237 683T222 643T237 604T275 589Q297 589 312 603T327 643T312 683T275 698ZM77
394L65 480Q194 504 310 504Q405 504 449 466T494 333V0H398L385 75Q308 -11 198 -11Q129 -11 86 26T43 131V181Q43 240 81 272T188 304H372V334Q371 376 353 390T282 404Q205 404 77 394ZM164 166V147Q164 87 228 87Q301 87 372 145V221H216Q187 220 176 206T164
166Z" />
<glyph unicode="&#xe6;" glyph-name="ae" horiz-adv-x="870" d="M698 194H498Q505 130 534 109T630 87Q704 87 805 99L816 21Q747 -12 614 -12Q528 -12 476 12T398 88Q316 -11 198 -11Q129 -11 86 26T43 131V181Q43 239 81 271T187 304H371V334Q371 376 353 390T281
404Q204 404 76 394L65 480Q194 504 309 504Q404 504 448 466Q500 504 607 504Q723 504 775 462T829 334Q829 194 698 194ZM496 279H664Q708 279 708 336Q708 376 688 392T612 408Q547 408 523 382T496 279ZM164 166V147Q164 115 179 101T228 87Q306 87 378 151Q371
186 370 221H216Q187 220 176 206T164 166Z" />
<glyph unicode="&#xe7;" glyph-name="ccedilla" horiz-adv-x="498" d="M454 98L465 18Q392 -12 285 -12Q154 -12 100 46T46 246T100 446T286 504Q389 504 457 476L443 400Q394 402 307 402Q231 402 202 369T173 246Q173 155 202 122T307 88Q387 88 454 98ZM212
-106L224 -53Q298 -45 327 -57T355 -118Q353 -187 301 -222T170 -247L188 -188Q224 -189 248 -173T273 -128Q274 -114 263 -110T212 -106Z" />
<glyph unicode="&#xe8;" glyph-name="egrave" horiz-adv-x="548" d="M307 544L94 656L157 745L345 598L307 544ZM375 194H175Q182 130 211 109T306 87Q381 87 482 99L493 21Q424 -12 291 -12T102 47T46 246Q46 389 101 446T283 504Q400 504 453 462T506 334Q506
194 375 194ZM173 279H341Q385 279 385 336Q385 376 364 392T288 408Q224 408 200 382T173 279Z" />
<glyph unicode="&#xe9;" glyph-name="eacute" horiz-adv-x="548" d="M247 544L209 598L397 745L460 656L247 544ZM375 194H175Q182 130 211 109T306 87Q381 87 482 99L493 21Q424 -12 291 -12T102 47T46 246Q46 389 101 446T283 504Q400 504 453 462T506 334Q506
194 375 194ZM173 279H341Q385 279 385 336Q385 376 364 392T288 408Q224 408 200 382T173 279Z" />
<glyph unicode="&#xea;" glyph-name="ecircumflex" horiz-adv-x="548" d="M147 543L110 593L241 724H329L461 592L422 543L289 639H281L147 543ZM375 194H175Q182 130 211 109T306 87Q381 87 482 99L493 21Q424 -12 291 -12T102 47T46 246Q46 389 101 446T283
504Q400 504 453 462T506 334Q506 194 375 194ZM173 279H341Q385 279 385 336Q385 376 364 392T288 408Q224 408 200 382T173 279Z" />
<glyph unicode="&#xeb;" glyph-name="edieresis" horiz-adv-x="548" d="M215 583H175Q146 583 146 613V668Q146 699 175 699H215Q245 699 245 668V613Q245 583 215 583ZM394 583H354Q324 583 324 613V668Q324 699 354 699H394Q424 699 424 668V613Q424 583 394
583ZM375 194H175Q182 130 211 109T306 87Q381 87 482 99L493 21Q424 -12 291 -12T102 47T46 246Q46 389 101 446T283 504Q400 504 453 462T506 334Q506 194 375 194ZM173 279H341Q385 279 385 336Q385 376 364 392T288 408Q224 408 200 382T173 279Z" />
<glyph unicode="&#xec;" glyph-name="igrave" horiz-adv-x="266" d="M194 598L156 544L-57 656L6 745L194 598ZM194 0H72V490H194V0Z" />
<glyph unicode="&#xed;" glyph-name="iacute" horiz-adv-x="266" d="M308 656L96 544L58 598L246 745L308 656ZM194 0H72V490H194V0Z" />
<glyph unicode="&#xee;" glyph-name="icircumflex" horiz-adv-x="266" d="M309 592L271 543L138 639H130L-4 543L-41 593L90 724H178L309 592ZM194 0H72V490H194V0Z" />
<glyph unicode="&#xef;" glyph-name="idieresis" horiz-adv-x="266" d="M24 699H64Q94 699 94 668V613Q94 583 64 583H24Q-6 583 -6 613V668Q-6 699 24 699ZM203 699H243Q273 699 273 668V613Q273 583 243 583H203Q173 583 173 613V668Q173 699 203 699ZM194 0H72V490H194V0Z"
/>
<glyph unicode="&#xf0;" glyph-name="eth" horiz-adv-x="568" d="M455 670L394 621Q515 516 515 285Q515 133 463 60T280 -13Q160 -13 104 42T47 217Q47 334 95 392T255 450Q324 450 377 423Q360 511 313 556L241 499L201 547L259 593Q207 616 121 613L133 698Q253
704 340 658L415 719L455 670ZM281 84Q348 84 368 129T389 288Q389 297 389 314T388 339Q340 353 279 353Q221 353 198 322T174 219Q174 144 198 114T281 84Z" />
<glyph unicode="&#xf1;" glyph-name="ntilde" horiz-adv-x="590" d="M188 579H135Q126 645 150 678T215 709Q249 706 297 685T370 660Q395 656 404 666T413 704H466Q475 641 452 607T386 576Q348 579 299 602T230 628Q205 631 197 620T188 579ZM170 490L178 418Q292
504 390 504Q455 504 490 469T525 368V0H403V331Q403 372 392 386T351 401Q317 401 282 387T190 341V0H68V490H170Z" />
<glyph unicode="&#xf2;" glyph-name="ograve" horiz-adv-x="576" d="M348 598L310 544L98 656L160 745L348 598ZM289 504Q421 504 475 445T530 245T476 46T289 -13Q156 -13 101 45T46 245T101 445T289 504ZM289 407Q221 407 197 374T173 245Q173 151 197 118T289
84Q355 84 379 117T404 245Q404 340 380 373T289 407Z" />
<glyph unicode="&#xf3;" glyph-name="oacute" horiz-adv-x="576" d="M463 656L250 544L212 598L400 745L463 656ZM289 504Q421 504 475 445T530 245T476 46T289 -13Q156 -13 101 45T46 245T101 445T289 504ZM289 407Q221 407 197 374T173 245Q173 151 197 118T289
84Q355 84 379 117T404 245Q404 340 380 373T289 407Z" />
<glyph unicode="&#xf4;" glyph-name="ocircumflex" horiz-adv-x="576" d="M464 592L425 543L292 639H284L150 543L113 593L244 724H332L464 592ZM289 504Q421 504 475 445T530 245T476 46T289 -13Q156 -13 101 45T46 245T101 445T289 504ZM289 407Q221 407 197
374T173 245Q173 151 197 118T289 84Q355 84 379 117T404 245Q404 340 380 373T289 407Z" />
<glyph unicode="&#xf5;" glyph-name="otilde" horiz-adv-x="576" d="M175 579H121Q112 644 136 678T201 709Q235 706 283 685T356 660Q382 656 390 666T399 704H452Q461 641 439 607T373 576Q335 579 286 602T217 628Q191 631 183 620T175 579ZM289 504Q421 504
475 445T530 245T476 46T289 -13Q156 -13 101 45T46 245T101 445T289 504ZM289 407Q221 407 197 374T173 245Q173 151 197 118T289 84Q355 84 379 117T404 245Q404 340 380 373T289 407Z" />
<glyph unicode="&#xf6;" glyph-name="odieresis" horiz-adv-x="576" d="M178 699H218Q248 699 248 668V613Q248 583 218 583H178Q149 583 149 613V668Q149 699 178 699ZM358 699H397Q427 699 427 668V613Q427 583 397 583H358Q327 583 327 613V668Q327 699 358
699ZM289 504Q421 504 475 445T530 245T476 46T289 -13Q156 -13 101 45T46 245T101 445T289 504ZM289 407Q221 407 197 374T173 245Q173 151 197 118T289 84Q355 84 379 117T404 245Q404 340 380 373T289 407Z" />
<glyph unicode="&#xf7;" glyph-name="divide" horiz-adv-x="560" d="M264 539H294Q319 539 328 530T338 495V454Q338 429 329 420T294 411H264Q239 411 230 420T220 454V495Q220 520 229 529T264 539ZM505 250H55V338H505V250ZM264 176H294Q319 176 328 167T338
132V92Q338 67 329 58T294 48H264Q239 48 230 57T220 92V132Q220 157 229 166T264 176Z" />
<glyph unicode="&#xf8;" glyph-name="oslash" horiz-adv-x="576" d="M456 549L424 481Q480 456 505 399T530 245Q530 104 476 46T289 -13Q241 -13 198 -5L163 -82L116 -60L149 11Q95 37 71 93T46 245Q46 386 101 445T289 504Q334 504 374 496L409 572L456 549ZM198
117L331 403Q315 407 289 407Q221 407 197 374T173 245T198 117ZM376 378L242 89Q258 84 289 84Q355 84 379 117T404 245Q404 345 376 378Z" />
<glyph unicode="&#xf9;" glyph-name="ugrave" horiz-adv-x="579" d="M314 550L102 661L164 751L352 604L314 550ZM511 490V0H415L406 66Q302 -13 201 -13Q65 -13 65 123V490H187V159Q186 120 199 105T247 90Q297 90 390 144V490H511Z" />
<glyph unicode="&#xfa;" glyph-name="uacute" horiz-adv-x="579" d="M254 550L217 604L404 751L467 661L254 550ZM511 490V0H415L406 66Q302 -13 201 -13Q65 -13 65 123V490H187V159Q186 120 199 105T247 90Q297 90 390 144V490H511Z" />
<glyph unicode="&#xfb;" glyph-name="ucircumflex" horiz-adv-x="579" d="M154 549L117 599L249 730H336L468 598L429 549L296 644H288L154 549ZM511 490V0H415L406 66Q302 -13 201 -13Q65 -13 65 123V490H187V159Q186 120 199 105T247 90Q297 90 390 144V490H511Z" />
<glyph unicode="&#xfc;" glyph-name="udieresis" horiz-adv-x="579" d="M223 589H182Q153 589 153 619V674Q153 704 182 704H223Q252 704 252 674V619Q252 589 223 589ZM401 589H362Q332 589 332 619V674Q332 704 362 704H401Q432 704 432 674V619Q432 589 401
589ZM511 490V0H415L406 66Q302 -13 201 -13Q65 -13 65 123V490H187V159Q186 120 199 105T247 90Q297 90 390 144V490H511Z" />
<glyph unicode="&#xfd;" glyph-name="yacute" horiz-adv-x="546" d="M237 544L200 598L387 745L450 656L237 544ZM533 490L351 -15Q322 -98 262 -153T104 -203L94 -126Q152 -110 186 -83T238 -11L243 0H219Q186 0 178 30L12 490H141L248 153Q258 122 264 88H278Q282
100 288 122T298 153L403 490H533Z" />
<glyph unicode="&#xfe;" glyph-name="thorn" horiz-adv-x="584" d="M190 700V551Q190 489 186 441Q260 502 359 502Q454 502 495 440T536 241Q536 99 493 43T354 -13Q263 -13 187 27Q190 -18 190 -66V-195H68V700H190ZM190 350V111Q265 81 311 81Q366 81 388 115T411
241Q411 335 390 369T316 403Q263 403 190 350Z" />
<glyph unicode="&#xff;" glyph-name="ydieresis" horiz-adv-x="546" d="M206 583H165Q136 583 136 613V668Q136 699 165 699H206Q235 699 235 668V613Q235 583 206 583ZM384 583H345Q315 583 315 613V668Q315 699 345 699H384Q415 699 415 668V613Q415 583 384
583ZM533 490L351 -15Q322 -98 262 -153T104 -203L94 -126Q152 -110 186 -83T238 -11L243 0H219Q186 0 178 30L12 490H141L248 153Q258 122 264 88H278Q282 100 288 122T298 153L403 490H533Z" />
<glyph unicode="&#x2013;" glyph-name="endash" horiz-adv-x="574" d="M510 211H64V297H510V211Z" />
<glyph unicode="&#x2014;" glyph-name="emdash" horiz-adv-x="874" d="M810 211H64V297H810V211Z" />
<glyph unicode="&#x2018;" glyph-name="quoteleft" horiz-adv-x="224" d="M128 474H96Q72 474 63 482T54 513V571Q55 656 98 726L152 712Q139 657 139 599Q174 599 172 564V513Q170 491 161 483T128 474Z" />
<glyph unicode="&#x2019;" glyph-name="quoteright" horiz-adv-x="221" d="M95 719H127Q150 719 159 711T169 680V622Q168 537 125 467L71 481Q83 530 84 594Q50 594 50 629V680Q51 702 61 710T95 719Z" />
<glyph unicode="&#x201a;" glyph-name="quotesinglbase" horiz-adv-x="235" d="M103 127H135Q158 127 167 118T177 87V28Q176 -58 133 -128L79 -114Q92 -59 92 1Q58 1 58 36V87Q59 109 69 118T103 127Z" />
<glyph unicode="&#x201c;" glyph-name="quotedblleft" horiz-adv-x="395" d="M128 474H96Q72 474 63 482T54 513V571Q55 656 98 726L152 712Q139 657 139 599Q174 599 172 564V513Q170 491 161 483T128 474ZM299 474H267Q244 474 235 482T225 513V571Q226 656
269 726L323 712Q310 657 310 599Q344 599 344 564V513Q343 491 333 483T299 474Z" />
<glyph unicode="&#x201d;" glyph-name="quotedblright" horiz-adv-x="392" d="M95 719H127Q150 719 159 711T169 680V622Q168 537 125 467L71 481Q83 530 84 594Q50 594 50 629V680Q51 702 61 710T95 719ZM266 719H298Q322 719 331 711T340 680V622Q339 537 296
467L242 481Q255 536 255 594Q220 594 222 629V680Q223 702 233 710T266 719Z" />
<glyph unicode="&#x201e;" glyph-name="quotedblbase" horiz-adv-x="406" d="M103 124H135Q158 124 167 116T177 84V26Q176 -60 133 -129L79 -115Q90 -67 92 -1Q58 -1 58 33V84Q59 106 69 115T103 124ZM274 124H306Q330 124 339 116T348 84V26Q347 -60 304 -129L250
-115Q263 -60 263 -1Q228 -1 230 33V84Q231 106 241 115T274 124Z" />
<glyph unicode="&#x2022;" glyph-name="bullet" horiz-adv-x="369" d="M180 371H193Q246 371 267 351T288 277V263Q288 207 267 186T193 164H180Q124 164 103 185T81 263V277Q81 330 102 350T180 371Z" />
<glyph unicode="&#x2039;" glyph-name="guilsinglleft" horiz-adv-x="308" d="M262 421L148 251L263 77L199 36L39 238V264L198 462L262 421Z" />
<glyph unicode="&#x203a;" glyph-name="guilsinglright" horiz-adv-x="310" d="M270 264V238L109 36L45 77L160 251L46 421L110 462L270 264Z" />
</font>
</defs>
</svg>
