<?xml version="1.0" standalone="no"?>
<!DOCTYPE svg PUBLIC "-//W3C//DTD SVG 1.1//EN" "http://www.w3.org/Graphics/SVG/1.1/DTD/svg11.dtd" >
<svg xmlns="http://www.w3.org/2000/svg">
  <metadata>Created by iconfont</metadata>
  <defs>
  <font id="iconfont" horiz-adv-x="1024">
    <font-face
      font-family="iconfont"
      font-weight="400"
      font-stretch="normal"
      units-per-em="1024"
      ascent="896"
      descent="-128"
    />
      <missing-glyph />
      
      <glyph glyph-name="shuchu" unicode="&#59950;" d="M512-64c120.836 0 230.496 47.84 311.076 125.612a7.888 7.888 0 0 1 0.052 11.26l-39.6 39.6c-3.124 3.124-8.184 3.116-11.372 0.06C704.612 47.784 612.952 8 512 8c-207.66 0-376 168.34-376 376s168.34 376 376 376c100.952 0 192.612-39.784 260.156-104.532 3.188-3.056 8.248-3.064 11.372 0.06l39.6 39.6a7.888 7.888 0 0 1-0.052 11.264C742.496 784.16 632.836 832 512 832 264.576 832 64 631.424 64 384s200.576-448 448-448zM954.624 396.404a16 16 0 0 0 0-22.628l-209.94-209.94a8 8 0 0 0-11.316 0l-39.596 39.596a8 8 0 0 0 0 11.316L827.024 348H360a8 8 0 0 0-8 8v56a8 8 0 0 0 8 8h469.204l-135.432 135.432a8 8 0 0 0 0 11.316l39.596 39.6a8 8 0 0 0 11.316 0l209.94-209.944z"  horiz-adv-x="1024" />
      
      <glyph glyph-name="StarRocks" unicode="&#59949;" d="M512-128c282.784 0 512 229.216 512 512S794.784 896 512 896 0 666.784 0 384s229.216-512 512-512z m161.216 502.08a23.776 23.776 0 0 0 20.736-1.28l130.016-73.664 0.032-70.08c0-22.176-11.936-42.688-31.328-53.824L543.36 32.32a63.04 63.04 0 0 0-62.656 0l-119.744 68.64v0.032L512 196v-0.032l142.976 89.92a31.04 31.04 0 0 1 14.56 26.24v41.248a31.232 31.232 0 0 1-4.64 16.32l6.144 3.328 2.208 1.024zM200 427.232l110.88-62.848 2.56-1.312c10.368-4.896 22.4-5.056 32.832-0.384l2.816 1.376 5.984 3.232c1.376-1.056 2.816-2.048 4.288-2.912l92.544-52.224a30.912 30.912 0 0 0 9.888-45.248l-114.944-157.92-115.52 66.176a62.112 62.112 0 0 0-31.328 53.888v198.176zM667.84 640.32l124.8-71.52a62.112 62.112 0 0 0 31.36-53.888v-197.888l-122.272 69.28-2.56 1.344a39.424 39.424 0 0 1-35.648-1.024l-10.624-5.76-58.016 30.88-38.72 20.608a30.976 30.976 0 0 0-10.24 46.048l121.888 161.92z m-124.48 71.36l112.544-64.512-2.048-0.672-295.872-187.936-0.48-0.32-1.664-1.184a30.976 30.976 0 0 1-12.288-24.544v-41.056c0-3.968 0.768-7.872 2.208-11.456l-4.16-2.304-2.208-1.024a23.68 23.68 0 0 0-9.28-1.824h-0.64a23.712 23.712 0 0 0-8.64 1.984l-0.384 0.192a23.776 23.776 0 0 0-1.792 0.896l-118.624 67.232v69.76a62.272 62.272 0 0 0 31.328 53.856l249.344 142.912c9.472 5.408 20.16 8.288 31.04 8.32h0.288a63.04 63.04 0 0 0 31.328-8.32z"  horiz-adv-x="1024" />
      
      <glyph glyph-name="a-Property1shiyongquanxian" unicode="&#59946;" d="M960 384c0-247.424-200.576-448-448-448S64 136.576 64 384 264.576 832 512 832s448-200.576 448-448zM540 600h-56a8 8 0 0 1-8-8v-172H304a8 8 0 0 1-8-8v-56a8 8 0 0 1 8-8h172v-172a8 8 0 0 1 8-8h56a8 8 0 0 1 8 8v172h172a8 8 0 0 1 8 8v56a8 8 0 0 1-8 8h-172V592a8 8 0 0 1-8 8z"  horiz-adv-x="1024" />
      
      <glyph glyph-name="a-Property1bianjiquanxian" unicode="&#59947;" d="M512-64c247.424 0 448 200.576 448 448S759.424 832 512 832 64 631.424 64 384s200.576-448 448-448z m102.564 682.956a16 16 0 0 0 22.624 0.416l94.86-91.424a16 16 0 0 0 0.416-22.624l-41.344-42.896-117.9 113.632 41.344 42.896zM551.744 552.4l117.9-113.632-230.344-239.204a16.012 16.012 0 0 0-9.148-4.724l-117.088-17.588a8 8 0 0 0-9.14 8.796l13.1 117.82a16.008 16.008 0 0 0 4.38 9.332l230.34 239.2z"  horiz-adv-x="1024" />
      
      <glyph glyph-name="a-Property1chakanquanxian" unicode="&#59948;" d="M960 384c0-247.424-200.576-448-448-448S64 136.576 64 384 264.576 832 512 832s448-200.576 448-448z m-161.288 11.124l-0.016 0.028-0.028 0.064-0.084 0.172-0.096 0.2-0.06 0.12-0.104 0.208a13.8 13.8 0 0 1-0.212 0.428l-0.252 0.504-0.412 0.808a203.88 203.88 0 0 1-3.22 6.024 314.576 314.576 0 0 1-12.5 20.52 372.068 372.068 0 0 1-50.872 61.404C684.724 530.388 612.748 576 512 576c-100.748 0-172.724-45.612-218.856-90.396a372.056 372.056 0 0 1-50.872-61.404 312.756 312.756 0 0 1-12.5-20.52 209.6 209.6 0 0 1-4.096-7.764l-0.26-0.528-0.08-0.172-0.036-0.064-0.012-0.028L220 384l5.288-11.124 0.012-0.028 0.032-0.064 0.084-0.172a130.288 130.288 0 0 1 1.136-2.268c0.744-1.456 1.816-3.492 3.22-6.024a312.756 312.756 0 0 1 12.5-20.52 372.056 372.056 0 0 1 50.872-61.404C339.272 237.616 411.252 192 512 192c100.748 0 172.724 45.616 218.856 90.396a372.068 372.068 0 0 1 50.872 61.404 314.576 314.576 0 0 1 12.5 20.52 203.88 203.88 0 0 1 4.096 7.764l0.14 0.284 0.12 0.244 0.084 0.172 0.028 0.064 0.016 0.028L804 384l-5.288 11.124z m-286.88 116.012c70.516 0 127.676-56.92 127.676-127.136s-57.16-127.136-127.676-127.136c-70.512 0-127.676 56.92-127.676 127.136s57.164 127.136 127.676 127.136z m0-49.3c-43.172 0-78.168-34.848-78.168-77.836s34.996-77.836 78.168-77.836c43.172 0 78.172 34.848 78.172 77.836s-35 77.836-78.172 77.836z"  horiz-adv-x="1024" />
      
      <glyph glyph-name="daifenxiziduanquyu-1" unicode="&#59944;" d="M616 498.536V813.464c0 18.536 21.164 29.12 35.992 17.996l209.952-157.464c11.996-9 11.996-26.992 0-35.992l-209.952-157.464c-14.828-11.124-35.992-0.54-35.992 17.996zM112 776a8 8 0 0 0 8 8h356a8 8 0 0 0 8-8v-164a8 8 0 0 0-8-8H324v-252h216v56a8 8 0 0 0 8 8h356a8 8 0 0 0 8-8v-164a8 8 0 0 0-8-8h-356a8 8 0 0 0-8 8v52H324v-204h216v64a8 8 0 0 0 8 8h356a8 8 0 0 0 8-8v-164a8 8 0 0 0-8-8h-356a8 8 0 0 0-8 8v44H284a16 16 0 0 0-16 16V604H120a8 8 0 0 0-8 8V776z"  horiz-adv-x="1024" />
      
      <glyph glyph-name="daifenxiziduanquyu" unicode="&#59945;" d="M112 776a8 8 0 0 0 8 8h356a8 8 0 0 0 8-8v-164a8 8 0 0 0-8-8H324v-252h216v56a8 8 0 0 0 8 8h356a8 8 0 0 0 8-8v-164a8 8 0 0 0-8-8h-356a8 8 0 0 0-8 8v52H324v-204h216v64a8 8 0 0 0 8 8h356a8 8 0 0 0 8-8v-164a8 8 0 0 0-8-8h-356a8 8 0 0 0-8 8v44H284a16 16 0 0 0-16 16V604H120a8 8 0 0 0-8 8V776zM574.536 784h314.928c18.536 0 29.12-21.16 17.996-35.992l-157.464-209.952c-9-12-26.992-12-35.992 0l-157.464 209.952C545.416 762.836 556 784 574.536 784z"  horiz-adv-x="1024" />
      
      <glyph glyph-name="Doris" unicode="&#59943;" d="M512-128c282.784 0 512 229.216 512 512S794.784 896 512 896 0 666.784 0 384s229.216-512 512-512z m15.168 825.76l71.616-75.008c40.928-40.96 40.928-105.728 0-143.264L540.8 418.112a16.48 16.48 0 0 0-23.872 0l-133.024 132.992a102.944 102.944 0 0 0 0 146.656c40.96 40.96 105.728 40.96 143.264 0z m-44.352-317.184a16.48 16.48 0 0 0 0-23.872l-177.344-177.344a16.48 16.48 0 0 0-23.872 0c-3.424 3.424-3.424 6.816-3.424 13.664V544.288c0 10.24 6.816 17.056 17.056 17.056 0 3.424 6.816 0 10.24-3.392l177.344-177.376z m44.352-310.336c-40.96-40.96-105.76-40.96-143.264 0-40.928 40.928-40.928 105.696 0 143.232l266.016 266.016c20.48 20.48 27.296 47.744 23.904 71.648l95.488-95.52c40.928-40.928 40.928-105.728 0-143.232l-242.144-242.144z"  horiz-adv-x="1024" />
      
      <glyph glyph-name="yingyong" unicode="&#59942;" d="M714.004 533.656a8 8 0 0 0 11.312 0l50.912-50.912a8 8 0 0 0 0-11.312l-299.812-299.812a8 8 0 0 0-11.316 0l-50.912 50.908a8.988 8.988 0 0 0-0.752 0.868l-135.092 135.096a8 8 0 0 0 0 11.312l50.912 50.912a8 8 0 0 0 11.312 0l130.248-130.248 243.188 243.188zM923.692 626.308a8 8 0 0 0 4-6.928v-470.76c0-2.86-1.524-5.5-4-6.932L516-93.692a8.004 8.004 0 0 0-8 0L100.308 141.688a8.008 8.008 0 0 0-4 6.932V619.38a8 8 0 0 0 4 6.928L508 861.688a8 8 0 0 0 8 0l407.692-235.38zM168.308 582.428v-396.86L512-12.864l343.692 198.432V582.432L512 780.86 168.308 582.428z"  horiz-adv-x="1024" />
      
      <glyph glyph-name="daijinhang1" unicode="&#59937;" d="M960 384c0 247.424-200.576 448-448 448S64 631.424 64 384s200.576-448 448-448 448 200.576 448 448z m-844.8 0c0 219.148 177.652 396.8 396.8 396.8 219.148 0 396.8-177.652 396.8-396.8 0-219.148-177.652-396.8-396.8-396.8-219.148 0-396.8 177.652-396.8 396.8zM568 616v-464h-78V530.78L412 510.052v80.04L509.5 616H568z"  horiz-adv-x="1024" />
      
      <glyph glyph-name="daijinhang2" unicode="&#59938;" d="M960 384c0 247.424-200.576 448-448 448S64 631.424 64 384s200.576-448 448-448 448 200.576 448 448z m-844.8 0c0 219.148 177.652 396.8 396.8 396.8 219.148 0 396.8-177.652 396.8-396.8 0-219.148-177.652-396.8-396.8-396.8-219.148 0-396.8 177.652-396.8 396.8zM656 495C656 575.0799999999999 591.528 640 512 640s-144-64.92-144-145h76.8l0.232 5.568c2.8 34.76 31.716 62.1 66.968 62.1 37.096 0 67.2-30.316 67.2-67.668 0-16.976-6.22-32.52-16.512-44.388L377.6 236.164V176h268.8v77.332h-152.296l126.568 146.548 5.684 6.96A145.216 145.216 0 0 1 656 495z"  horiz-adv-x="1024" />
      
      <glyph glyph-name="Variant8" unicode="&#59939;" d="M512 832c247.424 0 448-200.576 448-448s-200.576-448-448-448S64 136.57600000000002 64 384 264.576 832 512 832z m56-680V616h-58.5L412 590.092v-80.04l78 20.728V152H568z"  horiz-adv-x="1024" />
      
      <glyph glyph-name="Variant7" unicode="&#59940;" d="M512 832c247.424 0 448-200.576 448-448s-200.576-448-448-448S64 136.57600000000002 64 384 264.576 832 512 832z m0-192c-79.528 0-144-64.92-144-145h76.8l0.232 5.568c2.8 34.76 31.716 62.1 66.968 62.1 37.096 0 67.2-30.316 67.2-67.668 0-16.976-6.22-32.52-16.512-44.388L377.6 236.164V176h268.8v77.332h-152.296l126.568 146.548 5.684 6.96A145.216 145.216 0 0 1 656 495C656 575.0799999999999 591.528 640 512 640z"  horiz-adv-x="1024" />
      
      <glyph glyph-name="a-Property1yiwancheng" unicode="&#59941;" d="M756.824 502.252a8.12 8.12 0 0 1 0 11.492l-45.076 45.08a8.124 8.124 0 0 1-11.492 0l-237.172-237.176a8.128 8.128 0 0 0-11.496 0l-121.84 121.84a8.132 8.132 0 0 1-11.492 0l-45.076-45.076a8.124 8.124 0 0 1 0-11.492l178.408-178.412c3.176-3.172 8.32-3.172 11.496 0l293.74 293.744zM960 384c0 247.424-200.576 448-448 448S64 631.424 64 384s200.576-448 448-448 448 200.576 448 448z m-844.8 0c0 219.148 177.652 396.8 396.8 396.8 219.148 0 396.8-177.652 396.8-396.8 0-219.148-177.652-396.8-396.8-396.8-219.148 0-396.8 177.652-396.8 396.8z"  horiz-adv-x="1024" />
      
      <glyph glyph-name="jiekou" unicode="&#59936;" d="M894.66 817.924a8 8 0 0 0 11.316 0l39.596-39.6a8 8 0 0 0 0-11.312L860.72 682.16l8.248-8.248c90.6-90.6 90.6-237.496 0-328.096l-73.54-73.54a24 24 0 0 0-33.94 0l-82.024 82.028-96.292-96.292a8 8 0 0 0-11.312 0l-39.6 39.6a8 8 0 0 0 0 11.312l96.292 96.292-96.168 96.16-96.288-96.284a8 8 0 0 0-11.312 0l-39.6 39.596a8 8 0 0 0 0 11.316l96.288 96.288-79.196 79.196a24 24 0 0 0 0 33.94l73.54 73.54c90.604 90.6 237.496 90.6 328.1 0l5.892-5.896 84.852 84.852z m-90.508-181.02l-39.596 39.6-0.084 0.08-11.468 11.472c-62.484 62.48-163.792 62.48-226.276 0l-39.596-39.6 291.328-291.328 39.596 39.6c62.484 62.484 62.484 163.788 0 226.276l-13.824 13.824-0.08 0.08zM215.84 37.28l-84.852-84.856a8 8 0 0 0-11.316 0l-39.6 39.6a8 8 0 0 0 0 11.312l84.856 84.856-5.896 5.896c-90.6 90.6-90.6 237.496 0 328.096l73.54 73.54a24 24 0 0 0 33.94 0l359.212-359.212a24 24 0 0 0 0-33.94l-73.54-73.54c-90.6-90.6-237.496-90.6-328.096 0l-8.248 8.248z m59.16 42.664c62.48-62.484 163.788-62.484 226.272 0l39.6 39.6-291.328 291.328-39.6-39.6c-62.48-62.484-62.48-163.792 0-226.276l65.056-65.052z"  horiz-adv-x="1024" />
      
      <glyph glyph-name="tianjiazujian" unicode="&#59935;" d="M109.62 190.532c-5.312 2.592-11.508-1.276-11.508-7.188v-57.724c0-3.032 1.712-5.804 4.424-7.16l427.576-213.516 141.984 70.904a7.52 7.52 0 0 1 4.164 6.736v61.984a7.532 7.532 0 0 1-10.832 6.768l-135.316-66.052-420.492 205.248zM526.532 799.156a8 8 0 0 0 7.156 0L975.8 578.096c5.896-2.948 5.896-11.36 0-14.308l-442.112-221.056a8.016 8.016 0 0 0-7.156 0L84.424 563.788c-5.9 2.948-5.9 11.36 0 14.308L526.532 799.16zM229.548 570.944l300.564-150.28 300.56 150.28-300.56 150.28-300.56-150.28zM788 376a8 8 0 0 0 8 8h56a8 8 0 0 0 8-8v-156h156a8 8 0 0 0 8-8v-56a8 8 0 0 0-8-8h-156v-156a8 8 0 0 0-8-8h-56a8 8 0 0 0-8 8v156h-156a8 8 0 0 0-8 8v56a8 8 0 0 0 8 8h156v156zM98.112 401.784a8 8 0 0 0 11.504 7.192L525.88 206.2a7.532 7.532 0 0 0 4.232-6.768v-62.388a7.528 7.528 0 0 0-10.856-6.756l-416.68 205.104a7.996 7.996 0 0 0-4.464 7.176v59.216z"  horiz-adv-x="1024" />
      
      <glyph glyph-name="tianjiamoban" unicode="&#59934;" d="M176 784a16 16 0 0 1-16-16v-768a16 16 0 0 1 16-16h328a8 8 0 0 1 8 8v56a8 8 0 0 1-8 8H232V712h281.336v-240a16 16 0 0 1 16-16H792v-48a8 8 0 0 1 8-8h56a8 8 0 0 1 8 8V520.752c0 4.46-1.864 8.72-5.144 11.752l-267.6 247.248A16.008 16.008 0 0 1 580.396 784H176z m581.636-256h-172.3V687.192L757.636 528zM676 376a8 8 0 0 0 8 8h56a8 8 0 0 0 8-8v-156h156a8 8 0 0 0 8-8v-56a8 8 0 0 0-8-8h-156v-156a8 8 0 0 0-8-8h-56a8 8 0 0 0-8 8v156h-156a8 8 0 0 0-8 8v56a8 8 0 0 0 8 8h156v156zM577.412 308a8 8 0 0 0-8-8H304a8 8 0 0 0-8 8v48a8 8 0 0 0 8 8h265.412a8 8 0 0 0 8-8v-48zM440 460a8 8 0 0 1 8 8V516a8 8 0 0 1-8 8H304a8 8 0 0 1-8-8v-48a8 8 0 0 1 8-8h136z"  horiz-adv-x="1024" />
      
      <glyph glyph-name="tongguo" unicode="&#59932;" d="M912 768a16 16 0 0 1-16 16H395.6a16 16 0 0 1-10.856-4.248l-267.6-247.248A16 16 0 0 1 112 520.752V0a16 16 0 0 1 16-16h368v72H184V456h278.664V712H840v-284h72V768zM390.664 687.192V528H218.368l172.296 159.192zM622.164 20.956l-0.104 0.108-169.6 169.596a8 8 0 0 0 0 11.316l45.256 45.256a8 8 0 0 0 11.312 0l164.048-164.048 243.244 243.244a8 8 0 0 0 11.312 0l45.256-45.256a8 8 0 0 0 0-11.316l-248.772-248.772-0.128-0.128-45.252-45.256a7.988 7.988 0 0 0-11.316 0l-45.256 45.256z"  horiz-adv-x="1024" />
      
      <glyph glyph-name="tuihui" unicode="&#59933;" d="M912 768a16 16 0 0 1-16 16H395.6a16 16 0 0 1-10.856-4.248l-267.6-247.248A16 16 0 0 1 112 520.752V0a16 16 0 0 1 16-16h368v72H184V456h278.664V712H840v-280h72V768zM390.664 687.192V528H218.368l172.296 159.192zM728.648 93.04a8 8 0 0 1-0.16 11.312l-123.124 120.336h235.328v-232a8 8 0 0 1 8-8h56a8 8 0 0 1 8 8v296a8 8 0 0 1-8 8h-299.328l123.124 120.332a8 8 0 0 1 0.16 11.312l-39.036 40.152a8 8 0 0 1-11.312 0.16l-201.452-196.484a16 16 0 0 1 0-22.944l201.452-196.488a8 8 0 0 1 11.312 0.16l39.036 40.152z"  horiz-adv-x="1024" />
      
      <glyph glyph-name="zidingyishujuji" unicode="&#59930;" d="M530.936 81.456l247.284 247.988 67.884-67.884-247.34-248.04h-67.828v67.936z m-59.328 31.14a16 16 0 0 1-4.672-11.3v-135.776a16 16 0 0 1 16-16h135.752a16.016 16.016 0 0 1 11.332 4.7l295.248 296.092a16.004 16.004 0 0 1-0.016 22.612l-135.764 135.764a16 16 0 0 1-22.644-0.016l-295.236-296.076zM505.596 395.344L625.432 540l49.284-40.828-134.672-162.568-3.988-5.168a32 32 0 0 0-44.88-5.796l-112.196 86.536-117.696-140.556L212 312.448l131.816 157.6 4.672 6.06a32 32 0 0 0 44.88 5.796l112.228-86.56zM96 804a16 16 0 0 0 16 16h553.464c4.188 0 8.212-1.64 11.204-4.576l198.536-194.72A16 16 0 0 0 880 609.28V464h-56V600h-160a16 16 0 0 0-16 16V764H152v-728h264v-56H112a16 16 0 0 0-16 16V804z"  horiz-adv-x="1024" />
      
      <glyph glyph-name="xiugaipeizhi" unicode="&#59931;" d="M678.284 760c-13 35.036-46.728 60-86.284 60H352c-39.56 0-73.28-24.964-86.28-60H136a16 16 0 0 1-16-16v-708a16 16 0 0 1 16-16h248v64H184V696h81.72C278.72 660.964 312.44 636 352 636h240c39.556 0 73.284 24.964 86.284 60H760v-184h64V744a16 16 0 0 1-16 16h-129.716zM324 728a28 28 0 0 0 28 28h240a28 28 0 1 0 0-56H352a28 28 0 0 0-28 28zM658.584 128c-21.216 0-41.564 8.64-56.568 24.016-15 15.38-23.432 36.236-23.432 57.984 0 21.748 8.432 42.604 23.432 57.984 15.004 15.376 35.352 24.016 56.568 24.016 21.22 0 41.568-8.64 56.572-24.016 15-15.38 23.428-36.236 23.428-57.984 0-21.748-8.428-42.604-23.428-57.984-15.004-15.376-35.352-24.016-56.572-24.016z m0 48c8.488 0 16.628 3.584 22.628 9.96 6.004 6.376 9.372 15.024 9.372 24.04s-3.368 17.664-9.372 24.04c-6 6.376-14.14 9.96-22.628 9.96-8.484 0-16.624-3.584-22.624-9.96-6.004-6.376-9.376-15.024-9.376-24.04s3.372-17.664 9.376-24.04c6-6.376 14.14-9.96 22.624-9.96zM404.328 135.176a265.96 265.96 0 0 1 23.716-55.152 264.304 264.304 0 0 1 35.24-48.24c2.604-2.824 6.856-3.244 10.232-1.412a77.568 77.568 0 0 0 34.908 9.38c14.44 0.392 28.7-3.264 41.212-10.564a78.772 78.772 0 0 0 29.672-30.8 79.896 79.896 0 0 0 9.456-35.44c0.112-3.788 2.552-7.212 6.244-8.08a257.752 257.752 0 0 1 117.996-0.048c3.696 0.864 6.14 4.292 6.252 8.084a79.808 79.808 0 0 0 9.44 35.436 78.756 78.756 0 0 0 29.66 30.816 77.6 77.6 0 0 0 41.208 10.584c12.232-0.328 24.188-3.552 34.92-9.372 3.376-1.832 7.62-1.416 10.224 1.404a264.5 264.5 0 0 1 58.924 103.444c1.084 3.62-0.644 7.432-3.848 9.436a78.736 78.736 0 0 0-25.58 25.988 79.86 79.86 0 0 0-11.524 41.388 79.868 79.868 0 0 0 11.556 41.384 78.8 78.8 0 0 0 25.588 25.964c3.208 2.004 4.94 5.82 3.848 9.444a265.124 265.124 0 0 1-23.72 55.156 263.76 263.76 0 0 1-35.244 48.244c-2.604 2.824-6.848 3.244-10.224 1.408a77.6 77.6 0 0 0-34.916-9.38 77.56 77.56 0 0 0-41.208 10.564 78.744 78.744 0 0 0-29.672 30.8 79.896 79.896 0 0 0-9.456 35.44c-0.112 3.788-2.556 7.212-6.244 8.08a257.752 257.752 0 0 1-117.996 0.048c-3.696-0.864-6.14-4.292-6.252-8.084a79.912 79.912 0 0 0-9.44-35.436 78.78 78.78 0 0 0-29.66-30.816 77.612 77.612 0 0 0-41.208-10.584 77.608 77.608 0 0 0-34.924 9.372c-3.372 1.832-7.62 1.416-10.224-1.404a264.492 264.492 0 0 1-58.92-103.444c-1.084-3.62 0.644-7.432 3.844-9.436a78.66 78.66 0 0 0 25.58-25.988 79.864 79.864 0 0 0 11.528-41.388 79.868 79.868 0 0 0-11.556-41.384 78.776 78.776 0 0 0-25.584-25.96c-3.212-2.004-4.94-5.828-3.848-9.452z m174.864-53.048a120.032 120.032 0 0 1-86.236 14.096 204.52 204.52 0 0 0-18.36 32.444c19.656 22.42 31.164 51.84 31.164 83.332 0.02 30.748-11.076 60.424-31.164 83.332a201.112 201.112 0 0 0 18.312 32.444 120.04 120.04 0 0 1 86.284 14.12c26.096 15.36 45.716 40.012 55.1 69.236a191.568 191.568 0 0 0 36.692-0.024c9.38-29.22 28.992-53.876 55.076-69.236a120.04 120.04 0 0 1 86.24-14.096 204.5 204.5 0 0 0 18.356-32.444c-19.656-22.42-31.16-51.84-31.16-83.332-0.02-30.748 11.076-60.424 31.16-83.332a199.72 199.72 0 0 0-18.308-32.444 120.052 120.052 0 0 1-86.288-14.12c-26.092-15.36-45.712-40.012-55.1-69.236a191.568 191.568 0 0 0-36.692 0.024c-9.38 29.22-28.992 53.876-55.076 69.236z"  horiz-adv-x="1024" />
      
      <glyph glyph-name="buzhoufenzu" unicode="&#59928;" d="M240 168c0 24.3 19.7 44 44 44h484a16 16 0 0 0 16-16v-56a16 16 0 0 0-16-16H284c-24.3 0-44 19.7-44 44zM284 428c-24.3 0-44-19.7-44-44s19.7-44 44-44h484a16 16 0 0 1 16 16v56a16 16 0 0 1-16 16H284zM120 828a16 16 0 0 1-16-16v-872a16 16 0 0 1 16-16h784a16 16 0 0 1 16 16V812a16 16 0 0 1-16 16H120z m728-72v-760H176V756h672z"  horiz-adv-x="1024" />
      
      <glyph glyph-name="jiesanfenzu" unicode="&#59929;" d="M104 812a16 16 0 0 0 16 16h784a16 16 0 0 0 16-16v-168a16 16 0 0 0-16-16h-40a16 16 0 0 0-16 16V756H176v-112a16 16 0 0 0-16-16H120a16 16 0 0 0-16 16V812zM120 532a16 16 0 0 1-16-16v-80a16 16 0 0 1 16-16h40a16 16 0 0 1 16 16V516a16 16 0 0 1-16 16H120zM864 532a16 16 0 0 1-16-16v-80a16 16 0 0 1 16-16h40a16 16 0 0 1 16 16V516a16 16 0 0 1-16 16h-40zM848 308a16 16 0 0 0 16 16h40a16 16 0 0 0 16-16v-80a16 16 0 0 0-16-16h-40a16 16 0 0 0-16 16v80zM104 308a16 16 0 0 0 16 16h40a16 16 0 0 0 16-16v-80a16 16 0 0 0-16-16H120a16 16 0 0 0-16 16v80zM120 116a16 16 0 0 1-16-16v-160a16 16 0 0 1 16-16h784a16 16 0 0 1 16 16v160a16 16 0 0 1-16 16h-40a16 16 0 0 1-16-16v-104H176v104a16 16 0 0 1-16 16H120zM252 148a16 16 0 0 0 16 16h488a16 16 0 0 0 16-16v-48a16 16 0 0 0-16-16H268a16 16 0 0 0-16 16v48zM252 652a16 16 0 0 0 16 16h488a16 16 0 0 0 16-16v-48a16 16 0 0 0-16-16H268a16 16 0 0 0-16 16V652z"  horiz-adv-x="1024" />
      
      <glyph glyph-name="bendibianliang" unicode="&#59925;" d="M376.228 401.236c2.704 3.352 8.136 3.704 11.412 0.784l38.128-34.012c2.624-2.34 2.96-6.032 0.868-8.768-82.528-107.952-82.936-250.684-1.032-358.268 2.08-2.736 1.74-6.42-0.88-8.76l-38.376-34.232c-3.28-2.924-8.72-2.568-11.42 0.792-105.712 131.596-105.192 310.392 1.3 442.464zM887.772 401.236c-2.704 3.352-8.136 3.704-11.412 0.784l-38.128-34.012c-2.624-2.34-2.96-6.032-0.868-8.768 82.524-107.952 82.936-250.684 1.032-358.268-2.08-2.736-1.74-6.42 0.88-8.76l38.376-34.232c3.28-2.924 8.716-2.568 11.42 0.792 105.712 131.596 105.192 310.392-1.3 442.464zM160 784c-26.508 0-48-21.492-48-48v-704c0-26.508 21.492-48 48-48h144v72H184V544h656v-96h72V736c0 26.508-21.492 48-48 48H160z m680-168H184V712h656v-96zM536.596 383.96799999999996A9.84 9.84 0 0 1 528.64 388h-62.808c-7.82 0-12.5-8.616-8.192-15.084l130.06-193.336-127.976-188.464c-4.344-6.464 0.332-15.116 8.168-15.116h63.592c3.136 0 6.084 1.488 7.932 4l92.192 128.036L723.796-20c1.848-2.512 4.796-4 7.936-4h63.588c7.836 0 12.512 8.652 8.172 15.116l-127.976 188.464 130.832 193.312c4.328 6.468-0.348 15.108-8.18 15.108h-63.596a9.84 9.84 0 0 1-7.956-4.032l-95.008-132.84-95.012 132.84z"  horiz-adv-x="1024" />
      
      <glyph glyph-name="chaxun" unicode="&#59926;" d="M692-28a232 232 0 1 0 189.876 98.692l76.412-76.412a8 8 0 0 0 0-11.312l-45.256-45.256a8 8 0 0 0-11.312 0l-76.412 76.412A231.988 231.988 0 0 0 692-28z m0 69.6a162.396 162.396 0 0 1 114.832 277.236 162.392 162.392 0 0 1-229.668 0A162.4 162.4 0 0 1 692 41.60000000000002zM500 824c211.344 0 389.452-78.872 391.972-176.592H892V448h-64.9V537.54c-73.032-43.088-180.788-70.928-327.1-70.928-130.312 0-250.068 27.84-323.1 70.928v-143.336c0-6.828 3.308-16.572 16.476-28.952 13.332-12.532 34.648-25.552 64.204-37.304 38.424-15.28 89.296-28.844 146.42-36.44v-69.292c-67.4 6.836-129.36 20.716-178.064 40.08-17.524 6.968-34.04 14.828-49.04 23.608v-137.108c0-6.828 3.312-16.572 16.48-28.952 13.332-12.532 34.648-29.556 64.204-41.308 49.328-19.612 119.172-39.204 196.42-45.08v-64.312c-82.6 4.196-151.76 19.764-212.064 43.74-35.508 14.12-66.844 31.9-89.904 53.572C128.812 88.28399999999999 112 116.14800000000002 112 148.79600000000005V647.408h0.028C114.548 745.1279999999999 280.656 824 500 824z m327.1-178.692c0 3.4-16.476 40.96-71.12 66.06C698 738 626 764.3199999999999 500 764.3199999999999S306 742 248.02 711.3679999999999c-63.18-33.38-71.12-62.664-71.12-66.06 0-3.4 5.88-28.92 71.12-58.06C307.3 560.76 398.876 542.296 500 542.296c117.12 0 196.704 18.468 255.98 44.952 65.244 29.144 71.12 54.66 71.12 58.06z"  horiz-adv-x="1024" />
      
      <glyph glyph-name="shurucanshu" unicode="&#59927;" d="M723.648 401.656a8 8 0 0 0 11.312 0l33.94-33.94a8 8 0 0 0 0-11.316l-137.988-137.988H952a8 8 0 0 0 8-8v-48a8 8 0 0 0-8-8h-320.52l137.424-137.42a8 8 0 0 0 0-11.316l-33.944-33.94a8 8 0 0 0-11.312 0l-175.284 175.284-0.08 0.08-33.94 33.94a8 8 0 0 0 0 11.312l209.304 209.304zM912 768a16 16 0 0 1-16 16H395.6a16 16 0 0 1-10.856-4.248l-267.6-247.248A16 16 0 0 1 112 520.752V0a16 16 0 0 1 16-16h368v72H184V456h278.664V712H840v-364h72V768zM390.664 687.192V528H218.368l172.296 159.192z"  horiz-adv-x="1024" />
      
      <glyph glyph-name="hanshu" unicode="&#59924;" d="M176 48V776a8 8 0 0 1-8 8H120a8 8 0 0 1-8-8v-776a16 16 0 0 1 16-16h776a8 8 0 0 1 8 8v48a8 8 0 0 1-8 8H176zM785.204 462.548c17.992 49.08 71.972 74.788 120.724 56.672 48.756-18.112 74.292-72.448 56.3-121.528-17.992-49.08-71.972-74.788-120.724-56.676-26.7 9.932-47.596 30.968-56.88 57.844-157.872 9.348-234.488 104-221.72 273.444-40.048 33.304-45.852 92.9-12.768 133.216 33.084 40.32 92.284 46.16 132.336 12.856 40.048-33.304 45.852-92.9 12.768-133.216-17.412-21.62-43.532-33.888-70.812-34.472-4.644-121.532 46.432-181.132 160.776-188.14z m-193.86 282.792c0-17.528 13.932-31.552 31.344-31.552s31.34 14.024 31.34 31.552-13.928 31.552-31.34 31.552-31.344-14.024-31.344-31.552z m250.74-315.512c0-17.532 13.928-31.552 31.34-31.552s31.344 14.02 31.344 31.552c0 17.528-13.932 31.548-31.344 31.548s-31.34-14.02-31.34-31.548z m-451.288 28.208c-17.992-49.08-71.388-74.788-120.724-56.672-48.756 18.112-74.292 71.864-56.3 121.528 17.992 49.664 71.972 74.792 120.724 56.68 26.7-9.936 47.596-30.972 56.88-58.432 157.872-9.348 234.488-104.004 221.72-273.444 40.048-33.304 45.852-92.9 12.768-133.216-33.084-40.316-92.284-46.16-132.336-12.856-40.048 33.304-45.852 92.9-12.768 133.216 17.412 21.62 43.532 33.888 70.812 34.472 4.644 122.116-45.852 181.716-160.776 188.724z m193.86-282.792c0 17.528-13.932 31.552-31.344 31.552s-31.34-14.024-31.34-31.552 13.928-31.552 31.34-31.552 31.344 14.024 31.344 31.552z m-250.74 315.512c0 17.532-13.928 31.552-31.34 31.552-17.416 0-31.344-14.02-31.344-31.552 0-17.528 13.928-31.548 31.344-31.548 17.412 0 31.34 14.02 31.34 31.548z"  horiz-adv-x="1024" />
      
      <glyph glyph-name="xinzenglie" unicode="&#59923;" d="M152 24h136v132H152v-132z m136 204v120H152v-120h136z m0 192V540H152v-120h136zM152 744v-132h136V744H152z m208-324h136V540H360v-120z m136 324H360v-132h136V744z m-136-396v-120h136v120H360z m0-324h136v132H360v-132z m-56-72H96a16 16 0 0 0-16 16V800a16 16 0 0 0 16 16h456a16 16 0 0 0 16-16v-832a16 16 0 0 0-16-16H304zM789.82 659.52a8 8 0 0 1 12.36 0l111.248 135.4c4.288 5.22 0.572 13.08-6.184 13.08h-222.488c-6.756 0-10.472-7.86-6.18-13.08l111.244-135.4zM648 596a16 16 0 0 0 16 16h264a16 16 0 0 0 16-16v-628a16 16 0 0 0-16-16h-264a16 16 0 0 0-16 16V596z"  horiz-adv-x="1024" />
      
      <glyph glyph-name="fenzu" unicode="&#59922;" d="M64 812a16 16 0 0 0 16 16h864a16 16 0 0 0 16-16v-872a16 16 0 0 0-16-16H80a16 16 0 0 0-16 16V812z m120-348c0-55.228 44.772-100 100-100h540a16 16 0 0 1 16 16V548a16 16 0 0 1-16 16H284c-55.228 0-100-44.772-100-100z m100-220c-55.228 0-100-44.772-100-100s44.772-100 100-100h540a16 16 0 0 1 16 16v168a16 16 0 0 1-16 16H284z"  horiz-adv-x="1024" />
      
      <glyph glyph-name="shijian3" unicode="&#59921;" d="M296 760V824a8 8 0 0 0 8 8h72a8 8 0 0 0 8-8v-64h256V824a8 8 0 0 0 8 8h72a8 8 0 0 0 8-8v-64h168a16 16 0 0 0 16-16v-744a16 16 0 0 0-16-16H128a16 16 0 0 0-16 16V744a16 16 0 0 0 16 16h168z m344-136V688H384v-64a8 8 0 0 0-8-8H304a8 8 0 0 0-8 8V688H184v-632h656V688h-112v-64a8 8 0 0 0-8-8h-72a8 8 0 0 0-8 8z m-87.272-223.272h122.184l-203.64-285.092v203.636H349.092l203.636 285.092v-203.636z"  horiz-adv-x="1024" />
      
      <glyph glyph-name="zichanzhongxin_yijidaohang_kaifazhongxin" unicode="&#59919;" d="M309.612 386.356a16 16 0 0 0 12.2 5.644H391.56c6.816 0 10.512-7.98 6.1-13.176l-86.296-101.66 86.084-99.944c4.468-5.184 0.784-13.22-6.06-13.22h-70.24a16 16 0 0 0-12.124 5.556L225.56 266.456a16 16 0 0 0-0.08 20.796l84.128 99.104zM528.832 392a16.004 16.004 0 0 1-14.872-10.1l-84.888-213.916a2.912 2.912 0 0 1 2.704-3.984h62.312a16 16 0 0 1 14.872 10.1l84.892 213.916a2.912 2.912 0 0 1-2.708 3.984h-62.312zM710.388 386.356a16 16 0 0 1-12.2 5.644h-69.752c-6.816 0-10.512-7.98-6.1-13.176l86.296-101.66-86.084-99.944c-4.468-5.184-0.784-13.22 6.06-13.22h70.244a15.992 15.992 0 0 1 12.12 5.556l83.464 96.9a15.992 15.992 0 0 1 0.076 20.796l-84.124 99.104zM128 784a16 16 0 0 1-16-16v-768a16 16 0 0 1 16-16h768a16 16 0 0 1 16 16V768a16 16 0 0 1-16 16H128z m56-728V536h656v-480H184z m12 640h224a8 8 0 0 0 8-8v-56a8 8 0 0 0-8-8H196a8 8 0 0 0-8 8V688a8 8 0 0 0 8 8z"  horiz-adv-x="1024" />
      
      <glyph glyph-name="zichanzhongxin_yijidaohang_menhu" unicode="&#59920;" d="M384 776a8 8 0 0 0 8 8h184a8 8 0 0 0 8-8v-276.22a257.296 257.296 0 0 1-62-45.78c-69.82-69.82-91.144-169.776-63.964-258H392a8 8 0 0 0-8 8V776zM656 524.896c68.54 12.948 141.328-2.1 200-45.14V664a8 8 0 0 1-8 8h-184a8 8 0 0 1-8-8v-139.104zM478.376 148H120a8 8 0 0 1-8-8v-68a8 8 0 0 1 8-8h432.332a259.012 259.012 0 0 0-30.332 26 257.36 257.36 0 0 0-43.624 58zM912 90.108l44.432-44.432a16 16 0 0 0 0-22.628l-35.484-35.48a16 16 0 0 0-22.624 0l-100.464 100.464c-77.572-39.6-174.948-26.944-239.86 37.968-80.632 80.632-80.632 211.368 0 292s211.364 80.632 292 0c76.232-76.236 80.392-197.248 12.48-278.368l36.112-36.116a257.396 257.396 0 0 1 13.408 16.816v-30.224z m-118.568 92.46c49.392 49.392 49.392 129.472 0 178.864-49.392 49.392-129.472 49.392-178.864 0-49.392-49.392-49.392-129.472 0-178.864 49.392-49.392 129.472-49.392 178.864 0zM112 516a8 8 0 0 0 8 8h184a8 8 0 0 0 8-8v-312a8 8 0 0 0-8-8H120a8 8 0 0 0-8 8V516z"  horiz-adv-x="1024" />
      
      <glyph glyph-name="huoqu" unicode="&#59917;" d="M184 712v-88a8 8 0 0 0-8-8H120a8 8 0 0 0-8 8V768a16 16 0 0 0 16 16h768a16 16 0 0 0 16-16v-768a16 16 0 0 0-16-16H128a16 16 0 0 0-16 16v144a8 8 0 0 0 8 8h56a8 8 0 0 0 8-8v-88h656V712H184z m174.744-118.344a8 8 0 0 1 0-11.312l19.8-19.8L521.088 420H120a8 8 0 0 1-8-8v-56a8 8 0 0 1 8-8h401.088l-142.544-142.544-19.8-19.8a8 8 0 0 1 0-11.312l39.6-39.6a8 8 0 0 1 11.312 0l19.8 19.8 204 204 19.8 19.8a8 8 0 0 1 0 11.312l-19.8 19.8-204 204-19.8 19.8a8 8 0 0 1-11.312 0l-39.6-39.6z"  horiz-adv-x="1024" />
      
      <glyph glyph-name="liucheng" unicode="&#59918;" d="M424 576h416V712H424v-136zM352 776a8 8 0 0 0 8 8h544a8 8 0 0 0 8-8v-264a8 8 0 0 0-8-8H360a8 8 0 0 0-8 8V608H261C209.64 608 168 566.36 168 515c0-51.364 41.64-93 93-93h185l60.344 60.344a8 8 0 0 0 11.312 0L578 422h184c91.68 0 166-74.32 166-166s-74.32-166-166-166H672V-8a8 8 0 0 0-8-8H120a8 8 0 0 0-8 8v264a8 8 0 0 0 8 8h544a8 8 0 0 0 8-8v-94h90c51.916 0 94 42.084 94 94s-42.084 94-94 94h-176.684l-67.66-67.66a8 8 0 0 0-11.312 0L438.684 350H261C169.872 350 96 423.872 96 515S169.872 680 261 680H352V776zM184 56h416v136H184v-136z"  horiz-adv-x="1024" />
      
      <glyph glyph-name="shuxing5" unicode="&#59915;" d="M128 784a16 16 0 0 1-16-16v-768a16 16 0 0 1 16-16h264a16 16 0 0 1 16 16V596h66.948a8 8 0 0 0 8-8v-476a16 16 0 0 1 16-16H616v-96a16 16 0 0 1 16-16h264a16 16 0 0 1 16 16V768a16 16 0 0 1-16 16h-264a16 16 0 0 1-16-16v-616h-69.052a8 8 0 0 0-8 8V636a16 16 0 0 1-16 16H408V768a16 16 0 0 1-16 16H128z m48-64h168v-672H176V720z m672-672h-168V720h168v-672z"  horiz-adv-x="1024" />
      
      <glyph glyph-name="bianliang1" unicode="&#59916;" d="M420.596 595.968A9.84 9.84 0 0 1 412.64 600H337.832c-7.82 0-12.5-8.616-8.192-15.084l134.06-201.336-131.976-196.464c-4.344-6.464 0.332-15.116 8.168-15.116h75.592c3.136 0 6.084 1.488 7.932 4l88.192 128.036L599.796 176c1.848-2.512 4.796-4 7.936-4h75.588c7.836 0 12.512 8.652 8.172 15.116l-131.976 196.464 134.832 201.312C698.676 591.36 694 600 686.168 600h-75.596a9.84 9.84 0 0 1-7.956-4.032l-91.008-132.84-91.012 132.84zM150.668 128v149.868a63.992 63.992 0 0 1-64 64h-21.336v84.264h21.336a64.008 64.008 0 0 1 64 64V640a128 128 0 0 0 128 128h42.664v-69.332H262.672A42.664 42.664 0 0 1 220 656v-190.932A85.34 85.34 0 0 0 161.376 384 85.34 85.34 0 0 0 220 302.932V112a42.66 42.66 0 0 1 42.668-42.668h58.664V0H278.672a127.988 127.988 0 0 0-128 128z m722.668 149.868V128a128 128 0 0 0-128.004-128h-42.664v69.332h58.664A42.66 42.66 0 0 1 804 112v190.932A85.332 85.332 0 0 0 862.624 384 85.328 85.328 0 0 0 804 465.068V656a42.672 42.672 0 0 1-42.668 42.668h-58.664V768h42.664a128 128 0 0 0 128.004-128v-149.868a63.992 63.992 0 0 1 64-64h21.332v-84.264h-21.332a63.992 63.992 0 0 1-64-64z"  horiz-adv-x="1024" />
      
      <glyph glyph-name="tiaoyongluoji" unicode="&#59914;" d="M101.488 565.492A127.992 127.992 0 0 1 156 533.168v-369.98C156 64.224 236.224-16 335.188-16c98.964 0 179.188 80.224 179.188 179.188v438c0 61.2 49.612 110.812 110.812 110.812C686.388 712 736 662.388 736 601.188V212h-115.356c-13.304 0-20.796-15.288-12.648-25.8l153.356-197.88a16 16 0 0 1 25.296 0l153.356 197.88c8.148 10.512 0.656 25.8-12.648 25.8H808V601.188C808 702.152 726.152 784 625.188 784c-100.964 0-182.812-81.848-182.812-182.812v-438c0-59.2-47.992-107.188-107.188-107.188C275.988 56 228 103.988 228 163.188V533.168A127.988 127.988 0 0 1 320 656a128 128 0 1 1-218.508-90.508zM192 588a68 68 0 1 0 0 136 68 68 0 0 0 0-136z"  horiz-adv-x="1024" />
      
      <glyph glyph-name="a-Property1bingji1" unicode="&#59912;" d="M352 224H136a24 24 0 0 0-24 24V760a24 24 0 0 0 24 24h512a24 24 0 0 0 24-24v-216h216a24 24 0 0 0 24-24v-512a24 24 0 0 0-24-24H376a24 24 0 0 0-24 24v216z m256 496H176v-432h240v-240h432V480h-240V720z"  horiz-adv-x="1024" />
      
      <glyph glyph-name="a-Property1jiaoji1" unicode="&#59913;" d="M608 288H176V720h432v-432z m64 472a24 24 0 0 1-24 24H136a24 24 0 0 1-24-24v-512a24 24 0 0 1 24-24h512a24 24 0 0 1 24 24V760zM608 288h-192v192h192v-192z m64 232v24H376a24 24 0 0 1-24-24v-296h296a24 24 0 0 1 24 24V520zM848 48H416V480h432v-432z m64 472a24 24 0 0 1-24 24H376a24 24 0 0 1-24-24v-512a24 24 0 0 1 24-24h512a24 24 0 0 1 24 24V520z"  horiz-adv-x="1024" />
      
      <glyph glyph-name="a-fuhaodengyu" unicode="&#59911;" d="M192.76 504c0 4.42 3.6 8 8.032 8h626.476c4.436 0 8.032-3.58 8.032-8v-64c0-4.42-3.596-8-8.032-8H200.792a8.016 8.016 0 0 0-8.032 8V504zM192.76 328c0 4.42 3.6 8 8.032 8h626.476c4.436 0 8.032-3.58 8.032-8v-64c0-4.42-3.596-8-8.032-8H200.792a8.016 8.016 0 0 0-8.032 8v64z"  horiz-adv-x="1032" />
      
      <glyph glyph-name="others" unicode="&#59907;" d="M296 784a184 184 0 1 1 0-368h176a8 8 0 0 1 8 8V600a183.992 183.992 0 0 1-184 184z m0-304a119.984 119.984 0 0 0-110.864 74.08A120 120 0 1 0 416 600v-120H296zM858.108 730.108A184 184 0 0 1 544 600v-176a8 8 0 0 1 8-8h176a184 184 0 0 1 130.108 314.108z m-63.44-229.884A119.984 119.984 0 0 0 728 480h-120V600a119.984 119.984 0 0 0 74.076 110.864 120.008 120.008 0 0 0 163.62-87.452 120.008 120.008 0 0 0-51.028-123.188zM858.108 37.89200000000005A184 184 0 0 0 544 168v176a8 8 0 0 0 8 8h176a184 184 0 0 0 130.108-314.108z m-63.44 229.884A119.98 119.98 0 0 1 728 288h-120v-120a119.98 119.98 0 0 1 74.076-110.864 120 120 0 0 1 156.788 156.788 119.968 119.968 0 0 1-44.196 53.852zM165.892 37.89200000000005A183.992 183.992 0 0 1 480 168v176a8 8 0 0 1-8 8H296a183.992 183.992 0 0 1-130.108-314.108z m63.44 229.884A119.984 119.984 0 0 0 296 288h120v-120a119.984 119.984 0 0 0-74.08-110.864 120.008 120.008 0 0 0-130.772 26.012 119.988 119.988 0 0 0 18.184 184.628z"  horiz-adv-x="1024" />
      
      <glyph glyph-name="flow" unicode="&#59908;" d="M90.664 112c0-82.472 66.86-149.332 149.332-149.332 67.628 0 124.8 44.972 143.148 106.668h272.852V8a24 24 0 0 1 24-24h208a24 24 0 0 1 24 24v208a24 24 0 0 1-24 24h-69.332V509.72l129.388 129.312a24 24 0 0 1 0.008 33.944l-147.088 147.124a24 24 0 0 1-33.948 0L638.96 692H368V760a24 24 0 0 1-24 24H136a24 24 0 0 1-24-24v-208a24 24 0 0 1 24-24h208a24 24 0 0 1 24 24V621.336l270.96-1.336 110.372-110.324V240h-69.336a24 24 0 0 1-24-24v-61.332H383.144c-18.388 61.696-75.52 106.668-143.148 106.668-82.472 0-149.332-66.86-149.332-149.336z m630.668 62.668h125.332v-125.332h-125.332v125.332zM715.668 656l68.328 68.332L852.328 656l-68.332-68.328L715.668 656zM177.332 718.668h125.332v-125.332H177.332V718.668zM240 188c41.952 0 76-34.048 76-76s-34.048-76-76-76-76 34.048-76 76 34.048 76 76 76z"  horiz-adv-x="1024" />
      
      <glyph glyph-name="character" unicode="&#59909;" d="M185.332 256v-198.668H384V-16H136a24 24 0 0 0-24 24v248h73.332zM916 256v-248a24 24 0 0 0-24-24h-252v73.332h202.668V256H916zM384 784v-73.332H185.332V512H112V760a24 24 0 0 0 24 24h248z m508 0a24 24 0 0 0 24-24v-248h-73.332V710.668H640V784h252zM476.856 632a8 8 0 0 1-7.444-5.072l-188.848-480A8 8 0 0 1 288 136h44.424a16 16 0 0 1 14.804 9.924l57.74 140.696h221.864l57.74-140.696a16 16 0 0 1 14.8-9.924h45.144a8 8 0 0 1 7.444 10.928l-188.848 480A8.004 8.004 0 0 1 555.668 632h-78.812z m-51.26-280l89.588 211.968h2.88l90.056-212-182.524 0.032z"  horiz-adv-x="1024" />
      
      <glyph glyph-name="database" unicode="&#59910;" d="M883.976 607.408C881.628 705.1279999999999 715.988 784 512 784S142.372 705.1279999999999 140.024 607.408H140V164.79999999999995c0-32.648 15.64-60.512 37.232-82.34 21.44-21.672 50.588-39.452 83.612-53.572C327.032 0.5879999999999654 415.856-16 512-16s184.968 16.588 251.156 44.884c33.024 14.12 62.168 31.9 83.612 53.572 21.596 21.828 37.232 49.692 37.232 82.34V607.408h-0.024z m-141.352-60.16C687.492 520.76 606.044 502.296 512 502.296c-94.044 0-175.492 18.468-230.624 44.952C220.704 576.392 215.24 601.908 215.24 605.308c0 3.4 5.468 28.916 66.14 58.06C336.508 689.848 417.96 708.3199999999999 512 708.3199999999999c94.044 0 175.492-18.472 230.624-44.952 60.672-29.144 66.14-54.664 66.14-58.06 0-3.4-5.468-28.92-66.14-58.06z m66.14-49.708v-107.336c0-6.828-3.076-16.572-15.324-28.952-12.396-12.532-32.224-25.552-59.712-37.304-54.832-23.444-133.2-38.856-221.728-38.856-88.528 0-166.896 15.412-221.732 38.856-27.484 11.752-47.312 24.772-59.708 37.304-12.248 12.38-15.324 22.124-15.324 28.952V497.54c67.92-43.088 175.576-70.928 296.764-70.928 121.192 0 228.844 27.84 296.764 70.928z m0-219.636v-113.108c0-6.828-3.076-16.572-15.324-28.952-12.396-12.532-32.224-25.556-59.712-37.308-54.832-23.44-133.2-38.856-221.728-38.856-88.528 0-166.896 15.416-221.732 38.856-27.484 11.752-47.312 24.776-59.708 37.308-12.248 12.38-15.324 22.124-15.324 28.952v113.108c13.952-8.78 29.304-16.64 45.608-23.608 66.188-28.3 155.012-44.888 251.156-44.888s184.968 16.588 251.156 44.888c16.304 6.968 31.656 14.828 45.608 23.608z"  horiz-adv-x="1024" />
      
      <glyph glyph-name="a-tishijinggaofenggexianxing" unicode="&#59906;" d="M880 384c0-203.24-164.76-368-368-368s-368 164.76-368 368 164.76 368 368 368 368-164.76 368-368z m80 0c0 247.424-200.576 448-448 448S64 631.424 64 384s200.576-448 448-448 448 200.576 448 448zM560 648a16 16 0 0 1-16 16h-64a16 16 0 0 1-16-16v-288a16 16 0 0 1 16-16h64a16 16 0 0 1 16 16V648z m16-480c0 35.348-28.652 64-64 64s-64-28.652-64-64 28.652-64 64-64 64 28.652 64 64z"  horiz-adv-x="1024" />
      
      <glyph glyph-name="Kafka" unicode="&#59905;" d="M512-128c282.784 0 512 229.216 512 512S794.784 896 512 896 0 666.784 0 384s229.216-512 512-512z m-77.728 696.512v-57.792c31.68-4.544 59.552-20.64 79.328-43.872l52.096 28.288a100.576 100.576 0 1 0 15.776-33.056l-48.384-26.272c7.04-15.84 10.912-33.376 10.912-51.808 0-15.968-2.912-31.232-8.256-45.312l49.344-28.064a100.576 100.576 0 1 0-17.696-32l-49.376 28.064a127.904 127.904 0 0 0-83.744-49.376v-57.824a100.608 100.608 0 1 0-36.576 0V257.28a128 128 0 0 0 0 253.408v57.792a100.608 100.608 0 1 0 36.576 0z"  horiz-adv-x="1024" />
      
      <glyph glyph-name="danse" unicode="&#59904;" d="M160 780a16 16 0 0 1-16-16v-768a16 16 0 0 1 16-16h704a16 16 0 0 1 16 16V569.192a16.004 16.004 0 0 1-4.792 11.42L676.76 775.416A16.012 16.012 0 0 1 665.548 780H160z m464-64v-164a16 16 0 0 1 16-16h176v-492H208V716h416zM288 428a8 8 0 0 0 8 8h264a8 8 0 0 0 8-8v-56a8 8 0 0 0-8-8H296a8 8 0 0 0-8 8v56zM288 244a8 8 0 0 0 8 8h432a8 8 0 0 0 8-8v-56a8 8 0 0 0-8-8H296a8 8 0 0 0-8 8v56z"  horiz-adv-x="1024" />
      
      <glyph glyph-name="zujian" unicode="&#59900;" d="M184 572h656V710.668L184 712v-140z m416-516V500H184v-444h416z m72 0h168V500h-168v-444zM112 760a24 24 0 0 0 24 24h752a24 24 0 0 0 24-24v-752a24 24 0 0 0-24-24H136a24 24 0 0 0-24 24V760z"  horiz-adv-x="1024" />
      
      <glyph glyph-name="kongjian" unicode="&#59901;" d="M554.668 426.668h128L469.332 128v213.332h-128L554.668 640v-213.332zM960 384c0 247.424-200.576 448-448 448S64 631.424 64 384s200.576-448 448-448 448 200.576 448 448z m-72 0c0-207.66-168.34-376-376-376s-376 168.34-376 376 168.34 376 376 376 376-168.34 376-376z"  horiz-adv-x="1024" />
      
      <glyph glyph-name="shujuzhanshi1" unicode="&#59902;" d="M112 760a24 24 0 0 0 24 24h752a24 24 0 0 0 24-24v-752.004a24 24 0 0 0-24-24L136-16a24 24 0 0 0-24 24V760z m72-48v-656.004h656v656H184z m112-370.668h80V160H296v181.332z m176 256h80V160h-80V597.332z m176-128h80V160h-80v309.332z"  horiz-adv-x="1024" />
      
      <glyph glyph-name="tongyong" unicode="&#59903;" d="M65.112 400.972a24 24 0 0 1 0-33.944l182.672-182.668 50.908 50.96-148.764 148.676 148.72 148.68-50.872 50.96-182.664-182.664zM495.04-62.908000000000015a24.004 24.004 0 0 1 33.944 0l182.66 182.668-50.912 50.92-148.7-148.7-148.7 148.7-50.952-50.916 182.66-182.672zM528.976 830.892a24 24 0 0 1-33.944 0L312.372 648.232l50.92-50.92 148.7 148.72 148.72-148.72 50.928 50.916-182.664 182.664zM958.904 367.02a24.004 24.004 0 0 1 0 33.944L776.24 583.6279999999999 725.352 532.6800000000001l148.724-148.636-148.704-148.72 50.868-50.964 182.664 182.664zM620 383.996a108.012 108.012 0 0 0-108-108 108.012 108.012 0 0 0-108 108 108.004 108.004 0 0 0 216 0z"  horiz-adv-x="1024" />
      
      <glyph glyph-name="yishezhi" unicode="&#59897;" d="M407.348 279.348a148 148 0 1 1 209.304 209.3 148 148 0 0 1-209.304-209.3z m158.392 50.912a76 76 0 1 0-107.48 107.484 76 76 0 0 0 107.48-107.484zM81.804 257.928A448.504 448.504 0 0 1 123.84 160.04a448.72 448.72 0 0 1 63.804-85.324c2.628-2.76 6.836-3.192 10.124-1.276a134.54 134.54 0 0 0 134.952 0.332 134.32 134.32 0 0 0 67.276-116.916c-0.012-3.804 2.46-7.224 6.156-8.124A447.904 447.904 0 0 1 540-63.136v80.152a380.28 380.28 0 0 0-63.06 0.628c-17.912 53.76-55.368 99.124-105.184 127.392-49.776 28.308-108.424 37.544-164.696 25.94A372.352 372.352 0 0 0 172 230.668c37.54 41.256 59.512 95.384 59.512 153.332 0.04 56.576-21.152 111.176-59.512 153.332a366.012 366.012 0 0 0 34.968 59.692c56.308-11.612 114.992-2.36 164.788 25.984 49.832 28.26 87.308 73.624 105.228 127.392a379.44 379.44 0 0 0 70.076-0.044c17.912-53.76 55.368-99.124 105.184-127.392 49.78-28.304 108.424-37.544 164.696-25.94A372.212 372.212 0 0 0 852 537.332c-37.54-41.256-59.512-95.384-59.512-153.332a226.496 226.496 0 0 1 21.3-96h97.08a134.328 134.328 0 0 0-40.376 96.048 134.264 134.264 0 0 0 19.856 70.224 134.416 134.416 0 0 0 47.892 46.396c3.304 1.888 5.036 5.748 3.96 9.4a446.68 446.68 0 0 1-42.036 97.892 447.8 447.8 0 0 1-63.804 85.332c-2.628 2.752-6.832 3.184-10.12 1.268a134.548 134.548 0 0 0-134.956-0.332 134.412 134.412 0 0 0-50.976 52.264 134.284 134.284 0 0 0-16.3 64.652c0.012 3.8-2.46 7.224-6.156 8.124a448.064 448.064 0 0 1-211.74 0.088c-3.7-0.896-6.176-4.32-6.16-8.128a134.308 134.308 0 0 0-16.272-64.656A134.42 134.42 0 0 0 332.72 694.284a134.54 134.54 0 0 0-134.968 0.28c-3.284 1.916-7.488 1.48-10.112-1.268a447.4 447.4 0 0 1-105.764-183.28c-1.068-3.652 0.66-7.504 3.96-9.392a134.42 134.42 0 0 0 47.868-46.436 134.308 134.308 0 0 0-47.94-186.852c-3.312-1.888-5.04-5.752-3.96-9.408zM662.992-22.416l-0.104 0.108-118.688 118.684a8 8 0 0 0 0 11.316l39.6 39.596a8 8 0 0 0 11.312 0l113.136-113.136 197.992 197.992a8 8 0 0 0 11.312 0l39.596-39.6a7.992 7.992 0 0 0 0-11.312l-203.516-203.52-0.128-0.128-39.596-39.6a7.988 7.988 0 0 0-11.316 0l-39.6 39.6z"  horiz-adv-x="1024" />
      
      <glyph glyph-name="padduan" unicode="&#59898;" d="M164 784a16 16 0 0 1-16-16v-768a16 16 0 0 1 16-16h692a16 16 0 0 1 16 16V768a16 16 0 0 1-16 16H164z m56-728V712h580v-656H220zM580 178c0-38.66-31.34-70-70-70s-70 31.34-70 70 31.34 70 70 70 70-31.34 70-70z"  horiz-adv-x="1024" />
      
      <glyph glyph-name="webduan" unicode="&#59899;" d="M896 784a16 16 0 0 0 16-16v-624a16 16 0 0 0-16-16h-352v-80h152a8 8 0 0 0 8-8v-48a8 8 0 0 0-8-8H324a8 8 0 0 0-8 8v48a8 8 0 0 0 8 8h156v80H128a16 16 0 0 0-16 16V768a16 16 0 0 0 16 16h768z m-56-584V712H184v-512h656z"  horiz-adv-x="1024" />
      
      <glyph glyph-name="tongyongpeizhi1" unicode="&#59896;" d="M332 784a16 16 0 0 1-16-16v-156H208a16 16 0 0 1-16-16v-292H96a16 16 0 0 1-16-16v-288a16 16 0 0 1 16-16h356a16 16 0 0 1 16 16v288a16 16 0 0 1-16 16H264V540h52v-132a16 16 0 0 1 16-16h360a16 16 0 0 1 16 16V540h52v-236h-188a16 16 0 0 1-16-16v-288a16 16 0 0 1 16-16h356a16 16 0 0 1 16 16v288a16 16 0 0 1-16 16h-96V596a16 16 0 0 1-16 16h-108V768a16 16 0 0 1-16 16H332z"  horiz-adv-x="1024" />
      
      <glyph glyph-name="shuju-shidi" unicode="&#59894;" d="M797.984 585.34c-68.364-32.66-169.368-55.44-285.984-55.44-116.616 0-217.62 22.78-285.984 55.44C150.776 621.288 144 652.76 144 656.952c0 4.188 6.78 35.66 82.016 71.608C294.38 761.22 395.384 784 512 784c116.616 0 217.62-22.78 285.984-55.44C873.22 692.612 880 661.14 880 656.952c0-4.192-6.78-35.664-82.016-71.612zM880 524.04v-132.384c0-8.42-3.816-20.44-19-35.708-15.376-15.456-39.96-31.516-74.044-46.012-67.996-28.912-165.176-47.924-274.956-47.924-109.78 0-206.96 19.012-274.956 47.924-34.084 14.496-58.668 30.556-74.04 46.012-15.188 15.268-19.004 27.288-19.004 35.708V524.036c84.224-53.144 217.72-87.48 368-87.48s283.776 34.336 368 87.48z m0-270.888v-139.504c0-8.424-3.816-20.444-19-35.708-15.376-15.456-39.96-31.52-74.044-46.012C718.96 3.012 621.78-16 512-16c-109.78 0-206.96 19.012-274.956 47.924-34.084 14.492-58.668 30.556-74.04 46.012C147.812 93.2 144 105.22 144 113.644v139.504c17.3-10.832 36.34-20.528 56.552-29.12 82.08-34.904 192.224-55.36 311.448-55.36 119.224 0 229.368 20.456 311.448 55.36 20.212 8.592 39.252 18.288 56.552 29.12z"  horiz-adv-x="1024" />
      
      <glyph glyph-name="shitu" unicode="&#59895;" d="M184 712h656v-168H184V712z m0-656V472h656v-65.896c26.92-15.284 50.892-32.512 72-50.296V768a16 16 0 0 1-16 16H128a16 16 0 0 1-16-16v-768a16 16 0 0 1 16-16h224.952a504.42 504.42 0 0 0-55.864 47.152A536.824 536.824 0 0 0 273.196 56H184z m754.096 140.516L944 184l-5.904-12.516-0.016-0.028-0.032-0.072-0.096-0.196-0.132-0.272-0.156-0.324a229.508 229.508 0 0 0-4.576-8.732 353.464 353.464 0 0 0-13.952-23.088 418.16 418.16 0 0 0-56.796-69.08C810.836 19.316 730.48-32 618-32c-112.48 0-192.836 51.316-244.34 101.692a418.18 418.18 0 0 0-56.796 69.08 354.268 354.268 0 0 0-13.952 23.088 232.84 232.84 0 0 0-4.576 8.732l-0.288 0.596-0.096 0.196-0.032 0.072-0.016 0.028L292 184l5.904 12.516 0.016 0.028 0.032 0.072 0.096 0.196 0.288 0.596a232.84 232.84 0 0 0 4.576 8.732 354.268 354.268 0 0 0 13.952 23.088 418.18 418.18 0 0 0 56.796 69.08C425.164 348.684 505.52 400 618 400c112.48 0 192.836-51.316 244.34-101.692a418.16 418.16 0 0 0 56.796-69.08 353.464 353.464 0 0 0 13.952-23.088 229.508 229.508 0 0 0 4.576-8.732l0.116-0.24 0.064-0.132 0.108-0.224 0.096-0.196 0.032-0.072 0.016-0.028z m-320.284 130.512c-78.724 0-142.54-64.036-142.54-143.028 0-78.992 63.816-143.028 142.54-143.028 78.728 0 142.544 64.036 142.544 143.028 0 78.992-63.816 143.028-142.544 143.028z m0-55.46c-48.196 0-87.268-39.204-87.268-87.568s39.072-87.568 87.268-87.568c48.2 0 87.272 39.204 87.272 87.568s-39.072 87.568-87.272 87.568z"  horiz-adv-x="1024" />
      
      <glyph glyph-name="shujufuwu" unicode="&#59893;" d="M112 768a16 16 0 0 0 16 16h676l-0.016-0.044c-88.012-1.972-160.08-68.548-170.648-154.176l-55.292-31.92A231.452 231.452 0 0 1 488 616c-48.292 0-93.136-14.756-130.272-40H128a16 16 0 0 0-16 16V768z m144-384c0 37.392 8.848 72.72 24.56 104H128a16 16 0 0 1-16-16v-176a16 16 0 0 1 16-16h152.56c-15.712 31.28-24.56 66.608-24.56 104z m232-232c-48.292 0-93.136 14.752-130.272 40H128a16 16 0 0 1-16-16v-176a16 16 0 0 1 16-16h676l-0.016 0.044c-88.108 1.972-160.236 68.692-170.684 154.452l-55 31.756A231.396 231.396 0 0 0 488 152zM184 704v-48a8 8 0 0 1 8-8h220a8 8 0 0 1 8 8V704a8 8 0 0 1-8 8H192a8 8 0 0 1-8-8z m304 8a8 8 0 0 1-8-8v-48a8 8 0 0 1 8-8h60a8 8 0 0 1 8 8V704a8 8 0 0 1-8 8h-60zM192 120h220a8 8 0 0 0 8-8v-48a8 8 0 0 0-8-8H192a8 8 0 0 0-8 8v48a8 8 0 0 0 8 8z m288-8a8 8 0 0 0 8 8h60a8 8 0 0 0 8-8v-48a8 8 0 0 0-8-8h-60a8 8 0 0 0-8 8v48z m328 392c57.436 0 104 46.56 104 104s-46.564 104-104 104-104-46.56-104-104c0-6.668 0.628-13.188 1.828-19.504l-126.556-73.064A159.252 159.252 0 0 1 488 544c-88.364 0-160-71.636-160-160s71.636-160 160-160a159.268 159.268 0 0 1 91.476 28.712l126.396-72.976A104.488 104.488 0 0 1 704 160c0-57.436 46.564-104 104-104s104 46.564 104 104-46.564 104-104 104a103.5 103.5 0 0 1-57.76-17.504l-118.016 68.136A159.432 159.432 0 0 1 648 384a159.372 159.372 0 0 1-15.876 69.568l117.908 68.072A103.52 103.52 0 0 1 808 504z"  horiz-adv-x="1024" />
      
      <glyph glyph-name="jinyong" unicode="&#59892;" d="M512-64c247.424 0 448 200.576 448 448S759.424 832 512 832 64 631.424 64 384s200.576-448 448-448zM296 432h432a8 8 0 0 0 8-8v-80a8 8 0 0 0-8-8H296a8 8 0 0 0-8 8v80a8 8 0 0 0 8 8z"  horiz-adv-x="1024" />
      
      <glyph glyph-name="a-qushishangshengxiajiangqushifangxiangshangshengshidizhijiantou" unicode="&#59889;" d="M476 649.8240000000001l-312.232-312.232a8 8 0 0 0-11.316 0l-39.6 39.6a8 8 0 0 0 0 11.312l393.156 393.152a8 8 0 0 0 11.312 0l393.152-393.152a8 8 0 0 0 0-11.312l-39.6-39.6a8 8 0 0 0-11.312 0L548 649.152V-8a8 8 0 0 0-8-8h-56a8 8 0 0 0-8 8V649.828z"  horiz-adv-x="1024" />
      
      <glyph glyph-name="a-qushishangshengxiajiangqushifangxiangxiangxiashidizhijiantou" unicode="&#59890;" d="M476 118.17200000000003l-312.232 312.236a8 8 0 0 1-11.316 0l-39.6-39.6a8 8 0 0 1 0-11.312l393.156-393.152a8 8 0 0 1 11.312 0l393.152 393.152a8 8 0 0 1 0 11.312l-39.6 39.6a8 8 0 0 1-11.312 0L548 118.84400000000005V776a8 8 0 0 1-8 8h-56a8 8 0 0 1-8-8v-657.828z"  horiz-adv-x="1024" />
      
      <glyph glyph-name="API" unicode="&#59891;" d="M176 744v-176h672V744H176z m736-176h24a16 16 0 0 0 16-16v-576a16 16 0 0 0-16-16H88a16 16 0 0 0-16 16V552a16 16 0 0 0 16 16h24V792a16 16 0 0 0 16 16h768a16 16 0 0 0 16-16v-224zM136 24h752V504H136v-480zM304 656c0-22.092-17.908-40-40-40s-40 17.908-40 40 17.908 40 40 40 40-17.908 40-40z m104-40c22.092 0 40 17.908 40 40s-17.908 40-40 40-40-17.908-40-40 17.908-40 40-40z m184 40c0-22.092-17.908-40-40-40s-40 17.908-40 40 17.908 40 40 40 40-17.908 40-40zM204.292 113.49199999999996A7.44 7.44 0 0 1 211.448 104h34.2c3.32 0 6.24 2.2 7.156 5.392l25.16 87.744h96.68l25.16-87.744A7.44 7.44 0 0 1 406.96 104h34.204a7.44 7.44 0 0 1 7.152 9.492l-87.492 305.116A7.44 7.44 0 0 1 353.672 424H298.936c-3.32 0-6.24-2.2-7.152-5.392l-87.492-305.116z m122.012 252.232l34.648-120.828H291.66l34.644 120.828z m398.092 13.624h-24.22a7.44 7.44 0 0 0-7.444 7.444v29.768a7.44 7.44 0 0 0 7.444 7.44h96.744a7.44 7.44 0 0 0 7.44-7.44v-29.768a7.44 7.44 0 0 0-7.44-7.444h-24.764v-230.696h24.764a7.44 7.44 0 0 0 7.44-7.444v-29.768a7.44 7.44 0 0 0-7.44-7.44H700.176a7.44 7.44 0 0 0-7.444 7.44v29.768a7.44 7.44 0 0 0 7.444 7.444h24.22v230.696z m-207.6-65.2v-64.476h69.252c22.42 0 40.596 18.176 40.596 40.596V335.64c0 22.424-18.176 40.6-40.596 40.6h-69.252v-62.092z m-47.764 0v81.196a28.66 28.66 0 0 0 28.66 28.656h88.356c48.8 0 88.36-39.56 88.36-88.36v-45.372c0-48.8-39.56-88.356-88.36-88.356h-69.252v-90.472a7.44 7.44 0 0 0-7.444-7.44h-32.876a7.44 7.44 0 0 0-7.444 7.44v202.708z"  horiz-adv-x="1024" />
      
      <glyph glyph-name="zhongduan" unicode="&#59888;" d="M352 704a160 160 0 1 1 0-320 160 160 0 0 1 0 320z m0-240a80 80 0 1 0 0 160 80 80 0 0 0 0-160zM832 832a128 128 0 0 0 128-128v-640a128 128 0 0 0-128-128H192a128 128 0 0 0-128 128V704a128 128 0 0 0 128 128h640z m0-64H192a64 64 0 0 1-63.552-56.512L128 704v-640a64 64 0 0 1 56.512-63.552L192 0h640a64 64 0 0 1 63.552 56.512L896 64V704a64 64 0 0 1-56.512 63.552L832 768zM795.136 128H548.864c-20.288 0-36.864-14.4-36.864-32s16.576-32 36.864-32h246.272c20.288 0 36.864 14.4 36.864 32s-16.576 32-36.864 32z"  horiz-adv-x="1024" />
      
      <glyph glyph-name="shujufenfa" unicode="&#59887;" d="M328 424c79.528 0 144 64.472 144 144s-64.472 144-144 144-144-64.472-144-144 64.472-144 144-144z m220.44 104a222.9 222.9 0 0 0-41.332-94.54l183.808-183.808A143.324 143.324 0 0 0 768 272c79.528 0 144-64.472 144-144s-64.472-144-144-144-144 64.472-144 144a143.464 143.464 0 0 0 13.812 61.62l-189.44 189.44A222.62 222.62 0 0 0 368 347.55999999999995v-89.188c60.068-17.332 104-72.724 104-138.372 0-79.528-64.472-144-144-144s-144 64.472-144 144c0 65.648 43.932 121.04 104 138.372V347.55999999999995C183.372 366.41999999999996 104 457.94 104 568c0 123.712 100.288 224 224 224 110.06 0 201.58-79.372 220.44-184h89.188C654.96 668.068 710.352 712 776 712c79.528 0 144-64.472 144-144s-64.472-144-144-144c-65.648 0-121.04 43.932-138.372 104H548.44zM768 64c35.348 0 64 28.652 64 64s-28.652 64-64 64-64-28.652-64-64 28.652-64 64-64z m-376 56c0 35.348-28.652 64-64 64s-64-28.652-64-64 28.652-64 64-64 64 28.652 64 64z m384 384c35.348 0 64 28.652 64 64s-28.652 64-64 64-64-28.652-64-64 28.652-64 64-64z"  horiz-adv-x="1024" />
      
      <glyph glyph-name="a-Property1zhankai" unicode="&#59885;" d="M128 784a16 16 0 0 1-16-16v-328a16 16 0 0 1 16-16h328a16 16 0 0 1 16 16V768a16 16 0 0 1-16 16H128z m56-288V712h216v-216H184zM128 344a16 16 0 0 1-16-16v-328a16 16 0 0 1 16-16h328a16 16 0 0 1 16 16v328a16 16 0 0 1-16 16H128z m56-288v216h216v-216H184zM544 712.8c0 3.976 1.432 7.2 3.2 7.2h249.6c1.768 0 3.2-3.224 3.2-7.2v-57.6c0-3.976-1.432-7.2-3.2-7.2h-249.6c-1.768 0-3.2 3.224-3.2 7.2V712.8zM548.6 552c-2.54 0-4.6-3.224-4.6-7.2v-57.6c0-3.976 2.06-7.2 4.6-7.2h358.8c2.54 0 4.6 3.224 4.6 7.2V544.8c0 3.976-2.06 7.2-4.6 7.2h-358.8zM889.464 272h-314.928c-18.536 0-29.12-21.164-17.996-35.992l157.464-209.952c9-11.996 26.992-11.996 35.992 0l157.464 209.952c11.124 14.828 0.54 35.992-17.996 35.992z"  horiz-adv-x="1024" />
      
      <glyph glyph-name="a-Property1shouqi" unicode="&#59886;" d="M112 768a16 16 0 0 0 16 16h328a16 16 0 0 0 16-16v-328a16 16 0 0 0-16-16H128a16 16 0 0 0-16 16V768z m72-56v-216h216V712H184zM112 328a16 16 0 0 0 16 16h328a16 16 0 0 0 16-16v-328a16 16 0 0 0-16-16H128a16 16 0 0 0-16 16v328z m72-56v-216h216v216H184zM544 712.8c0 3.976 1.432 7.2 3.2 7.2h249.6c1.768 0 3.2-3.224 3.2-7.2v-57.6c0-3.976-1.432-7.2-3.2-7.2h-249.6c-1.768 0-3.2 3.224-3.2 7.2V712.8zM544 544.8c0 3.976 2.06 7.2 4.6 7.2h358.8c2.54 0 4.6-3.224 4.6-7.2v-57.6c0-3.976-2.06-7.2-4.6-7.2h-358.8c-2.54 0-4.6 3.224-4.6 7.2V544.8zM632 6.536v314.928c0 18.536 21.164 29.12 35.992 17.996l209.952-157.464c11.996-9 11.996-26.992 0-35.992l-209.952-157.464c-14.828-11.124-35.992-0.54-35.992 17.996z"  horiz-adv-x="1024" />
      
      <glyph glyph-name="a-Property1zishuzu" unicode="&#59881;" d="M216 752h-24a16 16 0 0 1-16-16v-704a16 16 0 0 1 16-16h176a8 8 0 0 1 8 8v64a8 8 0 0 1-8 8H256V672h112a8 8 0 0 1 8 8V744a8 8 0 0 1-8 8H216z m592 0h24a16 16 0 0 0 16-16v-704a16 16 0 0 0-16-16h-176a8 8 0 0 0-8 8v64a8 8 0 0 0 8 8h112V672h-112a8 8 0 0 0-8 8V744a8 8 0 0 0 8 8h152z"  horiz-adv-x="1024" />
      
      <glyph glyph-name="a-Property1buerxing" unicode="&#59882;" d="M334.94 720a8 8 0 0 1-7.92-6.868l-93.716-656a8 8 0 0 1 7.92-9.132H622c102.724 0 186 83.276 186 186 0 59.796-28.216 113-72.06 147.028C779.84 415.828 808 469.628 808 530c0 104.936-85.064 190-190 190H334.94z m61.632-80H618c60.752 0 110-49.248 110-110S678.752 420 618 420H365.144l31.428 220z m-42.856-300H622c58.544 0 106-47.456 106-106S680.544 128 622 128H323.428l30.288 212z"  horiz-adv-x="1024" />
      
      <glyph glyph-name="a-Property1ziduan" unicode="&#59883;" d="M256 96V672h216v-576H256z m296 0V672h216v-576h-216zM176 720v-672a32 32 0 0 1 32-32h608a32 32 0 0 1 32 32V720a32 32 0 0 1-32 32H208a32 32 0 0 1-32-32z"  horiz-adv-x="1024" />
      
      <glyph glyph-name="a-Property1ziduixiang" unicode="&#59884;" d="M316 752c-66.276 0-120-53.724-120-120v-172.312l-65.648-70.224a8 8 0 0 1 0-10.928L196 308.312V136c0-66.276 53.724-120 120-120h72a8 8 0 0 1 8 8v64a8 8 0 0 1-8 8H316c-22.092 0-40 17.908-40 40v203.88L234.756 384 276 428.12V632c0 22.092 17.908 40 40 40h72a8 8 0 0 1 8 8V744a8 8 0 0 1-8 8H316z m392 0c66.276 0 120-53.724 120-120v-172.312l65.648-70.224a8 8 0 0 0 0-10.928L828 308.312V136c0-66.276-53.724-120-120-120h-72a8 8 0 0 0-8 8v64a8 8 0 0 0 8 8h72c22.092 0 40 17.908 40 40v203.88L789.244 384 748 428.12V632c0 22.092-17.908 40-40 40h-72a8 8 0 0 0-8 8V744a8 8 0 0 0 8 8h72z"  horiz-adv-x="1024" />
      
      <glyph glyph-name="beizhu1" unicode="&#59880;" d="M832 832a64 64 0 0 0 64-64v-320a32 32 0 0 0-64 0V768H128v-768h352a32 32 0 0 0 0-64H128a64 64 0 0 0-64 64V768a64 64 0 0 0 64 64h704z m-448-576a32 32 0 0 0 0-64H256a32 32 0 0 0 0 64h128z m128 192a32 32 0 0 0 0-64H256a32 32 0 0 0 0 64h256z m192 192a32 32 0 0 0 0-64H256a32 32 0 0 0 0 64h448zM569.92 108.544a32 32 0 0 0 9.344 22.016l232 232.064a32 32 0 0 0 45.248 0l137.792-137.792a32 32 0 0 0 0-45.248l-232-232.064a32 32 0 0 0-22.08-9.344l-140.288-2.496a32 32 0 0 0-32.512 32.576l2.496 140.288z m63.744-14.08l-1.664-94.208 94.208 1.664 200.256 200.256-92.544 92.544-200.32-200.256z"  horiz-adv-x="1024" />
      
      <glyph glyph-name="yulan" unicode="&#59879;" d="M352.192 703.744a32 32 0 0 0-0.192-64H192v-349.312h192.384a64 64 0 0 0 64-64v-226.688H768V288a32 32 0 0 0 64 0v-288.256a64 64 0 0 0-64-64H391.36L128 227.712V639.744a64 64 0 0 0 64 64h160.192z m32.192-477.312H215.36l169.024-187.456v187.456z m255.68 605.184a224 224 0 0 0 179.456-358.08l131.072-131.072a32 32 0 0 0-45.248-45.248l-131.072 131.072A224 224 0 1 0 640 831.616zM400.256 448c16.128-24.128 35.84-45.76 58.24-64H287.744a32 32 0 0 0 0 64h112.512z m239.808 319.616a160 160 0 1 1 0-320 160 160 0 0 1 0 320z"  horiz-adv-x="1024" />
      
      <glyph glyph-name="PCduan_xingnengfenxi" unicode="&#59878;" d="M512 768a382.336 382.336 0 0 0 271.616-112.512 382.336 382.336 0 0 0 112.512-271.616 382.336 382.336 0 0 0-112.512-271.616A382.336 382.336 0 0 0 512-0.128a382.336 382.336 0 0 0-271.616 112.512 382.336 382.336 0 0 0-112.512 271.552 382.336 382.336 0 0 0 112.512 271.616A382.336 382.336 0 0 0 512 768m0 64a448 448 0 1 1 0-896A448 448 0 0 1 512 832zM244.48 482.752a308.096 308.096 0 0 0 59.072 96.896A275.392 275.392 0 0 0 391.04 644.992a251.2 251.2 0 0 0 107.264 24c37.184 0 73.344-8.064 107.264-24 32.768-15.36 62.272-37.312 87.616-65.28l27.84 30.72c-56.96 63.104-135.68 102.08-222.72 102.08-173.888 0-314.88-156.032-314.88-348.48h39.36c0 41.152 7.232 81.152 21.632 118.72z m298.496-167.936a58.752 58.752 0 0 0-89.088 0 75.008 75.008 0 0 0 0 98.56c24.576 27.2 222.592 147.84 222.592 147.84s-108.928-219.2-133.504-246.4z"  horiz-adv-x="1024" />
      
      <glyph glyph-name="jiandaoyunshuchu" unicode="&#59877;" d="M791.104 555.252a220.32 220.32 0 0 0-0.896-4.292 167.548 167.548 0 0 1-219.444-159.36v-109.828l-0.428-0.428-0.036 0.036v207.508a265.408 265.408 0 0 1-176.016 249.908 224.892 224.892 0 0 0 396.82-183.544zM371.448 703.704a224.9 224.9 0 0 0 158.332-214.816v-167.008l-118.284 118.224a224.892 224.892 0 0 0-40.048 263.6z m-46.12-3.016c1.628 3.924 3.344 7.8 5.148 11.632a224.868 224.868 0 0 1-184.608-64.408A224.892 224.892 0 0 1 304.888 264h224.892v0.588l-146.936 146.864a265.412 265.412 0 0 0-57.516 289.24z m466.848-394.212l46.996 46.996h-156.032a7.14 7.14 0 0 0-7.14 7.14v49.968c0 3.944 3.196 7.14 7.14 7.14h152.84l-43.804 43.804a7.14 7.14 0 0 0 0 10.096l30.288 30.288a7.14 7.14 0 0 0 10.096 0l107.812-107.812a14.28 14.28 0 0 0 0-20.192l-107.812-107.812a7.14 7.14 0 0 0-10.096 0l-30.288 30.288a7.14 7.14 0 0 0 0 10.096zM80 204a16 16 0 0 0 16 16h832a16 16 0 0 0 16-16v-236a16 16 0 0 0-16-16H96a16 16 0 0 0-16 16v236z m304.32-38.908h-32.832v-109.532c0-5.012-0.74-9.232-2.224-12.656-1.48-3.428-3.656-6.036-6.52-7.824-2.812-1.74-6.264-2.608-10.356-2.608-3.884 0-7.26 0.768-10.12 2.3a17.276 17.276 0 0 0-6.68 6.752c-1.58 2.964-2.424 6.52-2.528 10.66H280c-0.052-10.432 2.172-19.1 6.672-26.004 4.5-6.852 10.588-11.964 18.256-15.34 7.72-3.324 16.316-4.984 25.776-4.984 10.636 0 19.968 2.02 27.996 6.06 8.028 4.04 14.292 9.792 18.792 17.256 4.552 7.468 6.828 16.264 6.828 26.388v109.532z m55.46-157.088h55.688c15.952 0 29.656 3.144 41.112 9.432 11.508 6.292 20.328 15.316 26.464 27.08 6.188 11.76 9.28 25.824 9.28 42.184 0 16.316-3.092 30.324-9.28 42.036-6.136 11.712-14.908 20.684-26.312 26.924-11.4 6.288-25.004 9.432-40.804 9.432h-56.148v-157.088z m54.308 28.456h-21.096v100.176h21.172c9.816 0 18.076-1.74 24.776-5.216 6.696-3.476 11.736-8.896 15.108-16.26 3.428-7.364 5.14-16.852 5.14-28.46 0-11.708-1.712-21.272-5.14-28.684-3.372-7.364-8.436-12.812-15.188-16.34-6.696-3.476-14.956-5.216-24.772-5.216z m100.144 128.632l57.296-101.556v-55.532h32.984v55.532l57.3 101.556h-37.204l-35.82-67.652h-1.536l-35.82 67.652h-37.2z"  horiz-adv-x="1024" />
      
      <glyph glyph-name="tongyongpeizhi" unicode="&#59876;" d="M446.276 760.776a15.996 15.996 0 0 1-9.632 3.224h-308.64a16 16 0 0 1-16-16v-732a16 16 0 0 1 16-16H436v64H176V480h736v-159.772a239.928 239.928 0 0 1-32.012 43.452c-2.472 2.668-6.488 3.056-9.692 1.344a71.548 71.548 0 0 0-69.592 1.168 71.844 71.844 0 0 0-27.196 28 72.204 72.204 0 0 0-8.656 31.92c-0.124 3.616-2.456 6.88-5.98 7.7a238.056 238.056 0 0 1-107.652 0.048c-3.528-0.82-5.864-4.088-5.984-7.708a72.16 72.16 0 0 0-8.644-31.916 71.848 71.848 0 0 0-27.184-28.012 71.504 71.504 0 0 0-69.596-1.196c-3.208 1.712-7.22 1.32-9.692-1.344a239.864 239.864 0 0 1-53.768-93.584c-1.052-3.456 0.608-7.104 3.668-9.02a71.904 71.904 0 0 0 23.212-23.48 72.188 72.188 0 0 0-0.028-75.248 71.932 71.932 0 0 0-23.212-23.452c-3.072-1.92-4.732-5.576-3.672-9.04a240.964 240.964 0 0 1 21.644-49.84 240.28 240.28 0 0 1 32.152-43.696c2.476-2.668 6.492-3.06 9.7-1.344a71.544 71.544 0 0 0 69.588-1.172 71.844 71.844 0 0 0 27.196-28 72.204 72.204 0 0 0 8.656-31.92c0.124-3.616 2.456-6.88 5.98-7.7a238.056 238.056 0 0 1 107.652-0.048c3.528 0.82 5.864 4.088 5.984 7.708a72.16 72.16 0 0 0 8.644 31.916 71.848 71.848 0 0 0 27.184 28.012 71.552 71.552 0 0 0 37.768 9.624c11.144-0.296 22.04-3.196 31.828-8.428 3.208-1.712 7.22-1.32 9.692 1.344A239.552 239.552 0 0 1 912 79.692v-63.98l0.004 0.288v63.696a240.24 240.24 0 0 1 21.752 50.204c1.048 3.456-0.608 7.104-3.672 9.02a71.8 71.8 0 0 0-18.08 16.148v89.864a71.816 71.816 0 0 0 18.116 16.168c3.072 1.92 4.728 5.572 3.676 9.032a240.116 240.116 0 0 1-21.792 50.092V656a16 16 0 0 1-16 16H569.36a16.008 16.008 0 0 0-9.636 3.224l-113.448 85.552zM912 244.928a72.176 72.176 0 0 1 0-89.856v89.856zM848.004 544h-672V608h672v-64zM688.36 17.96c-8.532 26.712-26.368 49.256-50.088 63.3-23.704 14.064-51.632 18.656-78.428 12.888a187.052 187.052 0 0 0-16.696 29.664c17.876 20.496 28.34 47.396 28.34 76.188 0.02 28.112-10.072 55.244-28.34 76.188a184.136 184.136 0 0 0 16.652 29.664c26.812-5.772 54.76-1.172 78.472 12.912 23.728 14.04 41.572 36.58 50.108 63.3a173.188 173.188 0 0 0 33.368-0.024c8.532-26.712 26.368-49.256 50.088-63.3 23.704-14.064 51.632-18.656 78.428-12.888a187.052 187.052 0 0 0 16.696-29.664c-17.876-20.496-28.34-47.396-28.34-76.188-0.02-28.112 10.072-55.244 28.34-76.188a182.592 182.592 0 0 0-16.652-29.664c-26.812 5.772-54.756 1.172-78.472-12.912-23.728-14.04-41.572-36.58-50.108-63.3a173.188 173.188 0 0 0-33.368 0.024z m18.6 105.848a76.192 76.192 0 1 1-0.008 152.38 76.192 76.192 0 0 1 0.008-152.38z m0 45.716a30.48 30.48 0 1 0 0 60.96 30.48 30.48 0 0 0 0-60.96z"  horiz-adv-x="1024" />
      
      <glyph glyph-name="a-jibieerjiProperty1guolvjilu" unicode="&#59870;" d="M864 824a8 8 0 0 1-8 8H72a8 8 0 0 1-8-8v-56a8 8 0 0 1 8-8h72l187.048-348.448c0.624-1.164 0.952-2.464 0.952-3.784v-365.448a8 8 0 0 1 9.996-7.744L404 50.544v384.192c0 1.296-0.316 2.576-0.92 3.724L235.2 760H692.8l-139.924-268h87.264L784 760h72a8 8 0 0 1 8 8V824z m96-634c0-140.28-113.72-254-254-254S452 49.72 452 190s113.72 254 254 254 254-113.72 254-254z m-212-38h56a8 8 0 0 1 8 8v56a8 8 0 0 1-8 8h-56a8 8 0 0 1-8-8v-56a8 8 0 0 1 8-8z m-136 0h56a8 8 0 0 1 8 8v56a8 8 0 0 1-8 8h-56a8 8 0 0 1-8-8v-56a8 8 0 0 1 8-8z"  horiz-adv-x="1024" />
      
      <glyph glyph-name="Shelljiaoben" unicode="&#59871;" d="M431.596 275.72a8 8 0 0 1 0 11.312l-123.312 123.312a8 8 0 0 1-11.312 0l-33.944-33.94a8 8 0 0 1 0-11.312l78.06-78.06a8 8 0 0 0 0-11.312l-78.06-78.06a8 8 0 0 1 0-11.316l33.944-33.94a8 8 0 0 1 11.312 0l123.312 123.316zM452 213.376a8 8 0 0 0 8 8h168a8 8 0 0 0 8-8v-56a8 8 0 0 0-8-8h-168a8 8 0 0 0-8 8v56zM96 816a16 16 0 0 1-16-16v-832a16 16 0 0 1 16-16h832a16 16 0 0 1 16 16V800a16 16 0 0 1-16 16H96z m56-260h720v-532H152V556z m44 92c-22.092 0-40 17.908-40 40s17.908 40 40 40 40-17.908 40-40-17.908-40-40-40z m160 40c0-22.092-17.908-40-40-40s-40 17.908-40 40 17.908 40 40 40 40-17.908 40-40z m80-40c-22.092 0-40 17.908-40 40s17.908 40 40 40 40-17.908 40-40-17.908-40-40-40z"  horiz-adv-x="1024" />
      
      <glyph glyph-name="APIshuchu" unicode="&#59872;" d="M580.752 838.064a28.336 28.336 0 0 0 25.372-15.668l30.308-60.584a396.864 396.864 0 0 0 142.112-82.108l67.772 4.02a28.36 28.36 0 0 0 26.288-14.132l67.6-117.08a28.372 28.372 0 0 0-0.92-29.836l-37.324-56.528a398.988 398.988 0 0 0 3.368-146.148H816c-154.64 0-280-125.36-280-280v-110.052h-90.444a28.396 28.396 0 0 0-23.364 12.26l-2.044 3.404-30.272 60.584a396.92 396.92 0 0 0-142.148 82.144l-67.736-4.052a28.348 28.348 0 0 0-24.04 10.828l-2.216 3.304-67.6 117.08a28.36 28.36 0 0 0-1.088 26.36l1.976 3.472 37.32 56.568a398.968 398.968 0 0 0-8.512 82.104c0 28.164 2.928 55.612 8.516 82.108l-37.324 56.532a28.364 28.364 0 0 0-2.66 26.256l1.772 3.612 67.6 117.08a28.368 28.368 0 0 0 22.24 14.1h3.984l67.768-3.988A396.88 396.88 0 0 0 389.84 761.812l30.308 60.584a28.364 28.364 0 0 0 25.372 15.668h135.232zM391.136 583.672H333.24L245.788 338.64H299.32l16.96 50.4h90.316l15.8-50.4h55.512L391.136 583.74v-0.068z m225.784 0h-106.728v-245.064h50.876v88.136h52.036c27.176 0 48.052 5.96 62.696 17.948 14.644 11.952 21.932 32.42 21.932 61.368 0 26.492-7.288 46.04-21.932 58.676-13.008 11.24-29.968 17.472-50.844 18.732l-8.036 0.24v-0.04z m166.12 0h-50.876v-245.064h50.876V583.672zM361.68 527.648l30.612-96.444H330.108l31.568 96.444z m247.1 13.488c12.092 0 21.456-2.724 28.2-8.172 6.708-5.416 10.044-14.508 10.044-27.244 0-12.74-3.336-22.068-10.044-27.928-6.712-5.892-16.108-8.852-28.2-8.852h-47.712V541.136h47.712z m206.076-489.824l-52.664-52.668a8 8 0 0 1 0-11.312l33.94-33.94a8 8 0 0 1 11.312 0l120.82 120.82a16 16 0 0 1 0 22.624l-120.82 120.82a8 8 0 0 1-11.312 0l-33.94-33.94a8 8 0 0 1 0-11.312l49.088-49.092H640a8 8 0 0 1-8-8v-56a8 8 0 0 1 8-8h174.856z"  horiz-adv-x="1024" />
      
      <glyph glyph-name="kafkashuru" unicode="&#59873;" d="M288 611.072C345.224 623.84 388 674.92 388 736 388 806.692 330.692 864 260 864 189.308 864 132 806.692 132 736c0-61.076 42.776-112.16 100-124.928v-64.816C152.8 534.644 92 466.424 92 384s60.8-150.644 140-162.256v-64.816C174.776 144.16 132 93.076 132 32c0-70.692 57.308-128 128-128 70.692 0 128 57.308 128 128 0 61.076-42.776 112.16-100 124.928V223.12c36.252 7.172 68.204 26.288 91.592 53.076l66.348-41.54A127.908 127.908 0 0 1 440 196c0-33.668 13-64.3 34.252-87.152a274.024 274.024 0 0 0-2.188 41.152c3.192-147.452 123.72-266 271.936-266 150.22 0 272 121.78 272 272s-121.78 272-272 272c-90.272 0-170.272-43.976-219.748-111.672a128.152 128.152 0 0 1-50.088-33.272l-65.468 40.988A163.62 163.62 0 0 1 420 384c0 17.94-2.88 35.208-8.204 51.368l58.9 37.464C494.172 445.392 529.056 428 568 428c70.692 0 128 57.308 128 128 0 70.692-57.308 128-128 128-70.692 0-128-57.308-128-128 0-11.592 1.54-22.824 4.428-33.504l-59.12-37.608C361.544 515.296 327.3 537.108 288 544.88V611.072zM744-52c-114.876 0-208 93.124-208 208s93.124 208 208 208 208-93.124 208-208-93.124-208-208-208z m-83.192 197.9l132.628 139.648a33.576 33.576 0 0 0 47.488 1.208l45.388-47.432c12.52-13.068 12.408-33.732-0.256-46.684l-139.824-143.044-92.012-32.004a28.772 28.772 0 0 0-37.916 23.028 28.76 28.76 0 0 0 2.456 16.46l42.048 88.82z m181.18 70.34l-24.176 25.328-116.94-123.096-19.168-40.496 38.136 13.24 122.148 125.024z"  horiz-adv-x="1024" />
      
      <glyph glyph-name="JSONshengcheng" unicode="&#59874;" d="M136 760h336v-80H136V760z m208-128v-52H264V632h80z m48-52V632h80v-52H392zM344 532v-40H264V532h80z m48-40V532h80v-40H392zM136 632h80v-52H136V632z m0-100h80v-40H136V532zM96 816a16 16 0 0 1-16-16v-348a16 16 0 0 1 16-16h416a16 16 0 0 1 16 16V800a16 16 0 0 1-16 16H96z m0-460a16 16 0 0 1-16-16v-372a16 16 0 0 1 16-16h832a16 16 0 0 1 16 16v372a16 16 0 0 1-16 16H96z m424.888-126.112c14.308 14.696 34.908 22.112 61.944 22.112v-0.064c26.968 0 47.636-7.352 61.876-22.048 19.028-17.324 28.544-43.308 28.544-77.888 0-33.988-9.516-59.908-28.544-77.952-14.24-14.7-34.908-22.048-61.876-22.048-27.036 0-47.636 7.348-61.944 22.048-19.092 18.044-28.672 44.028-28.672 77.952 0 34.58 9.58 60.564 28.672 77.888z m-184.252 4.988c12.272 11.22 30.384 16.796 54.2 16.796h-0.064a82.44 82.44 0 0 0 50.92-15.812c14.04-10.568 21.456-25.856 22.112-46h-37.928c-0.656 11.42-5.644 19.488-14.896 24.28a49.884 49.884 0 0 1-22.964 4.724 42.828 42.828 0 0 1-24.28-6.104c-6.1-4.068-9.12-9.84-9.12-17.192a16.256 16.256 0 0 1 8.992-15.092 110.028 110.028 0 0 1 24.604-7.872l32.548-7.744c14.236-3.476 25.064-8.068 32.284-13.78 11.284-8.856 16.928-21.716 16.928-38.58a54.472 54.472 0 0 0-19.816-43.044c-13.256-11.352-31.824-17.064-55.908-17.064-24.604 0-43.96 5.644-58.068 16.864-14.108 11.22-21.128 26.64-21.128 46.328h37.728a38.8 38.8 0 0 1 7.02-19.36c6.432-7.74 17.388-11.68 32.94-11.68 7.688-0.232 15.36 0.812 22.704 3.084 11.024 3.94 16.536 11.288 16.536 21.984a16.144 16.144 0 0 1-8.204 14.436c-5.444 3.344-14.04 6.3-25.788 8.792l-20.012 4.592c-19.62 4.396-33.2 9.188-40.748 14.436-12.728 8.728-19.092 22.312-19.092 40.88a54.596 54.596 0 0 0 18.5 42.128z m-91.008 11.284h39.436v-131.496c0-16.012-2.76-28.74-8.268-38.188-9.448-15.88-26.38-23.82-50.92-23.82-24.54 0-40.944 6.432-49.344 19.292C168.2 84.808 164 102.328 164 124.572v4.332h37.272v-4.332c0.328-14.632 1.968-24.936 4.856-30.84 2.82-5.904 8.92-8.924 18.372-8.924 9.252 0 15.42 3.216 18.44 9.776 1.768 3.808 2.688 10.304 2.688 19.488V246.16z m457.152 0h41.404v0.064l75.264-131.888v131.888h36.744v-188.976h-39.5l-77.168 134.188v-134.188h-36.744V246.16z m-82.744-45.012c-9.184 11.548-21.588 17.32-37.268 17.32a45.56 45.56 0 0 1-37.404-17.256c-9.316-11.548-13.976-27.952-13.976-49.212s4.66-37.664 14.044-49.212a45.58 45.58 0 0 1 37.4-17.324 45.092 45.092 0 0 1 37.204 17.256c9.188 11.616 13.78 28.02 13.78 49.216 0 21.26-4.592 37.596-13.78 49.212zM728 692h-140a8 8 0 0 0-8 8V748a8 8 0 0 0 8 8h140c61.856 0 112-50.144 112-112v-94.856l56.668 56.664a8 8 0 0 0 11.312 0l33.94-33.94a8 8 0 0 0 0-11.316l-120.816-120.816a16 16 0 0 0-22.628 0l-120.82 120.816a8 8 0 0 0 0 11.316l33.94 33.94a8 8 0 0 0 11.316 0L776 552.72V644c0 26.508-21.492 48-48 48z"  horiz-adv-x="1024" />
      
      <glyph glyph-name="XMLjiexi" unicode="&#59875;" d="M928-48H96a16 16 0 0 0-16 16V800a16 16 0 0 0 16 16h681.372c4.244 0 8.312-1.684 11.316-4.688l150.624-150.624A15.988 15.988 0 0 0 944 649.372V-32a16 16 0 0 0-16-16z m-56 72v368H152v-368h720zM208.04 696h-39.56c-6.404 0-10.212-7.16-6.632-12.472L228.948 584l-68.34-99.468c-3.648-5.312 0.156-12.532 6.596-12.532h40.032a8 8 0 0 1 6.68 3.596L261.96 548.452h1.92L311.932 475.6a8 8 0 0 1 6.68-3.596h40.3c6.436 0 10.236 7.212 6.6 12.52L297.376 584l66.684 99.548c3.56 5.316-0.248 12.452-6.644 12.452h-39.384a8 8 0 0 1-6.7-3.628L263.884 619.656h-1.92L214.744 692.36A8 8 0 0 1 208.04 696z m197.256-8v-208a8 8 0 0 1 8-8h34.416a8 8 0 0 1 8 8V618.344h2.044l61.524-140.46a8 8 0 0 1 7.328-4.792h23.88a8 8 0 0 1 7.324 4.78l61.524 139.924h2.04V480a8 8 0 0 1 8-8h34.42a8 8 0 0 1 8 8V688a8 8 0 0 1-8 8h-50.932a8 8 0 0 1-7.296-4.72l-65.584-145.78h-2.88L471.52 691.284A8 8 0 0 1 464.224 696h-50.928a8 8 0 0 1-8-8z m309.324-208a8 8 0 0 1 8-8H864a8 8 0 0 1 8 8v23.048a8 8 0 0 1-8 8h-97.4V688a8 8 0 0 1-8 8h-35.98a8 8 0 0 1-8-8v-208zM236.4 194.344a8 8 0 0 0 0 11.312l123.32 123.316a8 8 0 0 0 11.308 0l33.944-33.944a8 8 0 0 0 0-11.312L321.252 200l83.72-83.716a8 8 0 0 0 0-11.312l-33.944-33.944a8 8 0 0 0-11.312 0l-123.312 123.316zM799.596 205.656a8 8 0 0 0 0-11.312l-123.312-123.316a8 8 0 0 0-11.312 0l-33.944 33.944a8 8 0 0 0 0 11.312L714.744 200l-83.716 83.716a8 8 0 0 0 0 11.312l33.944 33.944a8 8 0 0 0 11.312 0l123.312-123.316zM514.256 332.052a8 8 0 0 0 9.8 5.66l46.364-12.424a8 8 0 0 0 5.656-9.8l-64.188-239.548a7.996 7.996 0 0 0-9.796-5.656l-46.364 12.424a7.996 7.996 0 0 0-5.656 9.796l64.184 239.548z"  horiz-adv-x="1024" />
      
      <glyph glyph-name="piliangjiejue" unicode="&#59867;" d="M800 800a128 128 0 0 0 128-128v-576a128 128 0 0 0-128-128h-576a128 128 0 0 0-128 128v576a128 128 0 0 0 128 128h576z m0-64h-576a64 64 0 0 1-63.552-56.512L160 672v-576a64 64 0 0 1 56.512-63.552l7.488-0.448h576a64 64 0 0 1 63.552 56.512l0.448 7.488v576a64 64 0 0 1-56.512 63.552L800 736z m-49.792-199.488l4.48-3.712a32 32 0 0 0 3.648-40.832l-3.712-4.416-275.84-275.84a32 32 0 0 0-40.832-3.712l-4.48 3.712-152.192 152.192a32 32 0 0 0 40.832 48.96l4.48-3.712L456.064 279.68l253.312 253.184a32 32 0 0 0 40.832 3.712z"  horiz-adv-x="1024" />
      
      <glyph glyph-name="shujujieshi1" unicode="&#59868;" d="M809.152 800c65.344 0 118.848-53.504 118.848-118.848v-475.456a119.232 119.232 0 0 0-118.848-118.848H448v-83.2c0-23.744-17.856-35.648-35.648-35.648-5.952 0-11.904 0-17.856 5.952l-124.8 112.896h-54.848A119.232 119.232 0 0 0 96 205.696V681.152c0 65.344 53.504 118.848 118.848 118.848z m0-59.456H214.848c-35.648 0-59.392-23.744-59.392-59.392v-475.456c0-35.648 23.744-59.392 59.392-59.392h54.848c11.904 0 29.76-5.952 41.6-17.856l77.248-71.296v29.696c0 17.856 5.952 29.696 17.856 41.6a53.952 53.952 0 0 0 41.6 17.856h361.152c35.648 0 59.392 23.744 59.392 59.392V681.152c0 35.648-23.744 59.392-59.392 59.392zM512 640a32 32 0 0 0 32-32v-320a32 32 0 0 0-64 0v320A32 32 0 0 0 512 640z m160-192a32 32 0 0 0 32-32v-128a32 32 0 1 0-64 0v128a32 32 0 0 0 32 32z m-320 64a32 32 0 0 0 32-32v-192a32 32 0 0 0-64 0v192a32 32 0 0 0 32 32z"  horiz-adv-x="1024" />
      
      <glyph glyph-name="yanqi" unicode="&#59869;" d="M602.816 10.752l15.104-62.144a444.928 444.928 0 0 0-68.032-11.072l-5.376 63.744c19.712 1.664 39.168 4.864 58.24 9.472z m112.448 47.424l33.92-54.272a448.64 448.64 0 0 0-61.12-31.936l-25.152 58.88a384.64 384.64 0 0 1 52.352 27.328z m88.832 76.48l48.64-41.6a449.984 449.984 0 0 0-48.64-48.768l-41.728 48.512c14.976 12.864 28.928 26.88 41.728 41.856z m63.04 103.04l59.2-24.384c-8.768-21.312-19.2-41.92-31.104-61.568l-54.72 33.28c10.24 16.768 19.136 34.368 26.624 52.608zM512 632.96a32 32 0 0 0 31.488-26.24l0.512-5.76-0.064-200.896L723.2 265.408a32 32 0 0 0 9.408-39.872l-3.008-4.928a32 32 0 0 0-39.936-9.408l-4.864 3.072-192 144.128a32 32 0 0 0-12.224 19.648L480 384V600.96a32 32 0 0 0 32 32z m382.72-280.32l63.808-5.312-0.96-9.984a452.544 452.544 0 0 0-9.984-58.176l-62.208 14.912c2.56 10.88 4.736 21.888 6.4 33.024l2.688 22.336 0.256 3.2z m55.04 127.04c4.928-22.4 8.064-45.248 9.472-68.352l-63.872-3.84a381.184 381.184 0 0 1-8.128 58.496l62.528 13.696z m-251.264 240.064l-2.56 1.408-2.368 1.28-3.712 1.984-0.96 0.512 0.384-0.256-2.944 1.536-1.792 0.896-4.16 2.048-16.768 7.68a383.296 383.296 0 0 1-87.104 25.728l2.048-0.384-3.84 0.64-10.24 1.6a391.616 391.616 0 0 1-12.032 1.472h0.064-0.64l-14.08 1.28a384 384 0 0 1-78.464-2.688l-19.008-3.136-14.592-3.072-5.184-1.28a382.08 382.08 0 0 1-59.904-19.968l-16.32-7.552-16.256-8.32a385.408 385.408 0 0 1-16.512-9.6l-1.216-0.768-1.344-0.832-0.448-0.256-0.64-0.448-0.448-0.256-14.848-9.856c-10.752-7.488-21.12-15.488-31.04-24.064l-13.312-11.968a385.472 385.472 0 0 1-72.512-93.44l-0.896-1.664-7.168-13.824-0.96-1.92-0.96-1.984-1.6-3.328-2.816-6.144 1.28 2.688-1.792-3.84-0.32-0.64 0.32 0.64-0.64-1.6V538.24l-3.904-9.28a382.208 382.208 0 0 1-19.392-62.464l-1.92-9.408-1.984-11.392a388.608 388.608 0 0 1-2.88-21.504l-0.512-5.504-0.768-8.832c-1.536-23.168-1.024-46.08 1.472-68.48l2.112-16.128 3.072-17.152 1.344-6.656 0.32-1.472 0.384-1.6 4.48-17.664c5.696-20.096 12.928-39.552 21.568-58.24l6.912-14.08 1.728-3.328 1.536-2.944 1.024-1.856 3.264-5.76 2.112-3.712 4.8-8c1.92-3.2 3.904-6.272 5.952-9.408l6.528-9.6c6.336-8.96 12.992-17.728 20.096-26.176l9.728-11.2 11.968-12.608c4.224-4.288 8.576-8.448 12.992-12.544l0.64-0.64 1.792-1.6 2.432-2.176-2.432 2.176 6.144-5.44c2.88-2.496 5.76-4.928 8.768-7.36l0.832-0.64c16.448-13.376 34.048-25.408 52.672-35.904l12.544-6.848 2.688-1.28 14.272-6.912 6.08-2.688c22.528-9.856 46.208-17.536 70.912-22.976l0.96-0.192 12.928-2.56c4.672-0.832 9.408-1.6 14.08-2.304l6.592-0.832a405.12 405.12 0 0 1 25.28-2.368l-3.84-63.872a455.296 455.296 0 0 0-20.032 1.664l-0.448 0.064h0.064l-13.056 1.6-3.008 0.32a455.232 455.232 0 0 0-8.128 1.28l-7.232 1.152-11.456 2.176a312.96 312.96 0 0 0-5.248 1.152 445.824 445.824 0 0 0-66.368 19.776h0.064l-2.304 0.896a444.48 444.48 0 0 0-17.6 7.296l2.56-1.088-5.824 2.56a441.664 441.664 0 0 0-35.904 18.176l-3.2 1.856a445.76 445.76 0 0 0-40.32 26.24l-19.008 14.656-2.048 1.664-8 6.72-7.744 6.912a449.92 449.92 0 0 0-72.128 83.648l-8.704 13.696 6.976-11.008-7.04 11.008-1.6 2.56 0.832-1.28-1.024 1.6-0.128 0.192-0.192 0.32-4.544 7.808a445.056 445.056 0 0 0-43.968 105.088l-0.64 2.368-2.944 11.84-1.216 5.12-0.768 3.392 0.512-2.24-1.28 5.696a431.552 431.552 0 0 0-6.592 40.96l-0.32 3.008a446.72 446.72 0 0 0-2.432 59.904l0.704 15.808 0.384 5.76a455.68 455.68 0 0 0 1.28 13.76v0.96l0.32 2.56 0.64 5.12 0.384 3.072 0.064 0.704 0.32 2.432 0.128 0.448 1.408 9.472a445.12 445.12 0 0 0 29.12 101.952l0.192 0.448c2.56 6.208 5.568 12.8 8.704 19.328l1.024 2.176c13.248 27.392 29.248 53.12 47.488 76.992l4.672 5.888 0.64 0.704 4.992 6.208 2.432 3.008 6.4 7.424a449.024 449.024 0 0 0 82.24 73.024l2.816 1.92A449.92 449.92 0 0 0 381.696 812.8l3.968 1.216 1.408 0.384c13.696 4.032 27.712 7.36 41.856 9.984l3.776 0.704c24.64 4.48 49.92 6.848 75.584 7.04l19.328-0.32a453.76 453.76 0 0 0 31.232-2.176h0.128l10.816-1.28 1.472-0.192 1.28-0.192 8.064-1.152-3.392 0.448 7.168-1.088a458.752 458.752 0 0 0 86.4-23.104l21.312-8.704 3.2-1.408 4.416-1.984 3.712-1.792 2.56-1.152a444.992 444.992 0 0 0 24.64-12.8l5.632-3.2a464.64 464.64 0 0 0 16.64-10.176c33.024-21.056 63.232-46.4 89.728-75.392l1.6-1.92c6.528-7.04 12.8-14.464 18.816-22.08l10.688 101.888a32 32 0 0 0 29.44 28.544l5.76-0.064a32 32 0 0 0 28.544-29.44l-0.064-5.76-20.096-190.912a32 32 0 0 0-29.44-28.608l-5.76 0.128-190.912 20.032a32 32 0 0 0 0.896 63.744l5.76-0.064 125.504-13.12a385.664 385.664 0 0 1-6.656 8.96l-7.68 9.664-12.736 14.72-13.44 14.08-2.56 2.56 0.64-0.512-1.216 1.024-1.024 0.96-2.176 2.176a385.6 385.6 0 0 1-6.528 6.08l6.848-6.528-11.072 10.304a383.04 383.04 0 0 1-67.2 47.488z"  horiz-adv-x="1024" />
      
      <glyph glyph-name="moxingshitu" unicode="&#59864;" d="M379.184 708C363.404 765.64 310.648 808 248 808c-75.112 0-136-60.888-136-136s60.888-136 136-136c62.648 0 115.4 42.36 131.184 100h354.524c58.904 0 106.652-47.988 106.652-107.188 0-59.196-47.748-107.188-106.652-107.188h-90.98C626.408 478.436 574.056 520 512 520c-62.056 0-114.408-41.564-130.728-98.376H297.9C197.44 421.624 116 339.776 116 238.812 116 137.848 197.44 56 297.9 56h345.888c14.388-59.668 68.124-104 132.212-104 75.112 0 136 60.888 136 136s-60.888 136-136 136c-61.188 0-112.94-40.412-130.024-96h-348.08c-60.892 0-110.256 49.612-110.256 110.812 0 61.2 49.364 110.812 110.26 110.812h82.48C395.608 291.156 448.764 248 512 248c63.236 0 116.392 43.156 131.62 101.624h90.088c98.468 0 178.292 80.224 178.292 179.188C912 627.772 832.176 708 733.708 708h-354.52zM248 736c35.348 0 64-28.652 64-64s-28.652-64-64-64-64 28.652-64 64 28.652 64 64 64z m528-584c35.348 0 64-28.652 64-64s-28.652-64-64-64-64 28.652-64 64 28.652 64 64 64z m-328 232c0 35.348 28.652 64 64 64s64-28.652 64-64-28.652-64-64-64-64 28.652-64 64z"  horiz-adv-x="1024" />
      
      <glyph glyph-name="fenxishitu" unicode="&#59865;" d="M896 532V752a16 16 0 0 1-16 16h-161.716c-13 35.036-46.728 60-86.284 60H392c-39.56 0-73.28-24.964-86.28-60H144a16 16 0 0 1-16-16v-752a16 16 0 0 1 16-16h256v64H200a8 8 0 0 0-8 8V696a8 8 0 0 0 8 8h105.72C318.72 668.964 352.44 644 392 644h240c39.556 0 73.284 24.964 86.284 60H824a8 8 0 0 0 8-8v-164h64zM392 708a28 28 0 1 0 0 56h240a28 28 0 1 0 0-56H392zM531.608 148.596a16 16 0 0 1-4.672-11.3v-135.776a16 16 0 0 1 16-16h135.752a16.016 16.016 0 0 1 11.332 4.7l295.248 296.092a16.004 16.004 0 0 1-0.016 22.612l-135.764 135.764a16 16 0 0 1-22.644-0.016l-295.236-296.076z m59.328-31.14l247.284 247.988 67.884-67.884-247.34-248.04h-67.828v67.936zM779.256 503.432a8 8 0 0 1 0 11.312l-39.6 39.6a8 8 0 0 1-11.312 0l-150.888-150.888-148.344 148.344a8 8 0 0 1-11.312 0l-172.144-172.144a8 8 0 0 1 0-11.312l39.6-39.6a8 8 0 0 1 11.312 0l126.888 126.888 148.344-148.344a8 8 0 0 1 11.312 0l196.144 196.144z"  horiz-adv-x="1024" />
      
      <glyph glyph-name="zhutixieyuan" unicode="&#59866;" d="M720 688v-136h176V688h-176z m-48 64h272a16 16 0 0 0 16-16v-232a16 16 0 0 0-16-16h-272a16 16 0 0 0-16 16V588h-58.116a32 32 0 0 1-30.308-21.728l-50.54-149.092a95.828 95.828 0 0 0-19.36-33.18 95.828 95.828 0 0 0 19.36-33.18l50.54-149.092a32 32 0 0 1 30.308-21.728H656v84a16 16 0 0 0 16 16h272a16 16 0 0 0 16-16v-232a16 16 0 0 0-16-16h-272a16 16 0 0 0-16 16v84h-58.116a96 96 0 0 0-90.92 65.18l-50.54 149.092a32 32 0 0 1-30.308 21.728H368v-84a16 16 0 0 0-16-16H80a16 16 0 0 0-16 16V500a16 16 0 0 0 16 16h272a16 16 0 0 0 16-16v-84h58.116a32 32 0 0 1 30.308 21.728l50.54 149.092A96 96 0 0 0 597.884 652H656V736a16 16 0 0 0 16 16zM128 452v-136h176v136H128z m592-372h176v136h-176v-136z"  horiz-adv-x="1024" />
      
      <glyph glyph-name="quanbuzhankai" unicode="&#59863;" d="M152 752a16 16 0 0 0 16 16h688a16 16 0 0 0 16-16v-264a16 16 0 0 0-16-16H168a16 16 0 0 0-16 16V752z m64-48v-168h592V704H216zM218.628 375.312a15.992 15.992 0 0 0 22.628 0l272.224-272.224 271.836 271.836a16 16 0 0 0 22.628 0l33.94-33.944a16 16 0 0 0 0-22.628l-316.784-316.78a15.992 15.992 0 0 0-17.636-3.388 15.916 15.916 0 0 0-5.992 3.776l-316.784 316.784a16 16 0 0 0 0 22.628l33.94 33.94z"  horiz-adv-x="1024" />
      
      <glyph glyph-name="quanbuzhedie" unicode="&#59862;" d="M168 672a16 16 0 0 1-16-16v-48a16 16 0 0 1 16-16h688a16 16 0 0 1 16 16V656a16 16 0 0 1-16 16H168zM806.276 101.444a15.996 15.996 0 0 0-22.628 0l-273.456 273.456-272.936-272.94a16 16 0 0 0-22.628 0l-33.94 33.944a15.996 15.996 0 0 0 0 22.624l316.784 316.784a15.984 15.984 0 0 0 15.44 4.148c3.824-0.188 7.6-1.744 10.52-4.664l316.784-316.784a16 16 0 0 0 0-22.628l-33.94-33.94z"  horiz-adv-x="1024" />
      
      <glyph glyph-name="shujubidui" unicode="&#59861;" d="M96-48a16 16 0 0 0-16 16V800a16 16 0 0 0 16 16h288a16 16 0 0 0 16-16v-832a16 16 0 0 0-16-16H96z m116 144h56a8 8 0 0 1 8 8v56a8 8 0 0 1-8 8H212a8 8 0 0 1-8-8v-56a8 8 0 0 1 8-8z m-8 152a8 8 0 0 1 8-8h56a8 8 0 0 1 8 8v56a8 8 0 0 1-8 8H212a8 8 0 0 1-8-8v-56z m492-224V744h176v-720h-176z m-72-56a16 16 0 0 1 16-16h288a16 16 0 0 1 16 16V800a16 16 0 0 1-16 16h-288a16 16 0 0 1-16-16v-832z m124 192a8 8 0 0 0 8 8h56a8 8 0 0 0 8-8v-56a8 8 0 0 0-8-8h-56a8 8 0 0 0-8 8v56z m8 152a8 8 0 0 1-8-8v-56a8 8 0 0 1 8-8h56a8 8 0 0 1 8 8v56a8 8 0 0 1-8 8h-56z m-280 392a8 8 0 0 1 8-8h56a8 8 0 0 1 8 8V808a8 8 0 0 1-8 8h-56a8 8 0 0 1-8-8v-104z m0-184a8 8 0 0 1 8-8h56a8 8 0 0 1 8 8V620a8 8 0 0 1-8 8h-56a8 8 0 0 1-8-8v-100z m8-196a8 8 0 0 0-8 8v104a8 8 0 0 0 8 8h56a8 8 0 0 0 8-8v-104a8 8 0 0 0-8-8h-56z m-8-176a8 8 0 0 1 8-8h56a8 8 0 0 1 8 8v100a8 8 0 0 1-8 8h-56a8 8 0 0 1-8-8v-100z m8-196a8 8 0 0 0-8 8v104a8 8 0 0 0 8 8h56a8 8 0 0 0 8-8v-104a8 8 0 0 0-8-8h-56z"  horiz-adv-x="1024" />
      
      <glyph glyph-name="qitaziduanleixing" unicode="&#59860;" d="M168 704a8 8 0 0 1-8-8v-64a8 8 0 0 1 8-8h688a8 8 0 0 1 8 8V696a8 8 0 0 1-8 8H168z m-8-288a8 8 0 0 0 8 8h688a8 8 0 0 0 8-8v-64a8 8 0 0 0-8-8H168a8 8 0 0 0-8 8v64z m0-280a8 8 0 0 0 8 8h688a8 8 0 0 0 8-8v-64a8 8 0 0 0-8-8H168a8 8 0 0 0-8 8v64z"  horiz-adv-x="1024" />
      
      <glyph glyph-name="ziyuankongzhi" unicode="&#59859;" d="M450.328 754.728A16.008 16.008 0 0 1 438.46 760H128a16 16 0 0 1-16-16v-720a16 16 0 0 1 16-16h766.952a16 16 0 0 1 16 16V615.88a16 16 0 0 1-16 16H800.48l-71.752 75.168A16 16 0 0 1 717.152 712h-228.196l-38.628 42.728z m-273.76-67.136h244.58l116.408-123.936h308.828V318h-105.62a8.008 8.008 0 0 0-6.544 3.396l-121.548 172.728a8 8 0 0 1-13.056 0.04l-159.992-224.36a8 8 0 0 0-13.172 0.208l-93.216 139.824a8 8 0 0 1-12.676 0.828l-78.688-89.932a8 8 0 0 0-6.024-2.732h-59.28V687.592z m0-433.592h88.32a8 8 0 0 1 6.024 2.732l42.768 48.88a8 8 0 0 0 12.676-0.832l98.324-147.484a8 8 0 0 1 13.168-0.208l161.42 226.36a8 8 0 0 0 13.056-0.04l88.676-126.012a8 8 0 0 1 6.544-3.396h138.84v-173.592H176.564V254z"  horiz-adv-x="1024" />
      
      <glyph glyph-name="yiping" unicode="&#59858;" d="M506.036 553.656a8.008 8.008 0 0 0 9.724 1.24c1.404-0.332 2.74-1.04 3.836-2.14l175.696-175.692a8 8 0 0 0 0-11.312l-33.944-33.944a8 8 0 0 0-11.312 0l-137.668 137.668-136.772-136.768a8 8 0 0 0-11.312 0l-33.94 33.94a8 8 0 0 0 0 11.316l175.692 175.692zM912 768a16 16 0 0 1-16 16H128a16 16 0 0 1-16-16v-624a16 16 0 0 1 16-16h352v-80H324a8 8 0 0 1-8-8v-48a8 8 0 0 1 8-8h372a8 8 0 0 1 8 8v48a8 8 0 0 1-8 8h-152v80h352a16 16 0 0 1 16 16V768z m-72-56v-512H184V712h656z"  horiz-adv-x="1024" />
      
      <glyph glyph-name="hangzhuanlie" unicode="&#59851;" d="M152 648h188V744H152v-96z m260 0h200V744h-200v-96z m460 0V744h-188v-96h188zM80 800a16 16 0 0 0 16 16h832a16 16 0 0 0 16-16v-208a16 16 0 0 0-16-16H96a16 16 0 0 0-16 16V800z m0-312a16 16 0 0 0 16 16h316a16 16 0 0 0 16-16v-520a16 16 0 0 0-16-16H96a16 16 0 0 0-16 16V488z m438-400.952H656c68.484 0 124 55.516 124 124v147.28l-49.088-49.092a8 8 0 0 0-11.316 0l-33.94 33.944a8 8 0 0 0 0 11.312l120.82 120.82a16 16 0 0 0 22.628 0l120.82-120.82a8 8 0 0 0 0-11.312l-33.944-33.944a8 8 0 0 0-11.312 0L852 361.904v-150.856c0-108.248-87.752-196-196-196h-138a8 8 0 0 0-8 8v56a8 8 0 0 0 8 8z"  horiz-adv-x="1024" />
      
      <glyph glyph-name="liezhuanhang" unicode="&#59857;" d="M80 800a16 16 0 0 0 16 16h832a16 16 0 0 0 16-16v-208a16 16 0 0 0-16-16H96a16 16 0 0 0-16 16V800z m72-368h200v-92H152v92z m0-244v80h200v-80H152z m0-72h200v-92H152v92zM96 504a16 16 0 0 1-16-16v-520a16 16 0 0 1 16-16h312a16 16 0 0 1 16 16V488a16 16 0 0 1-16 16H96z m419.312-429.088l23.632-23.632c0.748-1.392 1.892-2.536 3.28-3.28l93.908-93.908a8 8 0 0 1 11.312 0l33.944 33.944a8 8 0 0 1 0 11.312l-47.708 47.708H684c108.248 0 196 87.752 196 196v244.952a8 8 0 0 1-8 8h-56a8 8 0 0 1-8-8v-244.952c0-68.484-55.516-124-124-124h-56.664l54.052 54.048a8 8 0 0 1 0 11.312l-33.944 33.944a8 8 0 0 1-11.312 0l-120.82-120.82a16 16 0 0 1 0-22.628z"  horiz-adv-x="1024" />
      
      <glyph glyph-name="a-jiantoumian" unicode="&#59853;" d="M711.111111 636.131556a28.444444 28.444444 0 0 0 18.204445-6.542223l268.515555-223.744a28.444444 28.444444 0 0 0 0-43.690666l-268.515555-223.744a28.444444 28.444444 0 0 0-46.648889 21.902222L682.609778 344.177778H96.711111a39.822222 39.822222 0 0 0 0 79.644444H682.666667V607.687111a28.444444 28.444444 0 0 0 28.444444 28.444445z"  horiz-adv-x="1024" />
      
      <glyph glyph-name="tingzhi" unicode="&#59854;" d="M320 832a64 64 0 0 0 64-64v-768a64 64 0 0 0-64-64H192a64 64 0 0 0-64 64V768a64 64 0 0 0 64 64h128z m512 0a64 64 0 0 0 64-64v-768a64 64 0 0 0-64-64h-128a64 64 0 0 0-64 64V768a64 64 0 0 0 64 64h128zM307.2 755.2H204.8v-742.4h102.4V755.2z m512 0h-102.4v-742.4h102.4V755.2z"  horiz-adv-x="1024" />
      
      <glyph glyph-name="zhongqi" unicode="&#59855;" d="M512 807.168c111.744 0 213.248-44.096 288-115.84v51.84a32 32 0 1 0 64 0v-160a31.872 31.872 0 0 0-32-32h-159.872a32 32 0 1 0 0 64h111.36a352 352 0 1 1 52.608-361.536h0.128a32 32 0 1 0 57.92-27.008A416.128 416.128 0 0 0 96 391.168a416 416 0 0 0 416 416zM447.04 531.648a12.8 12.8 0 0 0 7.552-2.496l184.96-134.784a12.8 12.8 0 0 0 0-20.736l-184.96-134.784a12.8 12.8 0 0 0-20.352 10.304V518.848c0 7.04 5.76 12.8 12.8 12.8z"  horiz-adv-x="1024" />
      
      <glyph glyph-name="qidong" unicode="&#59856;" d="M892.48 432.704l-552.192 386.56a70.4 70.4 0 0 1-110.784-57.664v-773.12a70.4 70.4 0 0 1 110.72-57.6l552.256 386.56a70.4 70.4 0 0 1 0 115.264z m-51.456-57.6l-534.72-374.272V749.312L840.96 375.04z"  horiz-adv-x="1024" />
      
      <glyph glyph-name="yunweizujian" unicode="&#61899;" d="M768 832a64 64 0 0 0 64-64v-192a64 64 0 0 0-64-64H544v-96.384l288 0.064a96 96 0 0 0 95.552-86.72l0.448-9.216V256h32a64 64 0 0 0 64-64v-192a64 64 0 0 0-64-64h-128a64 64 0 0 0-64 64v192a64 64 0 0 0 64 64h32v63.68a32 32 0 0 1-26.24 31.488L832 351.67999999999995l-288-0.064V256h64a64 64 0 0 0 64-64v-192a64 64 0 0 0-64-64h-192a64 64 0 0 0-64 64v192a64 64 0 0 0 64 64h64V351.616L192 351.48800000000006a32.064 32.064 0 0 1-31.488-26.24l-0.512-5.76V256H192a64 64 0 0 0 64-64v-192a64 64 0 0 0-64-64H64a64 64 0 0 0-64 64v192a64 64 0 0 0 64 64h32v63.488c0 49.856 38.08 90.88 86.72 95.552L192 415.488l288 0.128V512H256a64 64 0 0 0-64 64V768a64 64 0 0 0 64 64h512zM192 192h-32v-0.32h-64V192H64v-192h128v192z m416 0h-192v-192h192v192z m352 0h-128v-192h128v192z m-192 576H256v-192h512V768zM352 704a32 32 0 1 0 0-64 32 32 0 0 0 0 64z m320 0a32 32 0 1 0 0-64h-192a32 32 0 0 0 0 64h192z"  horiz-adv-x="1024" />
      
      <glyph glyph-name="jiankangzhenduan" unicode="&#59852;" d="M800-1.472a32 32 0 1 0 0-64h-576a32 32 0 0 0 0 64h576z m96 768a64 64 0 0 0 64-64v-576a64 64 0 0 0-64-64H128a64 64 0 0 0-64 64v576a64 64 0 0 0 64 64h768z m0-64H128v-576h768v576zM431.744 621.12a32 32 0 0 0 57.28-5.76l105.024-284.608 28.096 67.392 2.56 4.864a32 32 0 0 0 26.944 14.848h116.8l5.76-0.512a32 32 0 0 0 26.24-31.488l-0.512-5.76a32 32 0 0 0-31.488-26.24h-95.424l-51.2-122.88-2.752-5.312a32 32 0 0 0-56.768 6.528l-103.68 280.512-53.568-142.336-2.432-5.12a32 32 0 0 0-27.52-15.616H256.384l-5.76 0.512a32 32 0 0 0-26.24 31.488l0.512 5.76a32 32 0 0 0 31.488 26.24h96.512l76.16 201.984z"  horiz-adv-x="1024" />
      
      <glyph glyph-name="Greenplumtouxiang" unicode="&#59850;" d="M511.36 564.608c-99.392 0-179.968-78.944-179.968-176.32 0-66.24 24.16-116.352 76.16-144.576 13.216-7.2 29.28-1.92 37.92 10.432l59.264 84.608a331.36 331.36 0 0 0 53.632 59.616l79.68 69.44c11.584 10.112 15.04 27.2 5.664 39.36-32.672 42.56-81.664 57.44-132.352 57.44zM512-128c282.784 0 512 229.216 512 512S794.784 896 512 896 0 666.784 0 384s229.216-512 512-512z m0 874.88c111.392 0 216.96-52.8 285.056-138.56 27.744-34.944 17.408-84.192-15.744-114.016L611.84 342.08c-16.8-15.104-32-31.872-45.44-50.048l-137.696-187.072c-26.4-35.84-74.336-50.944-111.84-26.944A362.592 362.592 0 0 0 149.12 384C149.12 584.416 311.584 746.88 512 746.88z"  horiz-adv-x="1024" />
      
      <glyph glyph-name="a-leixingshujubiaozhilianoffyifabuon" unicode="&#59848;" d="M136 864a16 16 0 0 1-16-16v-808a16 16 0 0 1 16-16h352.476a281.92 281.92 0 0 0-22.192 56H176V808h496v-148a16 16 0 0 1 16-16h160v-225.256a283.504 283.504 0 0 0 56-30.852V653.28a16 16 0 0 1-4.796 11.424l-198.536 194.72A16.004 16.004 0 0 1 689.464 864H136zM541.488 359.1a285.572 285.572 0 0 0 37.812 31.096l123.416 148.976L653.432 580l-119.836-144.656-112.228 86.56a32 32 0 0 1-44.88-5.796l-4.672-6.06L240 352.448l49.284-40.828 117.696 140.556 112.196-86.536a31.88 31.88 0 0 1 22.312-6.54zM996 140c0-132.548-107.452-240-240-240s-240 107.452-240 240 107.452 240 240 240 240-107.452 240-240z m-104.296 116.508c1.464 4.444-2.752 8.66-7.196 7.196l-284.596-93.912a5.696 5.696 0 0 1-2.24-9.436l72.14-72.14 91.08 44.436-44.436-91.08 71.9-71.9c3-3 8.108-1.788 9.436 2.244l93.912 284.592z"  horiz-adv-x="1024" />
      
      <glyph glyph-name="a-leixingshujubiaozhilianonyifabuon" unicode="&#59849;" d="M120 848a16 16 0 0 0 16 16h553.464c4.188 0 8.212-1.64 11.204-4.576l198.536-194.72A16 16 0 0 0 904 653.28v-265.388a283.504 283.504 0 0 1-56 30.852V644h-160a16 16 0 0 0-16 16V808H176v-728h290.284a281.92 281.92 0 0 1 22.192-56H136a16 16 0 0 0-16 16V848zM641.432 600l-119.836-144.656-112.228 86.56a32 32 0 0 1-44.88-5.796l-4.672-6.06L228 372.448l49.284-40.828 117.696 140.556 112.196-86.536a32 32 0 0 1 44.88 5.796l3.988 5.168 134.672 162.568L641.432 600zM756-100c132.548 0 240 107.452 240 240s-107.452 240-240 240-240-107.452-240-240 107.452-240 240-240z m128.508 363.704c4.444 1.464 8.66-2.752 7.196-7.196l-93.912-284.592a5.692 5.692 0 0 0-9.436-2.244l-71.9 71.9 44.436 91.08-91.08-44.436-72.14 72.14a5.696 5.696 0 0 0 2.24 9.436l284.596 93.912zM236 236a8 8 0 0 1-8-8v-48a8 8 0 0 1 8-8h224a8 8 0 0 1 8 8v48a8 8 0 0 1-8 8H236z"  horiz-adv-x="1024" />
      
      <glyph glyph-name="shouye2" unicode="&#59847;" d="M131.82 363.06l39.452 35.052v-414.464a16 16 0 0 1 16-16h232a16 16 0 0 1 16 16v134a8 8 0 0 0 8 8h140a8 8 0 0 0 8-8v-134a16 16 0 0 1 16-16h228a16 16 0 0 1 16 16V398.9l39.216-35.524a8 8 0 0 1 11.3 0.556l42.968 47.432a8 8 0 0 1-0.556 11.3L536.808 791.716a32 32 0 0 1-42.736 0.208L78.688 422.86a8 8 0 0 1-0.668-11.292l42.508-47.848a8 8 0 0 1 11.292-0.664z"  horiz-adv-x="1024" />
      
      <glyph glyph-name="a-Property1cha" unicode="&#59846;" d="M512 832c247.424 0 448-200.576 448-448s-200.576-448-448-448S64 136.576 64 384 264.576 832 512 832z m0-72c-207.66 0-376-168.34-376-376s168.34-376 376-376 376 168.34 376 376-168.34 376-376 376zM322.36 559.692a8 8 0 0 1-1.148-11.256l313.364-384.472a8.004 8.004 0 0 1 11.256-1.148l55.812 45.492a7.996 7.996 0 0 1 1.144 11.252l-313.36 384.476a8 8 0 0 1-11.256 1.144L322.36 559.692z"  horiz-adv-x="1024" />
      
      <glyph glyph-name="canshushuchu" unicode="&#59845;" d="M80 800a16 16 0 0 0 16 16h832a16 16 0 0 0 16-16V379.708a304.06 304.06 0 0 1-72 43.692V556H152v-532h320.6a304.06 304.06 0 0 1 43.692-72H96a16 16 0 0 0-16 16V800z m652-352v-0.648c-86.768-5.636-163.616-47.672-215.416-110.996A88.264 88.264 0 0 0 463.676 384H196a8 8 0 0 0-8 8v56a8 8 0 0 0 8 8h267.676c13.76 30.652 44.548 52 80.324 52 35.776 0 66.564-21.348 80.324-52H724a8 8 0 0 0 8-8z m-319.676-232h44.252A304.824 304.824 0 0 1 448 144h-35.676c-13.76-30.652-44.548-52-80.324-52-35.776 0-66.564 21.348-80.32 52H196a8 8 0 0 0-8 8v56a8 8 0 0 0 8 8h55.68c13.756 30.652 44.544 52 80.32 52 35.776 0 66.564-21.348 80.324-52zM992 144c0-132.548-107.452-240-240-240s-240 107.452-240 240 107.452 240 240 240 240-107.452 240-240z m-261.808-85.356a8 8 0 0 1 0-11.312l33.94-33.94a8 8 0 0 1 11.312 0l120.82 120.82a16 16 0 0 1 0 22.624l-120.82 120.82a8 8 0 0 1-11.312 0l-33.94-33.94a8 8 0 0 1 0-11.312l49.088-49.092H608a8 8 0 0 1-8-8v-56a8 8 0 0 1 8-8h174.856l-52.664-52.668z"  horiz-adv-x="1024" />
      
      <glyph glyph-name="wenjianshuru" unicode="&#59844;" d="M99.5 760A19.5 19.5 0 0 1 80 740.5V284.4l36.884 204.92a68.256 68.256 0 0 0 67.176 56.164h676V623.488a19.5 19.5 0 0 1-19.5 19.504h-291.9a39.012 39.012 0 0 0-26.456 10.344l-104.348 96.32A39 39 0 0 1 391.4 760H99.5z m84.56-263.264c-9.44 0-17.52-6.76-19.192-16.048L84.132 32.152a19.5 19.5 0 0 1 19.192-22.956h411.656C563.352-66.108 647.848-116 744-116c150.22 0 272 121.78 272 272 0 81.532-35.872 154.688-92.696 204.54l20.38 113.24c2.156 11.96-7.04 22.956-19.192 22.956H184.06zM744-52c-114.876 0-208 93.124-208 208s93.124 208 208 208 208-93.124 208-208-93.124-208-208-208z m-83.192 197.9l132.628 139.648a33.576 33.576 0 0 0 47.488 1.208l45.388-47.432c12.52-13.068 12.408-33.732-0.256-46.684l-139.824-143.044-92.012-32.004a28.772 28.772 0 0 0-37.916 23.028 28.76 28.76 0 0 0 2.456 16.46l42.048 88.82z m181.18 70.34l-24.176 25.328-116.94-123.096-19.168-40.496 38.136 13.24 122.148 125.024z"  horiz-adv-x="1024" />
      
      <glyph glyph-name="peizhiguanli" unicode="&#59843;" d="M653.504 830.848a444.608 444.608 0 0 0 211.968-125.952c12.16-12.992 14.016-32.896 4.288-48-15.808-24.256-16.768-55.68-2.432-80.96h-70.08a162.176 162.176 0 0 0 3.968 103.936 381.952 381.952 0 0 1-136.576 81.28 151.808 151.808 0 0 0-241.28 0 382.272 382.272 0 0 1-136.576-81.28 161.92 161.92 0 0 0-10.176-137.152 153.344 153.344 0 0 0-110.528-77.632 412.16 412.16 0 0 1 0-162.176c46.464-7.104 87.232-35.712 110.528-77.696 23.616-41.728 27.328-92.16 10.176-137.088a382.464 382.464 0 0 1 136.512-81.216 151.872 151.872 0 0 0 241.344 0l13.248 4.928-16.128-72.448a437.056 437.056 0 0 0-8.256-2.24 36.992 36.992 0 0 0-42.56 20.224A74.112 74.112 0 0 1 544 0a74.112 74.112 0 0 1-66.944-42.688 36.928 36.928 0 0 0-42.56-20.16 443.968 443.968 0 0 0-211.968 125.888 39.232 39.232 0 0 0-4.352 48c15.872 24.448 16.768 55.488 2.496 80.896a74.24 74.24 0 0 1-69.44 38.272 37.312 37.312 0 0 0-38.272 27.84A471.872 471.872 0 0 0 96 384c0 42.56 5.632 84.928 16.96 125.888a36.864 36.864 0 0 0 38.272 27.84c28.352-1.984 55.296 12.8 69.44 38.208a78.272 78.272 0 0 1-2.496 80.96 39.232 39.232 0 0 0 4.352 48 444.48 444.48 0 0 0 211.968 125.952 36.992 36.992 0 0 0 42.56-20.224c12.544-26.24 38.528-42.816 66.944-42.688 28.416-0.128 54.4 16.448 66.944 42.688a36.928 36.928 0 0 0 42.56 20.224zM544 576c57.472 0 109.12-25.28 144.32-65.28l-30.464-68.224a128 128 0 1 1-81.536-182.4L545.728 192H544a192 192 0 1 0 0 384zM833.664 503.488l0.256-199.552h118.464c6.336 0 9.856-8.192 6.016-13.76l-199.808-286.912c-4.48-6.4-13.568-2.816-13.568 5.248l-0.256 199.552H626.304c-6.4 0-9.92 8.128-6.016 13.76l199.808 286.912c4.416 6.4 13.568 2.816 13.568-5.248z"  horiz-adv-x="1024" />
      
      <glyph glyph-name="tiaoduguanli" unicode="&#59842;" d="M512 864a160 160 0 1 1 0-320 160 160 0 0 1 0 320z m0-64a96 96 0 1 0 0-192 96 96 0 0 0 0 192zM192 288a160 160 0 1 1 0-320 160 160 0 0 1 0 320z m0-64a96 96 0 1 0 0-192 96 96 0 0 0 0 192zM832 288a160 160 0 1 1 0-320 160 160 0 0 1 0 320z m0-64a96 96 0 1 0 0-192 96 96 0 0 0 0 192zM284.48 601.408l38.912-50.816c-52.992-40.576-85.12-92.16-97.28-155.968l-2.432-14.976-63.36 8.704c11.2 81.728 48.32 149.504 110.464 202.048l13.696 11.008zM711.232 601.408l-38.912-50.816c52.928-40.576 85.12-92.16 97.216-155.968l2.432-14.976 63.36 8.704c-11.2 81.728-48.256 149.504-110.4 202.048l-13.696 11.008zM396.352 11.328c68.544-28.736 140.352-33.024 216.448-12.8l17.6 5.12 19.2-61.056c-90.432-28.288-177.536-27.456-260.288 2.816l-17.664 6.912 24.704 59.008z"  horiz-adv-x="1024" />
      
      <glyph glyph-name="wenjianguanli" unicode="&#59841;" d="M864 832a64 64 0 0 0 64-64v-768a64 64 0 0 0-64-64h-704a64 64 0 0 0-64 64V768a64 64 0 0 0 64 64h704z m0-64h-64v-262.4a12.8 12.8 0 0 0-18.56-11.392l-109.44 55.488-109.44-55.488A12.8 12.8 0 0 0 544 505.6V768h-384v-768h704V768z m-128-576a32 32 0 1 0 0-64h-448a32 32 0 1 0 0 64h448z m0 160a32 32 0 1 0 0-64h-448a32 32 0 0 0 0 64h448zM448 512a32 32 0 0 0 0-64H288a32 32 0 0 0 0 64H448z m288 256h-128v-179.008l64 32.448 64-32.448V768z"  horiz-adv-x="1024" />
      
      <glyph glyph-name="lianluzhuizong" unicode="&#59840;" d="M224.384 800.384a128 128 0 0 0 123.968-96L784 704a176.064 176.064 0 0 0 10.752-351.744l-10.752-0.32H635.968a128 128 0 0 0-247.936 0H239.168a111.168 111.168 0 0 1-9.6-221.952l9.6-0.448 437.312 0.064a128 128 0 1 0-0.832-64h-436.48a175.168 175.168 0 0 0-10.624 350.016l10.624 0.32 148.928 0.128a128 128 0 0 0 247.808 0l148.096-0.128a112 112 0 0 1 9.152 223.68l-9.152 0.384-435.648 0.192a128 128 0 1 0-123.968 160.128zM800 160a64 64 0 1 1 0-128 64 64 0 0 1 0 128zM512 448a64 64 0 1 1 0-128 64 64 0 0 1 0 128zM224.384 736.384a64 64 0 1 1 0-128 64 64 0 0 1 0 128z"  horiz-adv-x="1024" />
      
      <glyph glyph-name="yinyongzhuanyi" unicode="&#59838;" d="M128 784a16 16 0 0 1-16-16v-416a16 16 0 0 1 16-16h260v64H176V720h320v-208h64V768a16 16 0 0 1-16 16H128zM588 304a8 8 0 0 0 8 8h192a8 8 0 0 0 8-8v-48a8 8 0 0 0-8-8h-192a8 8 0 0 0-8 8v48zM468 416a16 16 0 0 0 16 16h416a16 16 0 0 0 16-16v-416a16 16 0 0 0-16-16H484a16 16 0 0 0-16 16V416z m64-48v-320h320v320h-320zM240 664a8 8 0 0 1-8-8v-48a8 8 0 0 1 8-8h192a8 8 0 0 1 8 8V656a8 8 0 0 1-8 8H240zM782 712H648a8 8 0 0 0-8 8V776a8 8 0 0 0 8 8h134c72.9 0 132-59.1 132-132v-132a8 8 0 0 0-8-8h-56a8 8 0 0 0-8 8V652c0 33.136-26.864 60-60 60zM378 56H244c-33.136 0-60 26.864-60 60v132a8 8 0 0 1-8 8H120a8 8 0 0 1-8-8v-132c0-72.9 59.1-132 132-132h134a8 8 0 0 1 8 8v56a8 8 0 0 1-8 8z"  horiz-adv-x="1024" />
      
      <glyph glyph-name="guanlixitong-gonggongshujuguanli" unicode="&#59839;" d="M96 792a8 8 0 0 1-8-8v-56a8 8 0 0 1 8-8h768a8 8 0 0 1 8 8V784a8 8 0 0 1-8 8H96zM865.332 632c3.684 0 6.668-3.58 6.668-8v-100h-64V568H152v-108h240v-64H96a8 8 0 0 0-8 8V624a8 8 0 0 0 8 8h769.332zM96 316h296v-64H152v-108h240v-64H96a8 8 0 0 0-8 8v220a8 8 0 0 0 8 8zM751.076 167.432a80 80 0 1 0-113.136 113.132 80 80 0 0 0 113.136-113.132z m-79.196 33.94a32 32 0 1 1 45.256 45.26 32 32 0 0 1-45.256-45.26zM452.336 150.356a252.652 252.652 0 0 1 22.728-52.332 252.276 252.276 0 0 1 33.76-45.884c2.596-2.8 6.816-3.212 10.184-1.412a75.116 75.116 0 0 0 73.068-1.232 75.504 75.504 0 0 0 28.556-29.4 75.836 75.836 0 0 0 9.088-33.516c0.128-3.796 2.576-7.224 6.276-8.084a250.052 250.052 0 0 1 113.036-0.048c3.704 0.86 6.156 4.292 6.284 8.092a75.768 75.768 0 0 0 9.076 33.512 75.476 75.476 0 0 0 28.54 29.416 75.08 75.08 0 0 0 73.08 1.252c3.364-1.796 7.58-1.384 10.176 1.412a251.912 251.912 0 0 1 56.456 98.26c1.1 3.632-0.636 7.46-3.856 9.476a75.46 75.46 0 0 0-24.368 24.652 75.804 75.804 0 0 0 0.032 79.008 75.372 75.372 0 0 0 24.376 24.628c3.22 2.016 4.964 5.852 3.856 9.484a251.848 251.848 0 0 1-22.736 52.336 251.668 251.668 0 0 1-33.76 45.888c-2.596 2.8-6.812 3.212-10.18 1.408a75.124 75.124 0 0 0-73.072 1.232 75.464 75.464 0 0 0-28.552 29.4 75.788 75.788 0 0 0-9.092 33.516c-0.128 3.796-2.576 7.224-6.276 8.084a250.052 250.052 0 0 1-113.036 0.048c-3.704-0.86-6.156-4.292-6.284-8.092a75.76 75.76 0 0 0-9.072-33.512 75.488 75.488 0 0 0-28.544-29.416 75.148 75.148 0 0 0-73.08-1.252c-3.364 1.796-7.58 1.384-10.176-1.412a251.912 251.912 0 0 1-56.456-98.26c-1.1-3.632 0.64-7.46 3.856-9.476a75.424 75.424 0 0 0 24.368-24.652 75.792 75.792 0 0 0-0.028-79.008 75.464 75.464 0 0 0-24.372-24.624c-3.228-2.016-4.968-5.856-3.856-9.492z m257.68-117.524a182.48 182.48 0 0 0-35.04 0.024c-8.956 28.052-27.684 51.72-52.592 66.468-24.888 14.768-54.212 19.588-82.348 13.532a196.476 196.476 0 0 0-17.528 31.144c18.768 21.524 29.756 49.768 29.756 80 0.02 29.52-10.576 58.004-29.756 80a192.776 192.776 0 0 0 17.484 31.144c28.152-6.06 57.492-1.232 82.392 13.556 24.916 14.744 43.652 38.412 52.616 66.468a182.44 182.44 0 0 0 35.036-0.024c8.956-28.052 27.684-51.72 52.592-66.468 24.888-14.768 54.212-19.588 82.348-13.532a196.184 196.184 0 0 0 17.532-31.144c-18.772-21.524-29.756-49.768-29.756-80-0.02-29.52 10.576-58.004 29.756-80a192.172 192.172 0 0 0-17.484-31.144c-28.156 6.06-57.496 1.232-82.396-13.556-24.916-14.744-43.652-38.412-52.612-66.468z"  horiz-adv-x="1024" />
      
      </font>
</defs>
</svg>
