<?xml version="1.0" standalone="no"?>
<!DOCTYPE svg PUBLIC "-//W3C//DTD SVG 1.1//EN" "http://www.w3.org/Graphics/SVG/1.1/DTD/svg11.dtd" >
<svg xmlns="http://www.w3.org/2000/svg">
  <metadata>Created by iconfont</metadata>
  <defs>
  <font id="iconfont" horiz-adv-x="1024">
    <font-face
      font-family="iconfont"
      font-weight="400"
      font-stretch="normal"
      units-per-em="1024"
      ascent="896"
      descent="-128"
    />
      <missing-glyph />
      
      <glyph glyph-name="a-Property1guolvduoseoff" unicode="&#59749;" d="M160 784c-26.508 0-48-21.492-48-48v-41.372a16 16 0 0 1 4.688-11.316L404 396v-364c0-26.508 21.492-48 48-48h112c26.508 0 48 21.492 48 48v356l295.312 295.312A15.988 15.988 0 0 1 912 694.628V736c0 26.508-21.492 48-48 48H160z m-4.036-69.696c-0.18 20.452-0.192 21.696 24.04 21.696H844c14.268 0 20.392 0 22.892-3.012 2.76-3.32 1.108-10.304 1.108-24.988l-304-296v-352c0-2.224 0.02-4.332 0.036-6.324 0.18-21.712 0.248-29.676-24.036-29.676h-64c-24.284 0-24.216 7.964-24.032 29.676 0.016 1.992 0.032 4.1 0.032 6.324v352L156 708c0 2.28-0.016 4.376-0.036 6.304z"  horiz-adv-x="1024" />
      
      <glyph glyph-name="a-Property1paixuduoseoff" unicode="&#59748;" d="M756 655.544l-76.4-76.4-39.6 39.596 118.796 118.792c0.42 0.42 0.848 0.828 1.284 1.22a32 32 0 0 0 45.128-0.128L924 619.828l-39.596-39.6L812 652.636v-509.04l72.404 72.404 39.596-39.6-118.792-118.792a33.492 33.492 0 0 0-1.288-1.22 32.004 32.004 0 0 0-45.128 0.128L640 175.308l39.596 39.596 76.404-76.4V655.544zM136 624a16 16 0 0 0-16 16v24a16 16 0 0 0 16 16h368a16 16 0 0 0 16-16v-24a16 16 0 0 0-16-16H136zM136 76a16 16 0 0 0-16 16v24a16 16 0 0 0 16 16h368a16 16 0 0 0 16-16v-24a16 16 0 0 0-16-16H136zM136 352a16 16 0 0 0-16 16v24a16 16 0 0 0 16 16h464a16 16 0 0 0 16-16v-24a16 16 0 0 0-16-16H136z"  horiz-adv-x="1024" />
      
      <glyph glyph-name="a-Property1shujuduoseoff" unicode="&#59527;" d="M883.976 607.408C881.628 705.128 715.988 784 512 784S142.372 705.128 140.024 607.408H140V148.8c0-32.648 15.64-44.512 37.232-66.34 21.44-21.672 50.588-39.452 83.612-53.572C327.032 0.588 415.856-16 512-16s184.968 16.588 251.156 44.884c33.024 14.12 62.168 31.9 83.612 53.572 21.596 21.828 37.232 33.692 37.232 66.34V607.408h-0.024z m-125.352-76.16c-55.132-26.484-152.58-44.952-246.624-44.952-94.044 0-191.492 18.468-246.624 44.952C204.704 560.392 199.24 601.908 199.24 605.308c0 3.4 5.468 44.916 66.14 74.06C320.508 705.848 417.96 724.32 512 724.32c94.044 0 191.492-18.472 246.624-44.952 60.672-29.144 66.14-70.664 66.14-74.06 0-3.4-5.468-44.92-66.14-74.06z m66.14-33.708v-123.336c0-6.828-3.076-16.572-15.324-28.952-12.396-12.532-32.224-25.552-59.712-37.304-54.832-23.444-149.2-38.856-237.728-38.856-88.528 0-182.896 15.412-237.732 38.856-27.484 11.752-47.312 24.772-59.708 37.304-12.248 12.38-15.324 22.124-15.324 28.952V497.54c67.92-43.088 191.576-70.928 312.764-70.928 121.192 0 244.844 27.84 312.764 70.928z m0-219.636v-129.108c0-6.828-3.076-16.572-15.324-28.952-12.396-12.532-32.224-25.556-59.712-37.308-54.832-23.44-149.2-38.856-237.728-38.856-88.528 0-182.896 15.416-237.732 38.856-27.484 11.752-47.312 24.776-59.708 37.308-12.248 12.38-15.324 22.124-15.324 28.952v129.108c13.952-8.78 29.304-16.64 45.608-23.608 66.188-28.3 171.012-44.888 267.156-44.888s200.968 16.588 267.156 44.888c16.304 6.968 31.656 14.828 45.608 23.608z"  horiz-adv-x="1024" />
      
      <glyph glyph-name="Mysql1" unicode="&#59787;" d="M618.336 301.76c0-29.312 4.32-50.56 12.992-63.808 8-12.256 20.608-18.4 37.76-18.4 32.736 0.032 49.088 25.824 49.088 77.408 0 28.896-4.352 49.984-12.992 63.2-8 12.256-20.608 18.368-37.728 18.368-32.736 0-49.12-25.6-49.12-76.768zM512-128c282.784 0 512 229.216 512 512S794.784 896 512 896 0 666.784 0 384c0-63.04 11.392-123.424 32.224-179.2 2.24 69.44 7.456 134.688 15.616 195.712H92.16l51.68-149.344h0.32l51.936 149.344h42.464c9.312-74.048 14.816-141.792 16.48-203.232H219.328a1782.88 1782.88 0 0 1-10.496 161.952h-0.32l-54.496-161.952H126.72L72.64 359.232h-0.32a2505.984 2505.984 0 0 1-7.648-161.952h-29.536C109.76 6.848 295.104-128 512-128z m-159.232 311.36c-18.56-26.24-38.976-39.36-61.152-39.36-5.92 0-13.184 1.696-21.856 5.056v18.112c4.928-0.64 9.92-0.96 14.88-0.896 10.368 0 18.72 2.688 25.056 8.096 7.584 6.624 11.392 14.08 11.392 22.304 0 5.632-2.976 17.152-8.896 34.592L272.896 347.2h35.2l28.192-86.688c6.336-19.648 8.96-33.408 7.936-41.28 15.424 39.168 26.208 81.824 32.32 128h33.92c-14.592-75.2-33.824-129.792-57.696-163.84z m194.56 27.776c-13.28-11.008-31.136-16.512-53.504-16.512-20.96 0-41.28 6.304-60.864 18.976l9.184 17.44c16.928-8 32.224-12.032 45.952-12.032 12.864 0 22.976 2.72 30.272 8.128a27.2 27.2 0 0 1 11.616 22.56c0 12.064-8.832 22.4-25.088 31.04-15.008 7.84-45.024 24.16-45.024 24.16-16.224 11.264-24.384 23.328-24.384 43.232 0 16.448 6.08 29.76 18.208 39.904 12.16 10.144 27.84 15.2 47.04 15.232 19.904 0 37.952-5.024 54.208-15.04l-8.288-17.472a109.664 109.664 0 0 1-41.184 8.416c-10.976 0-19.424-2.528-25.344-7.552a24.672 24.672 0 0 1-9.6-19.232c0-12.064 9.056-22.496 25.76-31.296 15.2-7.84 45.92-24.48 45.92-24.48 16.704-11.232 25.024-23.232 25.024-42.944l0.064-0.064c0-17.216-6.656-31.36-19.968-42.464z m172.064-0.352l39.36-18.4-0.032-0.032-13.952-22.848-51.2 28.32a103.52 103.52 0 0 0-28.032-3.584c-27.264 0-47.68 7.52-61.12 22.592-14.816 16.64-22.208 42.88-22.208 78.56 0 36.352 8.32 63.84 25.024 82.496 15.232 17.056 36.48 25.6 63.712 25.6 55.584 0 83.36-33.6 83.36-100.864 0-36.544-8.352-64.128-25.056-82.784a71.264 71.264 0 0 0-9.856-9.056z m65.952-13.504v203.232h34.24v-178.24h67.488v-25.024h-101.696z m131.84 0h-5.664l0.032 0.032v20.704h-7.712v4.224h20.8v-4.256h-7.456v-20.704z m42.816 0h-5.376v18.976l-7.456-18.976h-3.84l-7.456 18.976h-0.32v-18.976h-5.024v24.896h7.744l7.136-16.96 6.56 16.96H960v-24.896z m-42.144 241.632c-0.576 3.328-7.232 7.264-12.096 10.144-1.664 0.96-3.136 1.824-4.064 2.496-7.552 5.152-15.488 10.528-23.488 15.2a58.08 58.08 0 0 1-9.856 3.936 92.896 92.896 0 0 0-6.336 2.304 90.048 90.048 0 0 1-7.168 2.24c-6.56 1.856-14.304 4.032-16.768 7.36-6.4 7.904-10.88 17.472-15.36 27.04l-1.312 2.848a500 500 0 0 1-7.456 15.264 458.08 458.08 0 0 0-8.512 17.536c-1.152 2.336-2.016 4.576-2.88 6.72-1.056 2.816-2.144 5.568-3.712 8.448a202.112 202.112 0 0 1-73.28 76.32 152.928 152.928 0 0 1-33.792 15.392 53.344 53.344 0 0 1-12.352 1.44c-3.616 0.16-7.232 0.32-10.688 1.024h-4.96a21.504 21.504 0 0 0-7.744 4.96c-1.152 0.96-2.24 1.888-3.296 2.624a122.976 122.976 0 0 1-23.232 11.168c-3.04 1.312-11.744 4.416-14.784 1.984-1.856-0.416-2.816-1.088-3.264-2.88-1.888-2.656-0.224-6.688 0.96-9.152 2.304-4.736 5.28-8.192 8.32-11.744 1.536-1.824 3.072-3.648 4.608-5.664l2.336-3.104c3.424-4.512 7.136-9.344 9.408-14.08 3.232-6.624 5.568-13.664 7.872-20.672 2.016-6.144 4.064-12.288 6.72-18.144 2.048-4.672 5.344-10.016 8.416-14.272 0.96-1.28 2.24-2.368 3.488-3.52 2.144-1.92 4.32-3.84 5.216-6.528 2.24-3.616-1.92-13.952-4.48-20.224l-1.408-3.648c-6.112-18.304-4.928-43.744 2.112-59.584l0.768-1.728c2.56-5.824 5.312-12.064 12.16-13.664l0.256 0.32 0.64 0.128 0.96 7.68c1.088 9.472 2.112 18.432 5.632 26.016 1.696 3.936 4.48 7.104 7.2 10.208 1.44 1.632 2.88 3.264 4.096 4.96 1.504-0.864 2.048-2.816 2.624-4.8 0.32-1.12 0.64-2.272 1.12-3.232l0.576-1.28c2.88-6.56 6.016-13.632 9.568-20.16 7.712-14.24 16.416-28.096 26.304-40.608 3.296-4.416 8-9.344 12.224-13.376 0.64-0.512 1.28-0.96 1.952-1.408 1.28-0.864 2.496-1.696 3.424-3.04h0.448v-0.64c-4.48 1.568-7.936 4.928-11.296 8.224a53.728 53.728 0 0 1-5.824 5.152c-10.56 7.584-23.264 18.976-30.56 29.888a450.656 450.656 0 0 1-9.632 18.56v0.416c-0.896-1.12-1.024-2.24-1.184-3.616a18.304 18.304 0 0 0-0.448-2.624c-0.864-3.2-1.312-6.464-1.728-9.664-1.056-8-2.016-15.36-9.568-18.24-12-4.672-20.928 7.616-24.64 13.184-12 18.528-15.296 49.76-6.848 74.976 0.64 1.92 1.088 3.968 1.568 6.048 0.832 3.872 1.696 7.744 3.84 10.688-0.48 2.688-2.08 4.064-3.68 5.44-0.8 0.64-1.568 1.312-2.208 2.144a106.56 106.56 0 0 0-8.64 13.824 176.512 176.512 0 0 0-9.664 22.944l-2.56 6.976a47.04 47.04 0 0 0-1.92 5.888 42.08 42.08 0 0 1-1.888 5.952 74.88 74.88 0 0 1-9.28 13.344l-2.688 3.36c-0.896 1.28-2.112 2.72-3.456 4.32-6.624 7.904-16.64 19.808-11.328 31.84 9.856 23.008 44.384 5.6 57.792-2.432 1.312-0.832 2.72-2.016 4.16-3.2a28.608 28.608 0 0 1 6.624-4.64c3.072-0.096 6.176-0.256 9.248-0.448 2.784-0.16 5.568-0.32 8.384-0.416l3.168-0.704c9.824-2.176 19.04-4.224 26.88-8.448 40.448-22.528 66.688-45.504 90.912-83.456 3.328-5.12 5.568-10.528 7.84-16a548.736 548.736 0 0 1 23.392-48.224c0.864-1.632 1.664-3.328 2.464-4.992 2.08-4.32 4.16-8.64 7.2-12.224 1.088-1.472 3.52-2.24 5.856-3.008a26.944 26.944 0 0 0 3.296-1.216c3.072-1.536 6.4-2.88 9.76-4.256 5.12-2.112 10.24-4.224 14.656-6.912 13.632-8.032 26.816-17.6 38.784-27.424 2.4-2.048 4.384-4.576 6.4-7.04 1.696-2.144 3.392-4.288 5.344-6.144v-2.016a255.04 255.04 0 0 1-1.472-0.416c-3.296-0.96-6.56-1.92-9.824-2.688-4.096-0.992-7.968-1.376-11.776-1.792-3.872-0.384-7.68-0.768-11.712-1.76l-1.472-0.416c-4.608-1.28-10.048-2.784-14.72-3.2l0.48-0.448c2.24-6.08 11.84-11.36 19.712-15.68 2.784-1.504 5.344-2.88 7.296-4.16 9.28-6.304 17.536-13.888 24.416-22.528l3.296-3.008 3.776-3.456c0.768-1.088 1.28-2.304 1.792-3.52 0.544-1.28 1.088-2.56 1.92-3.616v-0.672c-2.048 0.672-3.456 2.08-4.832 3.456a19.392 19.392 0 0 1-2.656 2.336c-2.24 1.44-4.48 3.008-6.72 4.576a150.048 150.048 0 0 1-8.8 5.888c-4.512 2.752-9.44 4.896-14.4 7.04-4.736 2.112-9.504 4.192-14.016 6.816-5.12 3.104-10.048 6.656-14.944 10.208l-0.096 0.064a52.416 52.416 0 0 0-12.192 13.6 16.416 16.416 0 0 0-1.6 3.296c-0.544 1.472-1.088 2.848-2.176 3.84 0.384 3.136 3.584 3.936 6.656 4.704 1.056 0.256 2.08 0.544 2.976 0.864 12.16 4.928 26.72 6.72 45.44 6.24zM668.8 631.744c3.136 0.768 6.368 1.152 9.6 1.12 0.768-0.672 1.664-1.28 2.592-1.92 1.44-0.896 2.912-1.856 3.776-3.2 0.512-0.704 0.864-1.408 1.184-2.112 0.416-0.864 0.832-1.728 1.6-2.592 0-5.376-1.6-8.96-4.928-11.168l-0.448-0.448a229.952 229.952 0 0 0-2.56 5.12 202.624 202.624 0 0 1-2.88 5.6 39.936 39.936 0 0 1-3.04 3.52c-1.632 1.728-3.296 3.488-4.48 5.632H668.8v0.448z"  horiz-adv-x="1024" />
      
      <glyph glyph-name="Mysql" unicode="&#59786;" d="M512-128c282.784 0 512 229.216 512 512S794.784 896 512 896 0 666.784 0 384s229.216-512 512-512z m315.776 630.848l-236.384-273.472a6.4 6.4 0 0 0-9.504-0.192l-167.808 178.304a6.4 6.4 0 0 1-9.024 0.32l-169.984-158.016a6.4 6.4 0 0 0-8.992 0.288l-29.632 31.36a6.4 6.4 0 0 0 0.288 9.056l210.976 196.16a6.4 6.4 0 0 0 9.024-0.32l163.392-173.6a6.4 6.4 0 0 1 9.504 0.192l195.52 226.24a6.4 6.4 0 0 0 9.024 0.704l32.896-27.968a6.4 6.4 0 0 0 0.704-9.056z"  horiz-adv-x="1024" />
      
      <glyph glyph-name="a-typeguandaorenwustatenormal" unicode="&#59785;" d="M128 808a16 16 0 0 1-16-16v-816a16 16 0 0 1 16-16h224a16 16 0 0 1 16 16v216h59.16c24.3 0 44-19.7 44-44 0-64.064 51.936-116 116-116H656v-56a16 16 0 0 1 16-16h224a16 16 0 0 1 16 16V792a16 16 0 0 1-16 16h-224a16 16 0 0 1-16-16v-216h-68.84c-24.3 0-44 19.7-44 44 0 64.064-51.936 116-116 116H368V792a16 16 0 0 1-16 16H128z m528-704h-68.84c-24.3 0-44 19.7-44 44 0 64.064-51.936 116-116 116H368v164h59.16c24.3 0 44-19.7 44-44 0-64.064 51.936-116 116-116H656v-164z m-228.84 396H368V664h59.16c24.3 0 44-19.7 44-44 0-64.064 51.936-116 116-116H656v-164h-68.84c-24.3 0-44 19.7-44 44 0 64.064-51.936 116-116 116z"  horiz-adv-x="1024" />
      
      <glyph glyph-name="yingyongguanli" unicode="&#59784;" d="M756.138667 359.594667c6.058667 0 11.008-4.778667 11.221333-10.794667 0.597333-14.506667 3.541333-33.024 14.293333-38.101333 12.202667-5.802667 32.768 5.205333 41.813334 11.349333l2.346666 1.664 2.389334 1.365333a11.221333 11.221333 0 0 0 10.325333-0.853333l2.133333-1.792 39.253334-41.344a11.264 11.264 0 0 0 1.024-14.250667c-8.661333-12.074667-17.792-29.098667-12.245334-41.088 6.314667-13.824 30.464-18.986667 38.4-19.712 4.864-0.426667 8.746667-3.882667 9.898667-8.405333l0.341333-2.816v-54.485333c0-5.802667-4.437333-10.666667-10.24-11.178667-7.936-0.725333-32.085333-5.888-38.4-19.712-4.906667-10.666667 1.749333-25.258667 9.386667-36.906667l2.858667-4.224 1.450666-2.773333a11.221333 11.221333 0 0 0-0.938666-9.386667l-1.536-2.048-39.253334-41.386666a11.221333 11.221333 0 0 0-14.848-1.194667c-7.210667 5.376-30.72 19.370667-44.16 12.970667-9.557333-4.522667-12.928-19.626667-13.994666-33.152l-0.298667-4.949334-0.341333-2.517333a11.264 11.264 0 0 0-7.893334-7.893333l-2.986666-0.426667h-61.610667a11.221333 11.221333 0 0 0-11.221333 10.837333c-0.554667 14.549333-3.541333 32.981333-14.293334 38.101334-12.16 5.802667-32.725333-5.205333-41.813333-11.306667l-2.346667-1.706667-2.389333-1.365333a11.221333 11.221333 0 0 0-10.325333 0.853333l-2.133334 1.792-39.253333 41.386667a11.221333 11.221333 0 0 0-0.981333 14.165333c8.618667 12.117333 17.749333 29.056 12.245333 41.088-5.546667 12.288-24.874667 17.706667-35.114667 19.328l-3.370666 0.426667-2.773334 0.597333a11.221333 11.221333 0 0 0-7.082666 7.765334l-0.341334 2.816v54.485333c0 5.802667 4.437333 10.666667 10.24 11.178667 8.533333 0.853333 32.170667 5.973333 38.442667 19.754666 4.864 10.709333-1.792 25.301333-9.386667 36.906667l-2.858666 4.181333-1.450667 2.816a11.264 11.264 0 0 0 0.938667 9.429334l1.536 2.005333 39.253333 41.386667a11.221333 11.221333 0 0 0 14.805333 1.237333c7.253333-5.418667 30.805333-19.413333 44.16-13.013333 9.557333 4.522667 12.970667 19.626667 13.994667 33.152l0.298667 4.949333 0.384 2.474667a11.221333 11.221333 0 0 0 7.850666 7.893333l2.986667 0.426667h61.610667zM426.666667 341.333333a42.666667 42.666667 0 0 0 42.666666-42.666666v-256a42.666667 42.666667 0 0 0-42.666666-42.666667H170.666667a42.666667 42.666667 0 0 0-42.666667 42.666667v256a42.666667 42.666667 0 0 0 42.666667 42.666666h256z m298.666666-86.485333a87.381333 87.381333 0 0 1-87.253333-87.253333c0-48.128 39.168-87.296 87.296-87.296a87.338667 87.338667 0 0 1 87.253333 87.296A87.381333 87.381333 0 0 1 725.333333 254.848zM426.666667 768a42.666667 42.666667 0 0 0 42.666666-42.666667v-256a42.666667 42.666667 0 0 0-42.666666-42.666666H170.666667a42.666667 42.666667 0 0 0-42.666667 42.666666V725.333333a42.666667 42.666667 0 0 0 42.666667 42.666667h256z m426.666666 0a42.666667 42.666667 0 0 0 42.666667-42.666667v-256a42.666667 42.666667 0 0 0-42.666667-42.666666h-256a42.666667 42.666667 0 0 0-42.666666 42.666666V725.333333a42.666667 42.666667 0 0 0 42.666666 42.666667h256z"  horiz-adv-x="1024" />
      
      <glyph glyph-name="chaifenhang" unicode="&#59774;" d="M830.72 280c7.336 0 13.28-7.164 13.28-16v-240h-48v208H228v-208H180v240c0 8.836 5.944 16 13.28 16h637.44zM193.28 488c-7.336 0-13.28 7.164-13.28 16V744h664v-240c0-8.836-5.944-16-13.28-16H193.28zM796 744H228v-208h568V744zM160 400a8 8 0 0 0 8 8h112a8 8 0 0 0 8-8v-40a8 8 0 0 0-8-8H168a8 8 0 0 0-8 8v40zM352 400a8 8 0 0 0 8 8h112a8 8 0 0 0 8-8v-40a8 8 0 0 0-8-8H360a8 8 0 0 0-8 8v40zM544 400a8 8 0 0 0 8 8h112a8 8 0 0 0 8-8v-40a8 8 0 0 0-8-8h-112a8 8 0 0 0-8 8v40zM736 400a8 8 0 0 0 8 8h112a8 8 0 0 0 8-8v-40a8 8 0 0 0-8-8h-112a8 8 0 0 0-8 8v40z"  horiz-adv-x="1024" />
      
      <glyph glyph-name="a-fangxiangzuoxia" unicode="&#59783;" d="M753.1 707.328a8 8 0 0 1-11.316 0L351.64 317.184v282.72a8 8 0 0 1-8 8h-112a8 8 0 0 1-8-8v-496a8 8 0 0 1 8-8.004h496a8 8 0 0 1 8 8v112a8 8 0 0 1-8 8h-288.264l392.92 392.92a8 8 0 0 1 0 11.312l-79.196 79.2z"  horiz-adv-x="1024" />
      
      <glyph glyph-name="kefu" unicode="&#59782;" d="M204 508c0 154.64 125.36 280 280 280h56c154.64 0 280-125.36 280-280v-60h92c26.508 0 48-21.492 48-48v-176c0-26.508-21.492-48-48-48h-108c-26.508 0-48 21.492-48 48v176c0 2.724 0.228 5.4 0.664 8H756v76c0 132.548-107.452 240-240 240h-8c-132.548 0-240-107.452-240-240v-248c0-87.944 70.952-159.316 158.732-159.996 6.592 18.64 24.372 31.996 45.268 31.996h104c26.508 0 48-21.492 48-48v-32c0-26.508-21.492-48-48-48h-104c-20.9 0-38.68 13.356-45.268 32H404c-98.168 0-179.816 70.724-196.768 164H112c-26.508 0-48 21.492-48 48v176c0 26.508 21.492 48 48 48h92V508z m0-124v-144H128v144h76z m616 0h76v-144h-76v144z"  horiz-adv-x="1024" />
      
      <glyph glyph-name="jisuanziduan" unicode="&#59779;" d="M280 112a8 8 0 0 0-8 8v168H120a8 8 0 0 0-8 8v64a8 8 0 0 0 8 8h152V532H120a8 8 0 0 0-8 8V604a8 8 0 0 0 8 8h152V776a8 8 0 0 0 8 8h64a8 8 0 0 0 8-8v-164h220V776a8 8 0 0 0 8 8h64a8 8 0 0 0 8-8v-164h156a8 8 0 0 0 8-8v-64a8 8 0 0 0-8-8h-156v-46.2a307.76 307.76 0 0 1-80-28.164V532H352v-164h113.976a309.356 309.356 0 0 1-43.38-80H352v-168a8 8 0 0 0-8-8H280zM468 182.696C468 318.172 577.828 428 713.304 428c135.48 0 245.304-109.828 245.304-245.304 0-135.48-109.824-245.304-245.304-245.304-14.764 0-29.22 1.304-43.268 3.804 0.408 0.632 0.728 1.332 0.948 2.084l7.004 24.08 44.216 201.856h82.84a8 8 0 0 1 8 8v37.916a8 8 0 0 1-8 8h-71.032l9.3 42.456c7.732 26.588 32.932 44.968 61.644 44.968h38.632a8 8 0 0 1 8 8v36.748a8 8 0 0 1-8 8h-38.632c-53.324 0-100.124-34.14-114.48-83.512l-12.664-56.66h-67.028a8 8 0 0 1-8-8v-37.916a8 8 0 0 1 8-8h54.98l-43.524-194.752-5.144-17.488C529.44-5.612 468 81.368 468 182.696z"  horiz-adv-x="1024" />
      
      <glyph glyph-name="jisuanziduan-2" unicode="&#59780;" d="M428.236 61.628C230.716 79.676 76 245.772 76 448c0 214.288 173.712 388 388 388 198.112 0 361.544-148.48 385.088-340.228h-55.58v-14.06a314.372 314.372 0 0 1-15.7 3.716C759.296 642.308 625.86 764 464 764c-174.52 0-316-141.48-316-316 0-155.14 111.8-284.172 259.228-310.916a307.964 307.964 0 0 1 21.008-75.456zM554.712 448a311.58 311.58 0 0 1-88.736-80H392a8 8 0 0 0-8 8V648a8 8 0 0 0 8 8h64a8 8 0 0 0 8-8v-200h90.712zM468 182.696C468 318.172 577.828 428 713.304 428c135.48 0 245.304-109.828 245.304-245.304 0-135.48-109.824-245.304-245.304-245.304-14.764 0-29.22 1.304-43.268 3.804 0.408 0.632 0.728 1.332 0.948 2.084l7.004 24.08 44.216 201.856h82.84a8 8 0 0 1 8 8v37.916a8 8 0 0 1-8 8h-71.032l9.3 42.456c7.732 26.588 32.932 44.968 61.644 44.968h38.632a8 8 0 0 1 8 8v36.748a8 8 0 0 1-8 8h-38.632c-53.324 0-100.124-34.14-114.48-83.512l-12.664-56.66h-67.028a8 8 0 0 1-8-8v-37.916a8 8 0 0 1 8-8h54.98l-43.524-194.752-5.144-17.488C529.44-5.612 468 81.368 468 182.696z"  horiz-adv-x="1024" />
      
      <glyph glyph-name="jisuanziduan-1" unicode="&#59781;" d="M112 756a8 8 0 0 0 8 8h688a8 8 0 0 0 8-8v-64a8 8 0 0 0-8-8h-304v-273.964a310.444 310.444 0 0 1-80-118.256V684H120a8 8 0 0 0-8 8V756zM468 182.696C468 318.172 577.828 428 713.304 428c135.48 0 245.304-109.828 245.304-245.304 0-135.48-109.824-245.304-245.304-245.304-14.764 0-29.22 1.304-43.268 3.804 0.408 0.632 0.728 1.332 0.948 2.084l7.004 24.08 44.216 201.856h82.84a8 8 0 0 1 8 8v37.916a8 8 0 0 1-8 8h-71.032l9.3 42.456c7.732 26.588 32.932 44.968 61.644 44.968h38.632a8 8 0 0 1 8 8v36.748a8 8 0 0 1-8 8h-38.632c-53.324 0-100.124-34.14-114.48-83.512l-12.664-56.66h-67.028a8 8 0 0 1-8-8v-37.916a8 8 0 0 1 8-8h54.98l-43.524-194.752-5.144-17.488C529.44-5.612 468 81.368 468 182.696z"  horiz-adv-x="1024" />
      
      <glyph glyph-name="a-Property1xinzengfuzhilie" unicode="&#59777;" d="M904.04 582.0799999999999a7.04 7.04 0 0 1-7.04 7.04h-239.36a7.04 7.04 0 0 1-7.04-7.04v-43.2c0-3.888 3.152-7.04 7.04-7.04h239.36a7.04 7.04 0 0 1 7.04 7.04v43.2zM904.04 423.68a7.04 7.04 0 0 1-7.04 7.04h-239.36a7.04 7.04 0 0 1-7.04-7.04v-43.2c0-3.888 3.152-7.04 7.04-7.04h239.36a7.04 7.04 0 0 1 7.04 7.04v43.2zM123.048 32h41.34a7.04 7.04 0 0 1 6.532 4.42l102.732 256.06h290.832l102.732-256.06a7.032 7.032 0 0 1 6.532-4.42h41.336a7.04 7.04 0 0 1 6.576 9.552l-277.632 689.92A7.04 7.04 0 0 1 437.452 736h-37.236c-2.92 0-5.536-1.8-6.58-4.532l-277.168-689.92A7.04 7.04 0 0 1 123.048 32z m413.192 316.8H301.896L419.068 648l117.172-299.2z"  horiz-adv-x="1024" />
      
      <glyph glyph-name="shanchuzhongfuhang" unicode="&#59778;" d="M896 320a16 16 0 0 0 16-16v-264a16 16 0 0 0-16-16H128a16 16 0 0 0-16 16v264a16 16 0 0 0 16 16h768zM160 272v-200h704v200H160zM496 744a16 16 0 0 0 16-16v-264a16 16 0 0 0-16-16H112v48h352V696H112V744h384zM606.356 696.984c-2.76 2.76-2.76 7.24 0 10l27.828 27.832c2.764 2.76 7.24 2.76 10 0l233.444-233.44c2.76-2.764 2.76-7.24 0-10.004l-27.828-27.828c-2.764-2.76-7.24-2.76-10 0l-233.444 233.44zM877.628 699.812c2.76 2.76 2.76 7.24 0 10l-27.828 27.832a7.072 7.072 0 0 1-10 0l-233.444-233.44c-2.76-2.76-2.76-7.24 0-10.004l27.828-27.828c2.764-2.76 7.24-2.76 10.004 0l233.44 233.44z"  horiz-adv-x="1024" />
      
      <glyph glyph-name="a-Property1liezhuanhang" unicode="&#59770;" d="M892 20a16 16 0 0 0-16-16h-264a16 16 0 0 0-16 16V748a16 16 0 0 0 16 16h264a16 16 0 0 0 16-16v-728zM844 716h-200v-664h200V716zM149.12 4c-9.456 0-17.12 7.164-17.12 16v264c0 8.836 7.664 16 17.12 16H520v-48H180v-200h340v-48H149.12zM472.852 575.148v52h-260c-30.928 0-48-21.072-48-52v-180a8 8 0 0 1 8-8h32a8 8 0 0 1 8 8v140c0 28 8 40 40 40h220zM519.48 629.376a32 32 0 0 0 0-45.256l-16.972-16.972-135.764 135.764a8 8 0 0 0 0 11.316l28.284 28.28a8 8 0 0 0 11.312 0l113.14-113.132zM501.252 644.168l16.972-16.972a32 32 0 0 0 0-45.252L405.088 468.8a8 8 0 0 0-11.316 0l-28.28 28.284a8 8 0 0 0 0 11.316l135.76 135.764z"  horiz-adv-x="1024" />
      
      <glyph glyph-name="a-Property1hangzhuanlie" unicode="&#59771;" d="M876 300a16 16 0 0 0 16-16v-264a16 16 0 0 0-16-16H148a16 16 0 0 0-16 16v264a16 16 0 0 0 16 16h728zM180 252v-200h664v200H180zM132 726.88c0 9.456 7.16 17.12 16 17.12h264c8.836 0 16-7.664 16-17.12V356H380V696H180v-340H132V726.88zM700 420h52V680c0 30.928-21.072 48-52 48h-180a8 8 0 0 1-8-8v-32a8 8 0 0 1 8-8h140c28 0 40-8 40-40v-220zM754.228 373.37199999999996a32 32 0 0 0-45.256 0L692 390.344l135.764 135.76a8 8 0 0 0 11.316 0l28.284-28.28a8 8 0 0 0 0-11.316l-113.136-113.136zM769.02 391.6l-16.968-16.972a32 32 0 0 0-45.256 0l-113.136 113.136a8 8 0 0 0 0 11.316l28.284 28.28a8 8 0 0 0 11.312 0l135.764-135.76z"  horiz-adv-x="1024" />
      
      <glyph glyph-name="a-Property1xinzenghuizonglie" unicode="&#59772;" d="M315.32 682.568l477.66 0.26c3.876 0 7.02 3.148 7.02 7.024v35.12c0 3.884-3.148 7.032-7.028 7.028l-561.888-0.312c-3.88 0-7.02-3.148-7.02-7.024V681.08H224l261.552-293.276L224 85.75999999999999h0.332L224 43.932000000000016c0-3.88 3.144-7.024 7.02-7.024l561.952-0.316c3.88 0 7.028 3.144 7.028 7.024v35.124c0 3.876-3.144 7.02-7.02 7.024l-477.664 0.264h-14.048l258.892 296.976a7.024 7.024 0 0 1-0.06 9.548L301.476 682.332l13.84 0.236z"  horiz-adv-x="1024" />
      
      <glyph glyph-name="a-Property1xinzenggongshilie" unicode="&#59773;" d="M175.072 457.144A7.072 7.072 0 0 0 168 464.216v35.36c0 3.904 3.164 7.068 7.072 7.068h395.992c3.908 0 7.072-3.164 7.072-7.072v-35.356c0-3.904-3.164-7.072-7.072-7.072H175.072zM494.264 684.3c-32.852 0-61.684-36.02-70.532-67.66L269.624 36.851999999999975a7.076 7.076 0 0 0-6.836-5.256H217.488a7.072 7.072 0 0 0-6.812 8.968L377.42 640.612C393.848 699.3720000000001 447.4 740 508.408 740h150.472c3.904 0 7.072-3.164 7.072-7.072v-41.56c0-3.904-3.168-7.068-7.072-7.068h-164.616zM529.148 336.072c-2.76 2.76-2.76 7.24 0 10l27.832 27.828a7.068 7.068 0 0 0 10 0l290.008-290.008c2.764-2.764 2.764-7.24 0-10l-27.828-27.832c-2.76-2.76-7.24-2.76-10 0l-290.012 290.012zM856.988 338.9c2.764 2.76 2.764 7.24 0 10l-27.828 27.828a7.068 7.068 0 0 1-10 0l-290.012-290.008c-2.76-2.764-2.76-7.24 0-10l27.832-27.832c2.76-2.76 7.236-2.76 10 0l290.008 290.012z"  horiz-adv-x="1024" />
      
      <glyph glyph-name="huoqushijian" unicode="&#59775;" d="M512 784c220.916 0 400-179.088 400-400 0-220.916-179.084-400-400-400v64c189.984 0 344 152.224 344 340s-154.016 340-344 340-344-152.224-344-340c0-1.336 0.008-2.668 0.024-4H112C112 604.912 291.088 784 512 784zM520 384.008h185.144a8 8 0 0 0 8-8v-48a8 8 0 0 0-8-8H464a8 8 0 0 0-8 8V576a8 8 0 0 0 8 8h48a8 8 0 0 0 8-8v-191.992zM454.628 168.51999999999998a32.012 32.012 0 0 0 4.46-39.676 31.912 31.912 0 0 0-5.716-7.756l-113.136-113.136a8 8 0 0 0-11.316 0l-28.28 28.284a8 8 0 0 0 0 11.312l67.76 67.764H120a8 8 0 0 0-8 8v40a8 8 0 0 0 8 8h252.64l-70.748 70.748a8 8 0 0 0 0 11.312l28.284 28.284a8 8 0 0 0 11.316 0l113.136-113.136z"  horiz-adv-x="1024" />
      
      <glyph glyph-name="shijiancha" unicode="&#59776;" d="M912 382.84000000000003v2.32C911.372 605.54 732.528 784 512 784c-24.38 0-48.252-2.18-71.428-6.36v-56.98A349.292 349.292 0 0 0 512 728c189.984 0 344-152.224 344-340 0-25.924-2.936-51.168-8.496-75.428h58.14A402.6 402.6 0 0 1 912 382.84000000000003zM382.908 702.8679999999999l-21.016 51.904a399.972 399.972 0 0 1-134.992-90.2l39.916-39.28a343.952 343.952 0 0 0 116.092 77.576zM227.52 577.408L181.2 608.892a399.98 399.98 0 0 1-62.132-149.996l55.012-10.484a343.94 343.94 0 0 0 53.432 129z m-107.828-271.44a400.016 400.016 0 0 0-7.676 81.244l56-0.448a343.956 343.956 0 0 1 27.24-136.944l-51.564-21.844a399.94 399.94 0 0 0-24 77.992z m104.764-110.78l-46.812-30.736a399.856 399.856 0 0 1 114.804-114.804l30.74 46.808a344.016 344.016 0 0 0-98.732 98.732z m153.36-127.932l-21.84-51.564a399.96 399.96 0 0 1 159.236-31.672l-0.452 55.996a343.84 343.84 0 0 0-136.94 27.24z m198.596-21.168l10.484-55.008a399.968 399.968 0 0 1 149.996 62.128l-31.484 46.312a344.192 344.192 0 0 0-128.996-53.432z m176.88 92.732l39.28-39.916a399.82 399.82 0 0 1 90.2 134.996l-51.908 21.012a343.876 343.876 0 0 0-77.572-116.092zM520 384.008h185.144a8 8 0 0 0 8-8v-48a8 8 0 0 0-8-8H464a8 8 0 0 0-8 8V576a8 8 0 0 0 8 8h48a8 8 0 0 0 8-8v-191.992z"  horiz-adv-x="1024" />
      
      <glyph glyph-name="rizhichaxun1" unicode="&#59768;" d="M914.56 301.632a192 192 0 0 0 20.864-247.04l76.8-76.8a32 32 0 0 0-40.896-48.96l-4.416 3.712-76.8 76.8a192 192 0 1 0 24.512 292.288zM704 800a32 32 0 0 0 32-32v-31.296H832a128 128 0 0 0 128-128V416a32 32 0 1 0-64 0v64H128v-383.36a64 64 0 0 1 64-64h352a32 32 0 0 0 0-64H192a128 128 0 0 0-128 128v512a128 128 0 0 0 128 128l96 0.064V768a32 32 0 0 0 64 0v-31.296h320V768a32 32 0 0 0 32 32z m-15.68-543.616a128 128 0 1 1 181.056-181.056 128 128 0 0 1-181.056 181.056zM448 191.744a32 32 0 0 0 0-64H256a32 32 0 1 0 0 64h192z m128 192a32 32 0 0 0 0-64H266.688c-23.616 0-42.688 14.272-42.688 32 0 17.6 19.072 32 42.688 32H576zM288 672.64H192a64 64 0 0 1-64-64V544h768V608.64a64 64 0 0 1-64 64l-96 0.064v-32.832a32 32 0 1 0-64 0V672.64h-320v-32.832a32 32 0 1 0-64 0V672.64z"  horiz-adv-x="1024" />
      
      <glyph glyph-name="rizhifenxi" unicode="&#59769;" d="M704 800a32 32 0 0 0 32-32v-31.296H832a128 128 0 0 0 128-128v-512a128 128 0 0 0-128-128H192a128 128 0 0 0-128 128v512a128 128 0 0 0 128 128h96V768a32 32 0 0 0 64 0v-31.296h320V768a32 32 0 0 0 32 32z m192-320H128v-383.36a64 64 0 0 1 64-64h640a64 64 0 0 1 64 64.064V480z m-118.4-86.016a32 32 0 0 0 3.072-40.896l-3.776-4.352-182.528-177.088a32 32 0 0 0-39.104-4.224l-4.992 3.84-124.928 116.416-150.144-145.28a32 32 0 0 0-40.96-3.008l-4.288 3.776a32 32 0 0 0-3.072 40.832l3.84 4.416 172.032 166.4a32 32 0 0 0 39.04 4.16l4.992-3.84 124.8-116.352 160.768 155.904a32 32 0 0 0 45.248-0.704zM288 672.64H192a64 64 0 0 1-64-64V544h768V608.64a64 64 0 0 1-64 64l-96 0.064v-32.832a32 32 0 1 0-64 0V672.64h-320v-32.832a32 32 0 1 0-64 0V672.64z"  horiz-adv-x="1024" />
      
      <glyph glyph-name="zidonghuifu" unicode="&#59757;" d="M896 800a32 32 0 0 1-64 0v-107.712a444.416 444.416 0 1 1 94.464-472.448 32 32 0 1 1-59.52 23.488A380.48 380.48 0 1 0 793.344 640H672a32 32 0 0 1 0-64h192a32 32 0 0 1 32 32v192zM672.512 164.352L618.24 298.432H392.96l-54.208-134.08a6.464 6.464 0 0 0-6.016-4.032h-60.608a6.4 6.4 0 0 0-6.016 8.832l202.24 505.152a6.464 6.464 0 0 0 6.08 4.096h62.528a6.464 6.464 0 0 0 6.016-4.096l202.24-505.152a6.464 6.464 0 0 0-6.016-8.832h-60.608a6.464 6.464 0 0 0-6.016 4.032z m-81.92 203.2L505.6 578.752l-84.928-211.2h169.856z"  horiz-adv-x="1024" />
      
      <glyph glyph-name="wenjianleixing_CONF" unicode="&#59755;" d="M917.333333-85.333333a42.666667 42.666667 0 0 0-42.666666-42.666667H149.333333a42.666667 42.666667 0 0 0-42.666666 42.666667V853.333333a42.666667 42.666667 0 0 0 42.666666 42.666667h512l256-256v-725.333333zM917.333333 640H704a42.666667 42.666667 0 0 0-42.666667 42.666667V896l256-256zM332.522667 210.346667c20.48 0 37.333333 8.106667 50.346666 23.253333l-16.64 19.626667c-8.533333-9.173333-19.2-15.573333-32.64-15.573334-24.96 0-41.173333 20.693333-41.173333 55.04 0 33.92 17.92 54.4 41.813333 54.4 11.946667 0 21.12-5.546667 29.013334-13.226666l16.64 20.053333c-10.24 10.666667-26.24 20.266667-46.293334 20.266667-39.893333 0-73.386667-30.506667-73.386666-82.56 0-52.693333 32.426667-81.28 72.32-81.28z m116.608 0c41.813333 0 70.613333 31.36 70.613333 82.56 0 51.2-28.8 81.28-70.613333 81.28s-70.613333-29.866667-70.613334-81.28c0-51.2 28.8-82.56 70.613334-82.56z m0 27.306666c-23.466667 0-38.4 21.546667-38.4 55.253334 0 33.92 14.933333 54.186667 38.4 54.186666s38.4-20.266667 38.4-54.186666c0-33.706667-14.933333-55.253333-38.4-55.253334zM567.04 213.333333v63.36c0 18.133333-2.346667 37.973333-3.84 55.04h1.066667l16-33.92L625.92 213.333333h32v157.866667h-29.866667v-62.933333c0-17.92 2.346667-38.826667 4.053334-55.253334h-1.066667l-15.786667 34.133334-45.866666 84.053333h-32.213334V213.333333h29.866667z m147.989333 0v64h56.106667v26.453334h-56.106667v41.173333h65.706667V371.2h-97.28V213.333333h31.573333z"  horiz-adv-x="1024" />
      
      <glyph glyph-name="wenjianleixing_KEYTAB" unicode="&#59756;" d="M917.333333-85.333333a42.666667 42.666667 0 0 0-42.666666-42.666667H149.333333a42.666667 42.666667 0 0 0-42.666666 42.666667V853.333333a42.666667 42.666667 0 0 0 42.666666 42.666667h512l256-256v-725.333333zM917.333333 640H704a42.666667 42.666667 0 0 0-42.666667 42.666667V896l256-256zM201.92 213.333333v44.373334l20.693333 26.453333 40.746667-70.826667h34.773333l-56.746666 95.786667 48.213333 62.08h-34.773333l-52.266667-68.48h-0.64V371.2h-31.573333V213.333333h31.573333z m200.469333 0v26.453334h-67.626666v42.24h55.466666v26.453333h-55.466666v36.48h65.28V371.2h-96.853334V213.333333h99.2z m76.714667 0v57.813334l47.573333 100.053333h-32.853333l-15.786667-38.4c-4.48-11.733333-9.173333-22.826667-14.08-34.986667h-0.853333c-4.906667 12.16-9.173333 23.253333-13.653333 34.986667l-15.786667 38.4h-33.493333l47.36-100.053333V213.333333h31.573333z m111.082667 0v131.626667h44.8V371.2h-120.746667v-26.24h44.373333V213.333333h31.573334z m59.029333 0l11.093333 40.533334h51.2l11.093334-40.533334h33.066666l-50.773333 157.866667h-37.12l-50.56-157.866667h32z m55.466667 65.066667h-37.546667l4.693333 17.28c4.693333 16.426667 9.386667 34.346667 13.44 51.626667h0.853334c4.693333-17.066667 8.96-35.2 13.866666-51.626667l4.693334-17.28zM817.024 213.333333c34.773333 0 61.226667 14.72 61.226667 46.506667 0 21.333333-12.586667 33.28-29.653334 37.333333v1.066667c13.44 4.693333 21.546667 19.626667 21.546667 34.133333 0 29.44-24.746667 38.826667-57.173333 38.826667h-52.266667V213.333333h56.32z m-6.4 93.653334h-18.346667v40.106666h18.773334c18.986667 0 28.373333-5.546667 28.373333-19.413333 0-12.586667-8.746667-20.693333-28.8-20.693333z m3.626667-69.333334h-21.973334v45.866667h21.973334c21.76 0 33.28-6.4 33.28-21.76 0-16.426667-11.733333-24.106667-33.28-24.106667z"  horiz-adv-x="1024" />
      
      <glyph glyph-name="shujumenhu" unicode="&#59752;" d="M108 768a16 16 0 0 0 16 16h768a16 16 0 0 0 16-16v-768a16 16 0 0 0-16-16H124a16 16 0 0 0-16 16V768z m72-140h656V712H180v-84z m0-72v-500h656V556H180zM540 476a8 8 0 0 0 8-8v-336a8 8 0 0 0-8-8h-64a8 8 0 0 0-8 8v336a8 8 0 0 0 8 8h64zM728 388a8 8 0 0 0 8-8v-248a8 8 0 0 0-8-8h-64a8 8 0 0 0-8 8v248a8 8 0 0 0 8 8h64zM352 320a8 8 0 0 0 8-8v-180a8 8 0 0 0-8-8H288a8 8 0 0 0-8 8v180a8 8 0 0 0 8 8h64z"  horiz-adv-x="1024" />
      
      <glyph glyph-name="shuzhiniao" unicode="&#59747;" d="M774.752 784c-47.64 0-88.752-28.096-107.556-68.652l-7.132-18.896-278.512-742.184v-0.004l-0.336-0.892c-3.032-8.08 8.496-13.268 12.572-5.66a139.6 139.6 0 0 0 0.42 0.784c12.456 23.228 24.36 43.716 32.748 54.336 0.58 0.732 1.144 1.42 1.688 2.056 31.672 37.016 52.612 58.952 77.852 77.404 23.864 17.444 51.568 31.776 95.812 52.796 168.928 80.244 300.796 248.292 300.796 451.152 0 14.148-0.56 24.624-1.636 38.508-2.032 26.132 5.904 47.528 15.096 72.08l25.008 65.464c4 10.472-3.736 21.708-14.948 21.708h-151.872z m54.932-164.84c0.984-12.648 1.42-21.176 1.42-32.92 0-170.008-110.956-315.464-259.688-386.116h-0.004a2251.108 2251.108 0 0 1-25.268-12.172l181.276 483.064 5.992 15.864A46.488 46.488 0 0 0 774.752 712h70.616m0 0c-8.388-22.76-18.656-54.608-15.684-92.824zM393.964 145.364c-1.36-8.056 10.12-11.14 12.996-3.48l171.116 455.936c17.912 47.716-17.364 98.628-68.344 98.628H17.624c-6.784 0-7.76-9.744-1.12-11.16l0.128-0.024c0.304-0.06 0.608-0.12 0.904-0.188l0.088-0.02a483.196 483.196 0 0 0 61.812-18.008c30.888-11.28 60.32-25.6 87.92-42.6 113.9-70.136 196.732-185.852 223.064-321.724a489.3 489.3 0 0 0 8.904-93.16v-0.032c0-8.752-0.232-17.452-0.688-26.092-0.56-10.612-2.224-23.396-4.448-36.756v-0.004l-0.224-1.316z m38.496 269.376c-31.924 80.84-82.16 152.44-145.584 209.708h222.856a3.108 3.108 0 0 0 0.448-0.032l0.02-0.012 0.084-0.068a1.812 1.812 0 0 0 0.508-0.796l-0.012-0.064a3.624 3.624 0 0 0-0.112-0.348l-78.208-208.388z"  horiz-adv-x="1024" />
      
      <glyph glyph-name="guandaorenwu" unicode="&#59746;" d="M128 808a16 16 0 0 1-16-16v-816a16 16 0 0 1 16-16h224a16 16 0 0 1 16 16v216h59.16c24.3 0 44-19.7 44-44 0-64.064 51.936-116 116-116H656v-56a16 16 0 0 1 16-16h224a16 16 0 0 1 16 16V792a16 16 0 0 1-16 16h-224a16 16 0 0 1-16-16v-216h-68.84c-24.3 0-44 19.7-44 44 0 64.064-51.936 116-116 116H368V792a16 16 0 0 1-16 16H128z m56-72h112v-704H184V736z m544-704V736h112v-704h-112z m-72 72h-68.84c-24.3 0-44 19.7-44 44 0 64.064-51.936 116-116 116H368v164h59.16c24.3 0 44-19.7 44-44 0-64.064 51.936-116 116-116H656v-164z m-228.84 396H368V664h59.16c24.3 0 44-19.7 44-44 0-64.064 51.936-116 116-116H656v-164h-68.84c-24.3 0-44 19.7-44 44 0 64.064-51.936 116-116 116z"  horiz-adv-x="1024" />
      
      <glyph glyph-name="yunhang" unicode="&#59745;" d="M512-68c249.632 0 452 202.368 452 452S761.632 836 512 836 60 633.632 60 384s202.368-452 452-452zM423.92 569.948l274.068-174.952c8.016-5.12 8.016-16.872 0-21.992l-274.068-174.952c-8.632-5.508-19.92 0.72-19.92 10.996V558.952c0 10.276 11.288 16.508 19.92 10.996z"  horiz-adv-x="1024" />
      
      <glyph glyph-name="zhongzhi1" unicode="&#59744;" d="M360 544a8 8 0 0 1-8-8v-304a8 8 0 0 1 8-8h304a8 8 0 0 1 8 8V536a8 8 0 0 1-8 8H360zM128 784a16 16 0 0 1-16-16v-768a16 16 0 0 1 16-16h768a16 16 0 0 1 16 16V768a16 16 0 0 1-16 16H128z m56-72h656v-656H184V712z"  horiz-adv-x="1024" />
      
      <glyph glyph-name="biao" unicode="&#59743;" d="M112 768a16 16 0 0 0 16 16h768a16 16 0 0 0 16-16v-768a16 16 0 0 0-16-16H128a16 16 0 0 0-16 16V768z m72-224h656V712H184v-168z m0-72v-176h168v176H184z m0-248v-168h168v168H184z m240-168h176v168h-176v-168z m248 0h168v168h-168v-168z m168 240v176h-168v-176h168z m-416 176v-176h176v176h-176z"  horiz-adv-x="1024" />
      
      <glyph glyph-name="choushuhuancun" unicode="&#59742;" d="M960 288c0 92.288-49.612 172.992-123.62 216.892C812.772 662.852 676.536 784 512 784S211.228 662.852 187.62 504.892C113.612 460.992 64 380.288 64 288c0-118.5 81.792-217.896 192-244.812v75.056C186.088 142.952 136 209.628 136 288c0 78.376 50.092 145.052 120.004 169.76C256.952 598.336 371.204 712 512 712s255.048-113.664 255.996-254.24C837.908 433.052 888 366.376 888 288c0-78.372-50.088-145.048-120-169.756v-75.056c110.208 26.916 192 126.312 192 244.812zM501.94-9.252a16 16 0 0 1 22.628 0l215.6 215.6a8 8 0 0 1 0 11.312l-45.256 45.256a8 8 0 0 1-11.312 0l-130.344-130.344V516.004a8 8 0 0 1-8 8h-64a8 8 0 0 1-8-8v-383.432l-130.344 130.344a8 8 0 0 1-11.312 0l-45.256-45.256a8 8 0 0 1 0-11.312l215.596-215.6z"  horiz-adv-x="1024" />
      
      <glyph glyph-name="a-jibieerjiProperty1SparkSQL" unicode="&#59741;" d="M471.328 208.896c-9.408 12.544-23.168 18.816-41.152 18.816h-0.064a50.264 50.264 0 0 1-40.512-18.048c-10.112-12.032-15.168-30.016-15.168-54.016 0-28.032 7.232-48.128 21.696-60.288a50.488 50.488 0 0 1 33.6-11.776 55.04 55.04 0 0 1 23.744 5.248l-20.736 19.776 22.08 23.04 20.736-19.776c3.2 6.656 5.504 12.544 6.784 17.536 2.048 7.488 3.072 16.256 3.072 26.24 0 22.976-4.736 40.704-14.08 53.248zM360.96 577.28a8 8 0 0 0-4.12-4.34L94.908 453.52a8 8 0 0 1-1.776-13.444L199.716 352H96a16 16 0 0 1-16-16v-368a16 16 0 0 1 16-16h648a16 16 0 0 1 16 16v116.88l133.708-27.184a8 8 0 0 1 9.34 9.832l-71.736 278.788a7.996 7.996 0 0 0 0.784 5.932l141.716 250.564a8 8 0 0 1-6.464 11.924l-287.308 17.924a8 8 0 0 0-5.4 2.58l-194.512 212.212a8 8 0 0 1-13.336-2.468L360.964 577.28zM807.84 148.624L760 158.352v177.724c0.4-2.58 0.928-5.152 1.584-7.704l46.252-179.744zM744 352H312.744l-94.916 78.436 168.88 76.988a80 80 0 0 1 41.212 43.384l68.232 172.6 125.412-136.82a79.992 79.992 0 0 1 53.992-25.788l185.24-11.556-91.372-161.552a80.044 80.044 0 0 1-9.936-47.664A16.004 16.004 0 0 1 744 352z m-379.552-111.488c17.664 15.68 39.68 23.488 65.984 23.488 26.432 0 48.704-8.256 66.624-24.896 20.736-19.136 31.104-45.952 31.104-80.384 0-18.304-2.176-33.536-6.656-45.824-3.584-11.776-8.96-21.568-16-29.312l23.68-22.08-22.4-23.36-24.704 23.36a103.108 103.108 0 0 0-19.456-9.6c-9.216-3.072-20.096-4.608-32.896-4.608-26.688 0-48.704 8-66.112 23.872-21.12 19.2-31.68 47.36-31.68 84.48 0 37.44 10.816 65.664 32.512 84.864z m-201.152 4.992c13.312 12.16 32.96 18.176 58.752 18.176a89.34 89.34 0 0 0 55.232-17.152c15.232-11.392 23.232-27.968 23.936-49.728H260.128c-0.768 12.288-6.144 21.056-16.128 26.24-6.656 3.392-14.912 5.12-24.832 5.12a46.4 46.4 0 0 1-26.432-6.72c-6.528-4.416-9.856-10.624-9.856-18.56a17.612 17.612 0 0 1 9.728-16.384c4.16-2.432 13.056-5.248 26.688-8.512l35.264-8.448c15.488-3.712 27.136-8.64 35.008-14.848 12.224-9.664 18.304-23.552 18.304-41.792a59.016 59.016 0 0 0-21.44-46.592c-14.272-12.416-34.496-18.56-60.608-18.56-26.688 0-47.616 6.08-62.912 18.24-15.232 12.16-22.912 28.928-22.912 50.24h40.768a42.04 42.04 0 0 1 7.68-20.992c6.912-8.448 18.88-12.608 35.712-12.608a75.32 75.32 0 0 1 24.576 3.328c11.968 4.224 17.92 12.16 17.92 23.744 0 6.72-2.944 11.968-8.896 15.68-5.952 3.584-15.232 6.784-27.904 9.6l-21.696 4.864c-21.248 4.8-35.968 10.048-44.16 15.68-13.76 9.408-20.672 24.192-20.672 44.288a59.132 59.132 0 0 0 19.968 45.696z m397.504 12.224h42.816v-167.936h101.376v-36.8H560.8v204.736z"  horiz-adv-x="1024" />
      
      <glyph glyph-name="a-jibieyijiProperty1xiaoxitongzhi" unicode="&#59740;" d="M96 796a16 16 0 0 1-16-16v-736a16 16 0 0 1 16-16h128.28c2.448 0 4.86-0.56 7.056-1.64l103.608-50.896a16.008 16.008 0 0 1 14.112 0l103.608 50.896a15.976 15.976 0 0 0 7.052 1.64H928a16 16 0 0 1 16 16V780a16 16 0 0 1-16 16H96z m232.904-508.076v143.412C328.904 535.528 410.68 620 511.548 620c100.868 0 182.64-84.472 182.64-188.664v-143.412h20.756c2.292 0 4.152-1.856 4.152-4.152v-29.056c0-2.292-1.86-4.148-4.152-4.148l-406.792-0.004A4.152 4.152 0 0 0 304 254.716v29.056c0 2.296 1.86 4.152 4.152 4.152h20.752z m249.06-103.772c0-2.292-1.86-4.152-4.152-4.152h-124.528a4.152 4.152 0 0 0-4.152 4.152v33.208c0 2.292 1.86 4.148 4.152 4.148h124.528c2.292 0 4.152-1.856 4.152-4.148v-33.208z"  horiz-adv-x="1024" />
      
      <glyph glyph-name="a-jibieerjiProperty1MongoDBshuru" unicode="&#59535;" d="M727.052 330.412c14.32 14.212 37.484 14.236 51.832 0.048l46.268-45.748a36.456 36.456 0 0 0 0.176-51.72l-145.12-138.628-9.816-5.916-89.876-30.052c-16.484-5.512-34.34 3.324-39.876 19.736a31.216 31.216 0 0 0 1.556 23.74l41.212 83.96 5.052 7.032 138.592 137.548z m25.932-47.988L628.6 158.92l-17.216-35.056 36.74 12.328 128.584 122.776-23.724 23.456zM441.196 710.692c57.66-61.86 138.624-148.72 170.992-250.22A272.748 272.748 0 0 0 676 468c150.22 0 272-121.78 272-272s-121.78-272-272-272c-123.172 0-227.22 81.868-260.7 194.156a270.464 270.464 0 0 1 25.784-59.352 672.44 672.44 0 0 0-32.896-18.168v-89.612c-1.344-14.032-14.048-24.624-28.932-24.12-11.212 0-31.48 7.356-31.48 20.14v88.164c56.52 17.88 58.48 221.584 50.4 420.976l-1.032 24.38c-2.32 52.292-5.216 103.752-7.864 150.908-3.312 58.9-6.24 111.088-7.22 149.816v0.36c8.884-17.044 31.292-41.084 59.136-70.956zM676-12c114.876 0 208 93.124 208 208s-93.124 208-208 208-208-93.124-208-208 93.124-208 208-208zM373.396 841.108c-1.248-56.808-1.888-117.92-2.536-180.132v-0.084c-0.148-14.104-0.296-28.26-0.452-42.44l-0.648-54.2-0.184-13.52-0.408-26.972c-3.68-228.68-13.664-440.612-60.896-476.368-38.232 11.456-222.64 85.028-222.64 326.244 0 170.364 106.86 269.184 190.788 346.8 47.56 43.98 87.756 81.152 96.976 120.672z"  horiz-adv-x="1024" />
      
      <glyph glyph-name="a-daochugeshidaochuExcel" unicode="&#59686;" d="M315.296 558.476a8 8 0 0 1-6.48 3.316H241.312c-6.372 0-10.188-7.088-6.676-12.408l109.268-165.584-107.568-161.576c-3.54-5.316 0.272-12.432 6.656-12.432h68.132a8 8 0 0 1 6.468 3.288l71.88 98.72 71.88-98.72c1.508-2.068 3.912-3.288 6.468-3.288h68.132c6.388 0 10.2 7.116 6.66 12.432l-107.568 161.576 109.896 165.568c3.528 5.316-0.284 12.424-6.668 12.424h-68.136a8 8 0 0 1-6.484-3.32L389.476 455.8 315.296 558.476zM112 711.4a16 16 0 0 0 14.308 15.912l532 56.6A16 16 0 0 0 676 768v-764.416a16 16 0 0 0-17.692-15.912l-532 56.596A16 16 0 0 0 112 60.17999999999995V711.404z m72-41.608v-568l420-44v656l-420-44zM740 41.79200000000003a8 8 0 0 1 8-8h148a16 16 0 0 1 16 16v672a16 16 0 0 1-16 16h-148a8 8 0 0 1-8-8v-56a8 8 0 0 1 8-8h92v-560h-92a8 8 0 0 1-8-8v-56z"  horiz-adv-x="1024" />
      
      <glyph glyph-name="a-daochugeshidaochuWord" unicode="&#59738;" d="M492 561.7919999999999h56a8 8 0 0 0 8-8v-336a8 8 0 0 0-8-8h-60.24a8 8 0 0 0-6.16 2.892l-81.444 98.184a8 8 0 0 1-12.312 0L306.4 212.68399999999997a8 8 0 0 0-6.16-2.892H240a8 8 0 0 0-8 8v336a8 8 0 0 0 8 8h56.016a8 8 0 0 0 8-7.988l0.408-224.512 83.436 101.06a8 8 0 0 0 12.316 0.028L484 329.76V553.7919999999999a8 8 0 0 0 8 8zM112 711.4a16 16 0 0 0 14.308 15.912l532 56.6A16 16 0 0 0 676 768v-764.416a16 16 0 0 0-17.692-15.912l-532 56.596A16 16 0 0 0 112 60.17999999999995V711.404z m72-41.608v-568l420-44v656l-420-44zM740 41.79200000000003a8 8 0 0 1 8-8h148a16 16 0 0 1 16 16v672a16 16 0 0 1-16 16h-148a8 8 0 0 1-8-8v-56a8 8 0 0 1 8-8h92v-560h-92a8 8 0 0 1-8-8v-56z"  horiz-adv-x="1024" />
      
      <glyph glyph-name="a-daochugeshidaochuPDF" unicode="&#59739;" d="M236 561.7919999999999a16 16 0 0 0 16 16h276a16 16 0 0 0 16-16v-224a16 16 0 0 0-16-16H308v-120a8 8 0 0 0-8-8H236v368z m80-168h148a8 8 0 0 1 8 8v96a8 8 0 0 1-8 8H316a8 8 0 0 1-8-8v-96.012a8 8 0 0 1 8-7.988zM112 709.612a16 16 0 0 0 14.308 15.908l532 56.6A16 16 0 0 0 676 766.204v-764.416a16 16 0 0 0-17.692-15.912l-532 56.596A16.004 16.004 0 0 0 112 58.388000000000034V709.612zM184 668v-568l420-44V712L184 668zM740 41.79200000000003a8 8 0 0 1 8-8h148a16 16 0 0 1 16 16v672a16 16 0 0 1-16 16h-148a8 8 0 0 1-8-8v-56a8 8 0 0 1 8-8h92v-560h-92a8 8 0 0 1-8-8v-56z"  horiz-adv-x="1024" />
      
      <glyph glyph-name="a-yonghucaozuoyonghumian" unicode="&#59685;" d="M512 316c121.504 0 220 98.496 220 220s-98.496 220-220 220-220-98.496-220-220 98.496-220 220-220zM171.916 12A7.888 7.888 0 0 0 164 20.024C168.16 212.108 321.508 368 511.912 368c190.404 0 343.748-155.892 347.912-347.976a7.888 7.888 0 0 0-7.912-8.024h-56-624z"  horiz-adv-x="1024" />
      
      <glyph glyph-name="tubiaoxialaxiaosanjiao" unicode="&#59684;" d="M880 336h-272c-13.184 0-20.712-15.052-12.8-25.6l136-181.332c6.4-8.536 19.2-8.536 25.6 0l136 181.332c7.912 10.548 0.384 25.6-12.8 25.6z"  horiz-adv-x="1024" />
      
      <glyph glyph-name="tianjiahebingbiao" unicode="&#59658;" d="M744 784a16 16 0 0 0 16-16v-136h136a16 16 0 0 0 16-16v-288a8 8 0 0 0-8-8h-48a8 8 0 0 0-8 8V560a8 8 0 0 1-8 8H336a8 8 0 0 1-8-8v-504a8 8 0 0 1 8-8h232a8 8 0 0 0 8-8v-48a8 8 0 0 0-8-8H280a16 16 0 0 0-16 16v136H128a16 16 0 0 0-16 16V768a16 16 0 0 0 16 16h616zM264 200V616a16 16 0 0 0 16 16h416V720H176v-520h88zM568 320a8 8 0 0 0 8-8v-40a8 8 0 0 0-8-8H392a8 8 0 0 0-8 8v40a8 8 0 0 0 8 8h176zM784 464a8 8 0 0 0 8-8v-40a8 8 0 0 0-8-8H392a8 8 0 0 0-8 8v40a8 8 0 0 0 8 8h392zM724 328a8 8 0 0 0 8 8h56a8 8 0 0 0 8-8v-156h156a8 8 0 0 0 8-8v-56a8 8 0 0 0-8-8h-156v-156a8 8 0 0 0-8-8h-56a8 8 0 0 0-8 8v156h-156a8 8 0 0 0-8 8v56a8 8 0 0 0 8 8h156v156z"  horiz-adv-x="1024" />
      
      <glyph glyph-name="chuangjianfenxibiao" unicode="&#59659;" d="M728.722853 339.09085300000004a7.937984 7.937984 0 0 1-7.902264-7.969737l0.67076-154.790697-154.790698-0.67076a7.937984 7.937984 0 0 1-7.902263-7.969737l0.238139-55.565891a7.945922 7.945922 0 0 1 7.973706-7.906233l154.790697 0.67076 0.666791-154.790698a7.937984 7.937984 0 0 1 7.973705-7.902263l55.565892 0.242108a7.934016 7.934016 0 0 1 7.902263 7.969737l-0.66679 154.790698 154.786728 0.670759a7.937984 7.937984 0 0 1 7.906233 7.969737l-0.242109 55.565891a7.941953 7.941953 0 0 1-7.973705 7.906233l-154.786729-0.67076-0.670759 154.786729a7.937984 7.937984 0 0 1-7.973706 7.906232l-55.565891-0.242108zM755.084899 497.402047a7.937984 7.937984 0 0 1-0.051597 11.22431l-39.459721 39.122356a7.937984 7.937984 0 0 1-11.22431-0.051597l-149.07138-150.361302-147.829085 146.555039a7.937984 7.937984 0 0 1-11.22431-0.051597l-170.067349-171.543814a7.937984 7.937984 0 0 1 0.047628-11.22431l39.46369-39.122357c3.11169-3.083907 8.136434-3.064062 11.22431 0.047628l125.356651 126.448124 147.829086-146.555039a7.937984 7.937984 0 0 1 11.228279 0.051597l193.778108 195.460962zM125.729736-8.930233000000044a15.875969 15.875969 0 0 0-15.875969 15.875969V768.992248a15.875969 15.875969 0 0 0 15.875969 15.875969h762.046512a15.875969 15.875969 0 0 0 15.875969-15.875969v-309.581395a7.937984 7.937984 0 0 0-7.937984-7.937985h-47.627907a7.937984 7.937984 0 0 0-7.937985 7.937985V721.364341h-666.790698v-666.790698h277.829458a7.937984 7.937984 0 0 0 7.937984-7.937984v-47.627907a7.937984 7.937984 0 0 0-7.937984-7.937985h-325.457365z"  horiz-adv-x="1024" />
      
      <glyph glyph-name="a-jiahaoonzujianleixingqitazujianxianxingoffbaocuooff" unicode="&#59657;" d="M172 784a16 16 0 0 1-16-16v-768a16 16 0 0 1 16-16h425.42C545.396 25.02 512 88.608 512 160c0 123.712 100.288 224 224 224 45.856 0 88.496-13.78 124-37.424V768a16 16 0 0 1-16 16H172z m468-172v-48a8 8 0 0 0-8-8H252a8 8 0 0 0-8 8V612a8 8 0 0 0 8 8h380a8 8 0 0 0 8-8z m-128-200v-48a8 8 0 0 0-8-8H252a8 8 0 0 0-8 8v48a8 8 0 0 0 8 8h252a8 8 0 0 0 8-8z m-67.872-208v-48a8 8 0 0 0-8-8H252a8 8 0 0 0-8 8v48a8 8 0 0 0 8 8h184.128a8 8 0 0 0 8-8zM696 328a8 8 0 0 0 8 8h56a8 8 0 0 0 8-8v-128h136a8 8 0 0 0 8-8v-56a8 8 0 0 0-8-8h-136v-136a8 8 0 0 0-8-8h-56a8 8 0 0 0-8 8v136h-128a8 8 0 0 0-8 8v56a8 8 0 0 0 8 8h128v128z"  horiz-adv-x="1024" />
      
      <glyph glyph-name="a-jiahaoonzujianleixingzujianxianxingonbaocuooff" unicode="&#59656;" d="M176 48V520h672v-88h64V752a32 32 0 0 1-32 32H144a32 32 0 0 1-32-32v-736a32 32 0 0 1 32-32h736.252H740a8 8 0 0 1 8 8v156h156a8 8 0 0 1 8 8v56a8 8 0 0 1-8 8h-156v156a8 8 0 0 1-8 8h-56a8 8 0 0 1-8-8v-156h-156a8 8 0 0 1-8-8v-56a8 8 0 0 1 8-8h156v-156a8 8 0 0 1 8-8h-220v64H176z m0 672h672v-136H176V720zM440 468a12 12 0 0 1-12 12H388a12 12 0 0 1-12-12v-360a12 12 0 0 1 12-12h40a12 12 0 0 1 12 12v360zM296 342.4a8 8 0 0 1-8 8H240a8 8 0 0 1-8-8V104a8 8 0 0 1 8-8h48a8 8 0 0 1 8 8v238.4z"  horiz-adv-x="1024" />
      
      <glyph glyph-name="a-statelishiyanse1" unicode="&#59652;" d="M341.28 213.332h341.44l91.98-219.076a10.048 10.048 0 0 1 9.316-6.256h77.928c7.108 0 11.968 7.144 9.328 13.712l-313.484 772A10.044 10.044 0 0 1 548.46 780h-72.92a10.044 10.044 0 0 1-9.328-6.288l-313.48-772c-2.64-6.568 2.216-13.712 9.324-13.712h77.928a10.048 10.048 0 0 1 9.32 6.256l91.976 219.076zM512 650.132L659.66 300h-295.32L512 650.132z"  horiz-adv-x="1024" />
      
      <glyph glyph-name="a-statenormal" unicode="&#59650;" d="M960 384c0 247.424-200.576 448-448 448S64 631.424 64 384s200.576-448 448-448 448 200.576 448 448z m-824 0c0 207.66 168.34 376 376 376s376-168.34 376-376-168.34-376-376-376-376 168.34-376 376zM269.368 96.752a378.468 378.468 0 0 0-45.2 45.308L753.94 671.836a378.176 378.176 0 0 0 45.308-45.2L269.368 96.748z"  horiz-adv-x="1024" />
      
      <glyph glyph-name="a-statelishiyanse" unicode="&#59651;" d="M118.88 25.464a8 8 0 0 0 0 11.312L858.232 776.124a8 8 0 0 0 11.312 0l33.94-33.944a7.992 7.992 0 0 0 0-11.312L164.136-8.476a8 8 0 0 0-11.312 0l-33.94 33.94z"  horiz-adv-x="1024" />
      
      <glyph glyph-name="a-gouxuanliandongoffyansemian" unicode="&#59643;" d="M960 384c0 247.424-200.576 448-448 448S64 631.424 64 384s200.576-448 448-448 448 200.576 448 448z m-151.396 169.088a8 8 0 0 0 0-11.312l-371.784-371.784a7.996 7.996 0 0 0-11.316 0l-50.9 50.896v0.024a0.02 0.02 0 0 1 0 0.028l-160.948 160.948a8 8 0 0 0 0 11.312l45.256 45.256a8 8 0 0 0 11.312 0l155.304-155.304a8 8 0 0 1 11.316 0l315.192 315.192a8 8 0 0 0 11.312 0l45.256-45.256z"  horiz-adv-x="1024" />
      
      <glyph glyph-name="a-gouxuanliandongoffyansexian" unicode="&#59647;" d="M808.604 553.088l-45.256 45.256a8 8 0 0 1-11.312 0l-315.192-315.192a8 8 0 0 0-11.316 0l-155.304 155.304a8 8 0 0 1-11.312 0L213.656 393.2a8 8 0 0 1 0-11.312l160.948-160.948a0.02 0.02 0 0 0 0-0.028v-0.024l50.9-50.896a7.996 7.996 0 0 1 11.316 0l371.784 371.784a8 8 0 0 1 0 11.312zM512 832c247.424 0 448-200.576 448-448s-200.576-448-448-448S64 136.576 64 384 264.576 832 512 832z m0-72c-207.66 0-376-168.34-376-376s168.34-376 376-376 376 168.34 376 376-168.34 376-376 376z"  horiz-adv-x="1024" />
      
      <glyph glyph-name="a-gouxuanliandongonyansexian" unicode="&#59648;" d="M64 384c0-239.372 187.736-434.896 424-447.368v72.12C291.52 21.132 136 184.404 136 384c0 207.66 168.34 376 376 376 199.596 0 362.868-155.524 375.248-352h72.12C946.896 644.264 751.372 832 512 832 264.576 832 64 631.424 64 384zM763.348 598.344l45.256-45.256a8 8 0 0 0 0-11.312l-371.784-371.784a7.996 7.996 0 0 0-11.316 0l-50.9 50.896v0.024l0.008 0.016v0.008l-0.008 0.004-160.948 160.948a8 8 0 0 0 0 11.312l45.256 45.256a8 8 0 0 0 11.312 0l155.304-155.304a8 8 0 0 1 11.316 0l315.192 315.192a8 8 0 0 0 11.312 0zM716.58 329.512c52.056 52.06 136.472 51.696 188.552-0.38 52.076-52.076 52.436-136.496 0.38-188.552l-43.856-43.856a8 8 0 0 0-11.316 0l-28.284 28.284a8 8 0 0 0 0 11.312l43.856 43.856c29.996 30 30.02 78.96-0.38 109.356-30.4 30.4-79.36 30.38-109.356 0.384l-43.856-43.856a8 8 0 0 0-11.312 0l-28.284 28.284a7.992 7.992 0 0 0 0 11.312l43.856 43.856zM828.608 213.008a8 8 0 0 1 0 11.316l-28.284 28.284a8 8 0 0 1-11.312 0l-145.62-145.62a8 8 0 0 1 0-11.312l28.284-28.284a7.996 7.996 0 0 1 11.316 0l145.616 145.616zM755.42-9.516c-52.056-52.056-136.472-51.696-188.552 0.384-52.076 52.076-52.436 136.492-0.38 188.548l43.856 43.86a8 8 0 0 0 11.316 0l28.284-28.284a8 8 0 0 0 0-11.316l-43.856-43.856c-29.996-29.996-30.02-78.956 0.38-109.356 30.4-30.4 79.36-30.376 109.356-0.38l43.856 43.856a8 8 0 0 0 11.312 0l28.284-28.284a7.996 7.996 0 0 0 0-11.316l-43.856-43.856z"  horiz-adv-x="1024" />
      
      <glyph glyph-name="a-yibiaobancaozuotianjiayibiaoban-xin" unicode="&#59642;" d="M116 768a16 16 0 0 0 16 16h768a16 16 0 0 0 16-16v-432h-64v128h-180v-128h-64V720H180v-428h384v-60h-144v-184h144v-64H132a16 16 0 0 0-16 16V768z m64-720h176v184H180v-184zM852 528V720h-180v-192h180zM724 328a8 8 0 0 0 8 8h64a8 8 0 0 0 8-8v-152h152a8 8 0 0 0 8-8v-64a8 8 0 0 0-8-8h-152v-152a8 8 0 0 0-8-8h-64a8 8 0 0 0-8 8v152h-152a8 8 0 0 0-8 8v64a8 8 0 0 0 8 8h152v152z"  horiz-adv-x="1024" />
      
      <glyph glyph-name="shuju" unicode="&#59637;" d="M883.976 607.408C881.628 705.128 715.988 784 512 784S142.372 705.128 140.024 607.408H140V164.8c0-32.648 15.64-60.512 37.232-82.34 21.44-21.672 50.588-39.452 83.612-53.572C327.032 0.588 415.856-16 512-16s184.968 16.588 251.156 44.884c33.024 14.12 62.168 31.9 83.612 53.572 21.596 21.828 37.232 49.692 37.232 82.34V607.408h-0.024z m-141.352-60.16C687.492 520.76 606.044 502.296 512 502.296c-94.044 0-175.492 18.468-230.624 44.952C220.704 576.392 215.24 601.908 215.24 605.308c0 3.4 5.468 28.916 66.14 58.06C336.508 689.848 417.96 708.32 512 708.32c94.044 0 175.492-18.472 230.624-44.952 60.672-29.144 66.14-54.664 66.14-58.06 0-3.4-5.468-28.92-66.14-58.06z m66.14-49.708v-107.336c0-6.828-3.076-16.572-15.324-28.952-12.396-12.532-32.224-25.552-59.712-37.304-54.832-23.444-133.2-38.856-221.728-38.856-88.528 0-166.896 15.412-221.732 38.856-27.484 11.752-47.312 24.772-59.708 37.304-12.248 12.38-15.324 22.124-15.324 28.952V497.54c67.92-43.088 175.576-70.928 296.764-70.928 121.192 0 228.844 27.84 296.764 70.928z m0-219.636v-113.108c0-6.828-3.076-16.572-15.324-28.952-12.396-12.532-32.224-25.556-59.712-37.308-54.832-23.44-133.2-38.856-221.728-38.856-88.528 0-166.896 15.416-221.732 38.856-27.484 11.752-47.312 24.776-59.708 37.308-12.248 12.38-15.324 22.124-15.324 28.952v113.108c13.952-8.78 29.304-16.64 45.608-23.608 66.188-28.3 155.012-44.888 251.156-44.888s184.968 16.588 251.156 44.888c16.304 6.968 31.656 14.828 45.608 23.608z"  horiz-adv-x="1024" />
      
      <glyph glyph-name="tuichubianji" unicode="&#59640;" d="M116.688 396.404a16 16 0 0 1 0-22.628l209.94-209.944a8 8 0 0 1 11.312 0l39.6 39.6a8 8 0 0 1 0 11.312L244.28 348H679.32a8 8 0 0 1 8 8v56a8 8 0 0 1-8 8H242.108l135.432 135.432a8 8 0 0 1 0 11.312l-39.6 39.6a8 8 0 0 1-11.312 0L116.688 396.4zM486.34 512a8 8 0 0 0-8 8V768a16 16 0 0 0 16 16h404.972a16 16 0 0 0 16-16v-768a16 16 0 0 0-16-16H494.34a16 16 0 0 0-16 16v248a8 8 0 0 0 8 8h56a8 8 0 0 0 8-8v-192h292.972V712h-292.972v-192a8 8 0 0 0-8-8h-56z"  horiz-adv-x="1024" />
      
      <glyph glyph-name="shujujiyixuan" unicode="&#59634;" d="M744 352c132.548 0 240-107.452 240-240s-107.452-240-240-240-240 107.452-240 240 107.452 240 240 240zM910.34 197.004a8 8 0 0 0 0-11.316l-208.148-208.036a7.992 7.992 0 0 0-11.308 0l-125.224 125.156a8 8 0 0 0 0 11.316l29.356 29.34a8 8 0 0 0 11.312 0l84.556-84.512a8 8 0 0 1 11.308 0l167.48 167.392a8 8 0 0 0 11.312 0l29.356-29.34z"  horiz-adv-x="1024" />
      
      <glyph glyph-name="a-fangxiangoff" unicode="&#59737;" d="M512-64c-247.424 0-448 200.576-448 448S264.576 832 512 832s448-200.576 448-448-200.576-448-448-448z m0 68c212.076 0 384 170.132 384 380s-171.924 380-384 380c-212.08 0-384-170.132-384-380s171.92-380 384-380z m-192.9 230.344l192.992 192.996 192.996-192.996a8 8 0 0 1 11.316 0l45.252 45.256a8 8 0 0 1 0 11.312l-243.244 243.244a7.984 7.984 0 0 1-6.32 2.32 7.976 7.976 0 0 1-6.316-2.32l-243.248-243.244a8 8 0 0 1 0-11.312l45.256-45.256a8 8 0 0 1 11.316 0z"  horiz-adv-x="1024" />
      
      <glyph glyph-name="a-fangxiangsanjiao-xiachicunxiao" unicode="&#59735;" d="M624 280h-224c-13.184 0-20.712-15.052-12.8-25.6l112-149.332c6.4-8.536 19.2-8.536 25.6 0l112 149.332c7.912 10.548 0.384 25.6-12.8 25.6z"  horiz-adv-x="1024" />
      
      <glyph glyph-name="a-fangxiangsanjiao-shangchicunxiao" unicode="&#59736;" d="M400 96h224c13.184 0 20.712 15.052 12.8 25.6l-112 149.332c-6.4 8.532-19.2 8.532-25.6 0l-112-149.332c-7.912-10.548-0.384-25.6 12.8-25.6z"  horiz-adv-x="1024" />
      
      <glyph glyph-name="a-duiqifangxiangcharuchaolianjie" unicode="&#59734;" d="M565.284 749.912l235.556-136-120-207.844-55.424 32-40-69.284 110.852-64a16 16 0 0 1 21.856 5.856l184 318.7a16 16 0 0 1-5.856 21.856l-346.412 200A16 16 0 0 1 528 845.34L344 526.64a16 16 0 0 1 5.856-21.856l110.852-64 40 69.28-55.424 32 120 207.848z m-128.576-350.696l-110.852 64A16 16 0 0 1 304 457.36l-184-318.696a16 16 0 0 1 5.856-21.86l346.412-200a16 16 0 0 1 21.856 5.86l184 318.696a16 16 0 0 1-5.856 21.856l-110.852 64-40-69.284 55.424-32-120-207.844-235.56 136 120 207.844 55.428-32 40 69.284zM572.418 570.276536m6.928203-4l55.425626-32q6.928203-4 2.928203-10.928203l-184-318.697349q-4-6.928203-10.928203-2.928203l-55.425626 32q-6.928203 4-2.928203 10.928203l184 318.697349q4 6.928203 10.928203 2.928203Z"  horiz-adv-x="1024" />
      
      <glyph glyph-name="quxiaoxuanzhong" unicode="&#59733;" d="M112 800a16 16 0 0 1-16-16v-800a16 16 0 0 1 16-16h800a16 16 0 0 1 16 16V784a16 16 0 0 1-16 16H112z m752-64v-704H160V736h704zM234.816 163.384l497.8 497.8 56.572-56.568-497.804-497.8-56.568 56.568z"  horiz-adv-x="1024" />
      
      <glyph glyph-name="fuzhidao" unicode="&#59732;" d="M735.356 325.65599999999995a8 8 0 0 0 11.312 0l163.748-163.748a8 8 0 0 0 0-11.312l-33.94-33.94a7.948 7.948 0 0 0-1.184-0.976l-128.752-128.752a8 8 0 0 0-11.312 0l-33.94 33.94a7.992 7.992 0 0 0 0 11.312l91.132 91.132H552a8 8 0 0 0-8 8v48a8 8 0 0 0 8 8h242.5l-93.088 93.092a8 8 0 0 0 0 11.312l33.944 33.94zM554 728v-8a8 8 0 0 0-8-8H184v-584.004A8 8 0 0 0 176 120H120a8 8 0 0 0-8 7.996V768a16 16 0 0 0 16 16h418a8 8 0 0 0 8-8v-48zM264 648a16 16 0 0 1-16-16v-632a16 16 0 0 1 16-16h276v72H320V576h300v-200a16 16 0 0 1 16-16h276v64.344a16.004 16.004 0 0 1-4.744 11.372L697.48 643.3720000000001A16 16 0 0 1 686.224 648H264z m428-216V547.4839999999999L808.664 432H692z"  horiz-adv-x="1024" />
      
      <glyph glyph-name="a-Property1fenxiangdaomulu" unicode="&#59731;" d="M128 784a16 16 0 0 1-16-16v-768a16 16 0 0 1 16-16h768a16 16 0 0 1 16 16v296a8 8 0 0 1-8 8h-56a8 8 0 0 1-8-8v-240H184V712h240a8 8 0 0 1 8 8V776a8 8 0 0 1-8 8H128z m357.48-483a8 8 0 0 0-11.312 0l-45.256 45.252a8 8 0 0 0 0 11.316L775.344 704H600a8 8 0 0 0-8 8V776a8 8 0 0 0 8 8h304a8 8 0 0 0 8-8v-304a8 8 0 0 0-8-8h-64a8 8 0 0 0-8 8V647.52l-346.52-346.52z"  horiz-adv-x="1024" />
      
      <glyph glyph-name="a-Property1xiezuogeiwode" unicode="&#59730;" d="M744 472c88.364 0 160 71.636 160 160s-71.636 160-160 160-160-71.636-160-160c0-17.2 2.712-33.76 7.732-49.28l-156.012-90.328C402.86 535.888 350.712 564 292 564c-99.412 0-180-80.588-180-180s80.588-180 180-180c53.688 0 101.888 23.508 134.868 60.788l164.072-82.036A159.968 159.968 0 0 1 584 136c0-88.364 71.636-160 160-160s160 71.636 160 160-71.636 160-160 160c-49.132 0-93.092-22.148-122.444-57l-161.384 80.692A179.6 179.6 0 0 1 472 384c0 17.776-2.576 34.952-7.38 51.172l158.636 91.84C652.592 493.312 695.808 472 744 472z"  horiz-adv-x="1024" />
      
      <glyph glyph-name="tianjiajisuanzhibiao" unicode="&#59729;" d="M465.78 708c-37.68 0-66.752-21.092-76.896-57.384L364.668 568H560a8 8 0 0 0 8-8v-64a8 8 0 0 0-8-8H344.536L203.648-10.176000000000045A8 8 0 0 0 195.948-16h-69.32a8 8 0 0 0-7.684 10.216L261.2 488H112a8 8 0 0 0-8 8V560a8 8 0 0 0 8 8h169.56l29.984 102.004c18.84 67.396 84.256 118 154.236 118H560a8 8 0 0 0 8-8V716a8 8 0 0 0-8-8h-94.22zM652 404a8 8 0 0 1-8-8v-160h-160a8 8 0 0 1-8-8v-64a8 8 0 0 1 8-8h160v-164a8 8 0 0 1 8-8h64a8 8 0 0 1 8 8v164h172a8 8 0 0 1 8 8v64a8 8 0 0 1-8 8h-172v160a8 8 0 0 1-8 8h-64z"  horiz-adv-x="1024" />
      
      <glyph glyph-name="tianjiacanshu" unicode="&#59728;" d="M480 516a8 8 0 0 1 8-8h408a8 8 0 0 1 8 8V780a8 8 0 0 1-8 8H488a8 8 0 0 1-8-8v-264z m80 192h264v-120h-264V708zM128 788a8 8 0 0 1-8-8v-480a8 8 0 0 1 8-8h264a8 8 0 0 1 8 8V780a8 8 0 0 1-8 8H128z m192-80v-336H200V708h120zM120 36a8 8 0 0 0 8 8h264a8 8 0 0 0 8-8v-64a8 8 0 0 0-8-8H128a8 8 0 0 0-8 8v64zM655.16 384a8 8 0 0 1-8-8v-160.84H488a8 8 0 0 1-8-8v-64a8 8 0 0 1 8-8h159.16V-28a8 8 0 0 1 8-8h64a8 8 0 0 1 8 8v163.16H896a8 8 0 0 1 8 8v64a8 8 0 0 1-8 8h-168.84V376a8 8 0 0 1-8 8h-64zM120 204a8 8 0 0 0 8 8h264a8 8 0 0 0 8-8v-64a8 8 0 0 0-8-8H128a8 8 0 0 0-8 8v64z"  horiz-adv-x="1024" />
      
      <glyph glyph-name="yujingshezhi" unicode="&#59566;" d="M191.72 340v-276H119.692a8 8 0 0 1-8-8v-64a8 8 0 0 1 8-8H368v80H271.792v276a239.896 239.896 0 0 0 70.356 169.704A240.312 240.312 0 0 0 512 580a240.348 240.348 0 0 0 149.316-52h109.864A320.42 320.42 0 0 1 512 660a320.416 320.416 0 0 1-226.472-93.724A319.86 319.86 0 0 1 191.724 340z m288.248 492a8 8 0 0 1-8-8v-116a8 8 0 0 1 8-8h64.068a8 8 0 0 1 8 8V824a8 8 0 0 1-8 8h-64.068z m361.076-117.972a8 8 0 0 1-11.308 0l-85.592-85.528a8 8 0 0 1 0-11.32l45.328-45.252a8 8 0 0 1 11.308 0l85.56 85.532a8 8 0 0 1-0.004 11.32l-45.292 45.248zM135.064 671.108a8 8 0 0 1 0.008-11.328L223.296 571.88a8 8 0 0 1 11.304 0.012l45.264 45.32a8 8 0 0 1-0.016 11.32l-88.192 87.84a8 8 0 0 1-11.3-0.012L135.064 671.108zM654.016 140.016c15.004-15.376 35.352-24.016 56.568-24.016 21.22 0 41.568 8.64 56.572 24.016 15 15.38 23.428 36.236 23.428 57.984 0 21.748-8.428 42.604-23.428 57.984-15.004 15.376-35.352 24.016-56.572 24.016-21.216 0-41.564-8.64-56.568-24.016-15-15.38-23.432-36.236-23.432-57.984 0-21.748 8.432-42.604 23.432-57.984z m79.196 33.944c-6-6.376-14.14-9.96-22.628-9.96-8.484 0-16.624 3.584-22.624 9.96-6.004 6.376-9.376 15.024-9.376 24.04s3.372 17.664 9.376 24.04c6 6.376 14.14 9.96 22.624 9.96 8.488 0 16.628-3.584 22.628-9.96 6.004-6.376 9.372-15.024 9.372-24.04s-3.368-17.664-9.372-24.04zM484.04 68.024a266.04 266.04 0 0 0-23.712 55.152c-1.092 3.624 0.636 7.448 3.848 9.452a78.8 78.8 0 0 1 25.58 25.96 79.904 79.904 0 0 1 11.552 41.384 79.824 79.824 0 0 1-11.524 41.388 78.688 78.688 0 0 1-25.576 25.988c-3.2 2.004-4.928 5.816-3.844 9.436a264.432 264.432 0 0 0 58.912 103.44c2.604 2.824 6.848 3.24 10.224 1.408a77.576 77.576 0 0 1 34.916-9.372c14.436-0.384 28.692 3.28 41.2 10.584a78.8 78.8 0 0 1 29.656 30.816 79.856 79.856 0 0 1 9.436 35.436c0.112 3.792 2.556 7.22 6.252 8.084a257.664 257.664 0 0 0 117.976-0.048c3.688-0.868 6.132-4.292 6.244-8.08 0.36-12.368 3.588-24.512 9.452-35.44a78.76 78.76 0 0 1 29.668-30.8 77.544 77.544 0 0 1 41.204-10.564 77.536 77.536 0 0 1 34.904 9.38c3.376 1.832 7.624 1.416 10.228-1.408a263.72 263.72 0 0 0 35.236-48.244 264.896 264.896 0 0 0 23.716-55.156c1.092-3.624-0.636-7.44-3.844-9.448a78.712 78.712 0 0 1-25.588-25.96 79.944 79.944 0 0 1-11.556-41.384 79.864 79.864 0 0 1 11.528-41.388 78.688 78.688 0 0 1 25.576-25.988c3.2-2.004 4.928-5.816 3.844-9.436a264.432 264.432 0 0 0-58.912-103.44c-2.604-2.824-6.848-3.24-10.224-1.408a77.576 77.576 0 0 1-34.916 9.372 77.576 77.576 0 0 1-41.2-10.584 78.8 78.8 0 0 1-29.656-30.816 79.912 79.912 0 0 1-9.44-35.436c-0.108-3.792-2.552-7.22-6.248-8.084a257.664 257.664 0 0 0-117.976 0.048c-3.688 0.868-6.132 4.292-6.244 8.08a79.944 79.944 0 0 1-9.452 35.44 78.76 78.76 0 0 1-29.668 30.8 77.544 77.544 0 0 1-41.204 10.564 77.52 77.52 0 0 1-34.9-9.38c-3.38-1.832-7.632-1.412-10.236 1.416a264.42 264.42 0 0 0-35.232 48.236z m206.192-67.132c12.212-1.172 24.472-1.2 36.684-0.024 9.384 29.224 29.004 53.876 55.092 69.236a120.012 120.012 0 0 0 86.272 14.12 199.4 199.4 0 0 1 18.304 32.444c-20.08 22.908-31.176 52.584-31.152 83.332 0 31.492 11.5 60.912 31.152 83.332a204.168 204.168 0 0 1-18.352 32.444 120 120 0 0 0-86.224 14.096c-26.08 15.36-45.688 40.016-55.068 69.236a191.484 191.484 0 0 1-36.684 0.024c-9.384-29.224-29.004-53.876-55.092-69.236a120.012 120.012 0 0 0-86.272-14.12 201.092 201.092 0 0 1-18.308-32.444c20.084-22.908 31.18-52.584 31.156-83.332 0-31.492-11.5-60.912-31.156-83.332a204.5 204.5 0 0 1 18.356-32.444 120 120 0 0 0 86.224-14.096c26.08-15.36 45.688-40.016 55.068-69.236z"  horiz-adv-x="1024" />
      
      <glyph glyph-name="quanbushuju" unicode="&#59565;" d="M869.392 649.568c0-4.08-6.584-34.7-79.652-69.672-66.392-31.78-164.484-53.94-277.74-53.94s-211.348 22.16-277.74 53.94c-73.068 34.972-79.652 65.596-79.652 69.672 0 4.08 6.584 34.7 79.652 69.672C300.652 751.02 398.74 773.18 512 773.18c113.256 0 211.348-22.16 277.74-53.94 73.068-34.972 79.652-65.596 79.652-69.672z m0-129.32C787.6 468.54 657.948 435.136 512 435.136s-275.6 33.404-357.392 85.112v-128.804c0-8.192 3.704-19.888 18.452-34.74 14.932-15.036 38.808-30.668 71.912-44.768 66.032-28.132 160.412-46.628 267.028-46.628 106.616 0 200.996 18.496 267.028 46.628 33.104 14.1 56.98 29.732 71.912 44.768 14.748 14.852 18.452 26.548 18.452 34.74V520.248z m0-263.56c-16.8-10.54-35.292-19.972-54.924-28.336-79.712-33.956-186.68-53.86-302.468-53.86-115.788 0-222.76 19.904-302.468 53.86-19.632 8.364-38.124 17.796-54.924 28.336v-135.732c0-8.196 3.704-19.888 18.452-34.744 14.932-15.036 38.808-30.664 71.912-44.768 66.032-28.128 160.412-46.624 267.028-46.624 106.616 0 200.996 18.496 267.028 46.624 33.104 14.104 56.98 29.732 71.912 44.768 14.748 14.856 18.452 26.548 18.452 34.744v135.732z"  horiz-adv-x="1024" />
      
      <glyph glyph-name="tiaozhuandaofubiao" unicode="&#59564;" d="M342.672 98.98000000000002a8.004 8.004 0 0 0 0.16 11.316L443.324 208H208v-212a8 8 0 0 0-8-8H144a8 8 0 0 0-8 8v276a8 8 0 0 0 8 8h299.328l-100.5 97.708a8 8 0 0 0-0.16 11.312l39.04 40.152a8 8 0 0 0 11.312 0.16l178.824-173.86a16 16 0 0 0 0-22.944l-178.824-173.856a8 8 0 0 0-11.312 0.156l-39.04 40.152zM136 768a16 16 0 0 0 16 16h720a16 16 0 0 0 16-16v-768a16 16 0 0 0-16-16h-288a8 8 0 0 0-8 8v48a8 8 0 0 0 8 8h240V720H200v-328a8 8 0 0 0-8-8H144a8 8 0 0 0-8 8V768zM256 632a8 8 0 0 0 8 8h496a8 8 0 0 0 8-8v-56a8 8 0 0 0-8-8H264a8 8 0 0 0-8 8V632zM552 448a8 8 0 0 0 8 8h200a8 8 0 0 0 8-8v-56a8 8 0 0 0-8-8h-200a8 8 0 0 0-8 8v56z"  horiz-adv-x="1024" />
      
      <glyph glyph-name="jinrusuozaidewenjianjia" unicode="&#59563;" d="M536.552 146.47199999999998a8 8 0 0 1 11.316 0l183.848 183.848a8 8 0 0 1 0 11.316l-184.612 184.608a8 8 0 0 1-11.312 0l-33.944-33.94a8 8 0 0 1 0-11.316l108.764-108.76-315.444 0.568a8 8 0 0 1-8.016-8.008l0.068-48.128a8 8 0 0 1 7.988-7.988l323.412-0.584-116.184-116.184a8 8 0 0 1 0-11.312l34.116-34.12zM436.644 764c3.476 0 6.856-1.132 9.632-3.224l113.448-85.552c2.776-2.092 6.16-3.224 9.636-3.224h326.644a16 16 0 0 0 16-16v-640a16 16 0 0 0-16-16h-768a16 16 0 0 0-16 16V748a16 16 0 0 0 16 16h308.64z m411.36-700V608h-672v-544h672z"  horiz-adv-x="1024" />
      
      <glyph glyph-name="kongxinyuan" unicode="&#59562;" d="M512 184c110.456 0 200 89.544 200 200s-89.544 200-200 200-200-89.544-200-200 89.544-200 200-200z m0 60c77.32 0 140 62.68 140 140s-62.68 140-140 140-140-62.68-140-140 62.68-140 140-140z"  horiz-adv-x="1024" />
      
      <glyph glyph-name="a-gengduoyuanquan-zongxiang" unicode="&#59561;" d="M960 384c0 247.424-200.576 448-448 448S64 631.424 64 384s200.576-448 448-448 448 200.576 448 448z m-832 0c0 212.08 171.92 384 384 384 212.076 0 384-171.92 384-384 0-212.076-171.924-384-384-384-212.08 0-384 171.924-384 384z m424 168a8 8 0 0 1 8 8V640a8 8 0 0 1-8 8h-80a8 8 0 0 1-8-8v-80a8 8 0 0 1 8-8h80z m0-216a8 8 0 0 1 8 8v80a8 8 0 0 1-8 8h-80a8 8 0 0 1-8-8v-80a8 8 0 0 1 8-8h80z m8-208a8 8 0 0 0-8-8h-80a8 8 0 0 0-8 8v80a8 8 0 0 0 8 8h80a8 8 0 0 0 8-8v-80z"  horiz-adv-x="1024" />
      
      <glyph glyph-name="maohao" unicode="&#59560;" d="M560 532a8 8 0 0 0-8-8h-80a8 8 0 0 0-8 8V612a8 8 0 0 0 8 8h80a8 8 0 0 0 8-8v-80zM560 156a8 8 0 0 0-8-8h-80a8 8 0 0 0-8 8v80a8 8 0 0 0 8 8h80a8 8 0 0 0 8-8v-80z"  horiz-adv-x="1024" />
      
      <glyph glyph-name="yibeiguolv" unicode="&#59559;" d="M856 832a8 8 0 0 0 8-8v-56a8 8 0 0 0-8-8h-72l-143.864-268H553.08l139.716 268H235.204l167.876-321.54c0.604-1.148 0.92-2.428 0.92-3.724v-480.192l-62.004-15.968A8 8 0 0 0 332-53.67999999999995V407.768c0 1.32-0.328 2.62-0.952 3.784L144 760H72a8 8 0 0 0-8 8V824a8 8 0 0 0 8 8h784zM706-64c140.28 0 254 113.72 254 254S846.28 444 706 444 452 330.28 452 190s113.72-254 254-254z m0 64c-104.936 0-190 85.064-190 190s85.064 190 190 190 190-85.064 190-190-85.064-190-190-190zM612 152a8 8 0 0 0-8 8v56a8 8 0 0 0 8 8h56a8 8 0 0 0 8-8v-56a8 8 0 0 0-8-8h-56zM748 152a8 8 0 0 0-8 8v56a8 8 0 0 0 8 8h56a8 8 0 0 0 8-8v-56a8 8 0 0 0-8-8h-56z"  horiz-adv-x="1024" />
      
      <glyph glyph-name="beizhushuoming" unicode="&#59727;" d="M152 80V744h664v-132h72V800a16 16 0 0 1-16 16H96a16 16 0 0 1-16-16v-776a16 16 0 0 1 16-16h112v72H152zM180 676a8 8 0 0 0 8 8h592a8 8 0 0 0 8-8v-56a8 8 0 0 0-8-8H188a8 8 0 0 0-8 8V676zM490.528 580.892a8 8 0 0 1-9.056 0L404.4 528H268a16 16 0 0 1-16-16v-544a16 16 0 0 1 16-16h660a16 16 0 0 1 16 16V512a16 16 0 0 1-16 16h-360.4l-77.072 52.892z m140.036-199.536l17.724 17.728a3.14 3.14 0 0 0 4.432 0l106.364-106.364a3.14 3.14 0 0 0 0-4.432l-17.728-17.724a3.132 3.132 0 0 0-4.432 0l-106.36 106.36a3.132 3.132 0 0 0 0 4.432z m-186.892-186.892l153.652 153.652a12.536 12.536 0 0 0 17.728 0l93.064-93.064a12.536 12.536 0 0 0 0-17.728l-153.652-153.652a12.536 12.536 0 0 0-8.864-3.672h-93.064a12.536 12.536 0 0 0-12.536 12.536V185.60000000000002c0 3.324 1.32 6.512 3.672 8.864z m182.224-81.464h119.08c1.732 0 3.136-1.404 3.136-3.136v-25.068a3.132 3.132 0 0 0-3.136-3.132h-119.08a3.132 3.132 0 0 0-3.132 3.132v25.068c0 1.732 1.404 3.136 3.132 3.136z"  horiz-adv-x="1024" />
      
      <glyph glyph-name="xiangyou" unicode="&#59726;" d="M880.64 384a32 32 0 0 1-32 32H370.752l-0.064 116.672a25.6 25.6 0 0 1-3.2 12.416l-2.368 3.584a25.6 25.6 0 0 1-36.032 4.032L141.44 402.752a25.6 25.6 0 0 1-1.216-39.04l187.712-170.112a25.6 25.6 0 0 1 42.816 18.944L370.752 352h477.888a32 32 0 0 1 32 32z"  horiz-adv-x="1024" />
      
      <glyph glyph-name="xiangzuo" unicode="&#59724;" d="M131.776 384a32 32 0 0 0 32 32h477.888V532.608a25.6 25.6 0 0 0 3.2 12.416l2.432 3.584a25.6 25.6 0 0 0 36.032 4.032l187.712-149.952a25.6 25.6 0 0 0 1.216-39.04l-187.712-170.112a25.6 25.6 0 0 0-42.88 18.944V352H163.776a32 32 0 0 0-32 32z"  horiz-adv-x="1024" />
      
      <glyph glyph-name="fuwuqidizhi" unicode="&#59725;" d="M695.36 242.112l113.6-0.064a64 64 0 0 0 57.92-36.864l2.752-6.912 106.688-192a64 64 0 0 0-53.824-83.84l-6.912-0.384H108.416a64 64 0 0 0-62.528 77.632l1.792 6.592 106.688 192a64 64 0 0 0 53.248 43.328l7.488 0.448 113.536 0.064c14.976-20.736 31.104-42.048 48.256-64l-161.792-0.064-106.688-192h807.168l-106.624 192-161.856 0.064c17.216 21.952 33.28 43.264 48.256 64zM512 850.048a288 288 0 0 0 288-288c0-106.048-96-266.048-288-480-192 213.952-288 373.952-288 480A288 288 0 0 0 512 850.048z m0-64a224 224 0 0 1-224-224c0-73.984 68.096-197.056 205.824-361.472l18.176-21.44 2.56 3.008c142.912 167.488 216.128 293.824 221.184 371.456l0.256 8.448a224 224 0 0 1-224 224z m0-88.256a128 128 0 1 0 0-256 128 128 0 0 0 0 256z m0-64a64 64 0 1 1 0-128 64 64 0 0 1 0 128z"  horiz-adv-x="1024" />
      
      <glyph glyph-name="wangluojiance" unicode="&#59723;" d="M896 832a64 64 0 0 0 64-64v-768a64 64 0 0 0-64-64H128a64 64 0 0 0-64 64V768a64 64 0 0 0 64 64h768z m0-283.136H128V0h768V548.864z m-320.768-80a44.8 44.8 0 0 0 20.16-16.384l3.328-5.76 61.376-128.576h164.608a32 32 0 0 0 31.488-26.24l0.512-5.76a32 32 0 0 0-26.24-31.552l-5.76-0.512h-176.64a44.8 44.8 0 0 0-37.248 19.968l-3.2 5.568-48 100.416-103.296-253.184a44.8 44.8 0 0 0-15.936-19.84l-5.568-3.328a44.8 44.8 0 0 0-56.704 14.464l-3.392 5.76-64.704 130.24H192a32 32 0 0 0-31.488 26.24L160 286.08a32 32 0 0 0 26.24 31.424L192 318.08h129.92a44.8 44.8 0 0 0 36.928-19.392l3.2-5.44 51.072-102.848 103.68 253.952a44.8 44.8 0 0 0 58.432 24.512zM896 768H128v-155.136h768V768z m-576-45.568a32 32 0 1 0 0-64 32 32 0 0 0 0 64z m-96 0a32 32 0 1 0 0-64 32 32 0 0 0 0 64z m192 0a32 32 0 1 0 0-64 32 32 0 0 0 0 64z"  horiz-adv-x="1024" />
      
      <glyph glyph-name="xunhuanrongqi" unicode="&#59722;" d="M528 800a16 16 0 0 0 16 16h384a16 16 0 0 0 16-16v-384a16 16 0 0 0-16-16h-384a16 16 0 0 0-16 16V800zM80 352a16 16 0 0 0 16 16h384a16 16 0 0 0 16-16v-384a16 16 0 0 0-16-16H96a16 16 0 0 0-16 16v384zM448 756H156a16 16 0 0 1-16-16v-212H83.312c-7.124 0-10.696-8.616-5.656-13.656l94.688-94.688a8 8 0 0 1 11.312 0l94.688 94.688c5.04 5.04 1.468 13.656-5.656 13.656H212V684h236a8 8 0 0 1 8 8V748a8 8 0 0 1-8 8zM576 12a8 8 0 0 0-8 8v56a8 8 0 0 0 8 8h232v158h-56.688c-7.124 0-10.696 8.616-5.656 13.656l94.688 94.688a8 8 0 0 0 11.312 0l94.688-94.688c5.04-5.04 1.468-13.656-5.656-13.656H880V28a16 16 0 0 0-16-16h-288z"  horiz-adv-x="1024" />
      
      <glyph glyph-name="wutiaojianzhihang-suo" unicode="&#59721;" d="M512-64c247.424 0 448 200.576 448 448S759.424 832 512 832 64 631.424 64 384s200.576-448 448-448zM360 588a8 8 0 0 0 8 8h312a8 8 0 0 0 8-8v-96a8 8 0 0 0-8-8h-56a8 8 0 0 0-8 8v32h-184v-112h272a8 8 0 0 0 8-8v-224a8 8 0 0 0-8-8H320a8 8 0 0 0-8 8v224a8 8 0 0 0 8 8h40V588z"  horiz-adv-x="1024" />
      
      <glyph glyph-name="zhihangpanduan" unicode="&#59720;" d="M305.324 720C290.872 757.44 254.536 784 212 784c-55.228 0-100-44.772-100-100s44.772-100 100-100c42.536 0 78.872 26.56 93.324 64h153.664l60.844-140h78.508l-92.136 212h-200.88zM240 684a28 28 0 1 0-56 0 28 28 0 0 0 56 0zM212 484c42.536 0 78.872-26.56 93.324-64H496v-72H305.324c-14.452-37.44-50.788-64-93.324-64-55.228 0-100 44.772-100 100s44.772 100 100 100z m28-100a28 28 0 1 1-56 0 28 28 0 0 1 56 0zM212 184c42.536 0 78.872-26.56 93.324-64h176.012l138.824 300H736V551.508c0 9.84 9.032 15.8 15.936 10.528l219.252-167.508c6.416-4.9 6.416-16.156 0-21.056l-219.252-167.508c-6.904-5.276-15.936 0.692-15.936 10.528V348h-69.824l-138.824-300H305.324c-14.452-37.44-50.788-64-93.324-64-55.228 0-100 44.772-100 100s44.772 100 100 100z m0-128a28 28 0 1 1 0 56 28 28 0 0 1 0-56z"  horiz-adv-x="1024" />
      
      <glyph glyph-name="yunweipingtai" unicode="&#59719;" d="M858.325333 134.762667l53.333334-30.784L512-126.784 112.32 103.978667l53.333333 30.784L512-65.194667l346.325333 199.957334zM512 731.52l300.970667-173.781333v-347.52L512 36.394667 210.986667 210.197333V557.738667L511.978667 731.52z m-0.021333-61.568L264.32 526.976v-285.973333l247.637333-142.976 247.658667 142.976V526.976l-247.68 142.976z m-42.645334 200.192v-61.568L122.965333 608.618667v-399.957334l-53.333333-30.784V639.402667L469.333333 870.144z m85.333334 0l399.722666-230.741333v-461.504l-53.376 30.805333 0.021334 399.914667-346.368 199.957333V870.144zM237.44 515.84l21.141333 37.034667 274.24-156.501334 0.554667-329.450666-317.056 144.96v211.072h42.666667v-183.637334l-14.890667 278.826667 246.08-146.56zM773.034667 565.504l26.496-46.293333-275.413334-157.632 0.597334-1.066667-45.482667-24.64-25.962667 46.570667z"  horiz-adv-x="1024" />
      
      <glyph glyph-name="jiqunjiedianguanli" unicode="&#59608;" d="M352 224a128 128 0 0 0 124.416-97.792L475.968 128 928 128a32 32 0 1 0 0-64H475.968l0.512 1.984a128 128 0 0 0-248.96 0l0.512-2.048L96 64a32 32 0 1 0 0 64l132.032 0.064-0.448-1.92A128 128 0 0 0 352 224z m0-64a64 64 0 1 1 0-128 64 64 0 0 1 0 128z m320 352a128 128 0 0 0 124.416-97.792l-0.448 1.856L928 416a32 32 0 1 0 0-64h-132.032l0.512 1.984a128 128 0 0 0-248.96 0l0.512-2.048L96 352a32 32 0 0 0 0 64l452.032 0.064-0.448-1.92A128 128 0 0 0 672 512z m0-64a64 64 0 1 1 0-128 64 64 0 0 1 0 128z m-384 352a128 128 0 0 0 124.416-97.792L411.968 704 928 704a32 32 0 1 0 0-64H411.968l0.512 1.984a128 128 0 0 0-248.96 0L164.032 640 96 640a32 32 0 0 0 0 64l68.032 0.064-0.448-1.92A128 128 0 0 0 288 800z m0-64a64 64 0 1 1 0-128 64 64 0 0 1 0 128z"  horiz-adv-x="1024" />
      
      <glyph glyph-name="rongqifuwuqijiankong" unicode="&#59683;" d="M928 384a32 32 0 0 0 32-32V0a64 64 0 0 0-64-64H128a64 64 0 0 0-64 64v160a32 32 0 0 0 26.24 31.488L96 192a32 32 0 0 0 32-32V0h768V352a32 32 0 0 0 26.24 31.488L928 384zM250.304 284.544c3.392-3.84 7.296-7.04 11.776-9.728l7.04-3.456L512 174.464l242.816 96.896a51.2 51.2 0 0 1 18.88 12.992 51.2 51.2 0 0 0-18.816-81.92L535.68 115.008a64 64 0 0 0-47.488 0l-219.072 87.424a51.2 51.2 0 0 0-18.88 82.112z m0.064 128.256c3.328-3.84 7.296-7.04 11.776-9.728l7.04-3.456L512.064 302.72l242.816 96.896a51.2 51.2 0 0 1 18.88 12.992 51.2 51.2 0 0 0-18.816-81.92L535.68 243.264a64 64 0 0 0-47.36 0L269.12 330.688a51.2 51.2 0 0 0-18.816 82.112z m285.376 228.736l219.072-87.424a51.2 51.2 0 0 0 0-95.104L535.744 371.584a64 64 0 0 0-47.488 0L269.184 459.008a51.2 51.2 0 0 0 0 95.104l219.072 87.424a64 64 0 0 0 47.488 0zM896 832a64 64 0 0 0 64-64v-160a32 32 0 0 0-26.24-31.488L928 576a32 32 0 0 0-32 32V768H128v-352a32 32 0 0 0-26.24-31.488L96 384a32 32 0 0 0-32 32V768a64 64 0 0 0 64 64h768zM512 582.08L322.688 506.624 512 431.04l189.248 75.584L512 582.144z"  horiz-adv-x="1024" />
      
      <glyph glyph-name="waijieshujukujiankong" unicode="&#59604;" d="M864 416.384a64 64 0 0 0 64-64v-192a64 64 0 0 0-64-64h-320V0l384-0.064a32 32 0 1 0 0-64h-832a32 32 0 1 0 0 64h384v96.384h-320a64 64 0 0 0-64 64v192a64 64 0 0 0 64 64h704z m0-64h-704v-192h704v192z m-472.704-64a32 32 0 0 0 0-64h-128a32 32 0 1 0 0 64h128z m280.704 0a32 32 0 1 0 0-64 32 32 0 0 0 0 64z m102.4 0a32 32 0 1 0 0-64 32 32 0 0 0 0 64z m89.6 512a64 64 0 0 0 64-64v-192a64 64 0 0 0-64-64h-704a64 64 0 0 0-64 64v192a64 64 0 0 0 64 64h704z m0-64h-704v-192h704v192z m-472.704-64a32 32 0 0 0 0-64h-128a32 32 0 1 0 0 64h128z m280.704 0a32 32 0 1 0 0-64 32 32 0 0 0 0 64z m102.4 0a32 32 0 1 0 0-64 32 32 0 0 0 0 64z"  horiz-adv-x="1024" />
      
      <glyph glyph-name="fuwuqijiankong" unicode="&#59605;" d="M896 800.384a64 64 0 0 0 64-64v-704a64 64 0 0 0-64-64H128a64 64 0 0 0-64 64v704a64 64 0 0 0 64 64h768z m0-576H128v-192h768v192z m-536.64-64a32 32 0 0 0 0-64h-128a32 32 0 1 0 0 64h128z m344.704 0a32 32 0 1 0 0-64 32 32 0 0 0 0 64z m102.4 0a32 32 0 1 0 0-64 32 32 0 0 0 0 64z m89.6 320H128v-192h768v192z m-536.704-64a32 32 0 1 0 0-64h-128a32 32 0 1 0 0 64h128z m344.704 0a32 32 0 1 0 0-64 32 32 0 0 0 0 64z m102.4 0a32 32 0 1 0 0-64 32 32 0 0 0 0 64z m89.6 320H128v-192h768v192z m-536.704-64a32 32 0 1 0 0-64h-128a32 32 0 1 0 0 64h128z m344.704 0a32 32 0 1 0 0-64 32 32 0 0 0 0 64z m102.4 0a32 32 0 1 0 0-64 32 32 0 0 0 0 64z"  horiz-adv-x="1024" />
      
      <glyph glyph-name="yingyongjiankong" unicode="&#59606;" d="M800 32a32 32 0 1 0 0-64h-576a32 32 0 1 0 0 64h576z m96 768a64 64 0 0 0 64-64v-576a64 64 0 0 0-64-64H128a64 64 0 0 0-64 64v576a64 64 0 0 0 64 64h768z m0-64H128v-576h768v576zM497.088 433.088v-104.576a104.512 104.512 0 1 0-104.576 104.576h104.576z m134.4 0a104.512 104.512 0 1 0-104.576-104.576V433.088h104.576z m-185.664-51.2h-53.312a53.312 53.312 0 1 1 52.928-60.032l0.448 6.656-0.064 53.376z m132.288 0v-53.376a53.312 53.312 0 1 1 60.032 52.928l-6.656 0.448h-53.376zM392.512 672c57.728 0 104.576-46.784 104.576-104.512v-104.576H392.512a104.512 104.512 0 0 0 0 209.088z m238.976 0a104.512 104.512 0 1 0 0-209.088H526.912V567.488c0 57.728 46.848 104.512 104.576 104.512z m-238.976-51.2a53.312 53.312 0 0 1-6.656-106.24l6.656-0.448 53.312 0.064v53.312a53.376 53.376 0 0 1-40.128 51.712l-6.464 1.216-6.72 0.384z m238.976 0a53.312 53.312 0 0 1-52.928-46.656l-0.448-6.656v-53.312h53.376a53.312 53.312 0 0 1 52.928 46.592l0.384 6.72a53.312 53.312 0 0 1-53.312 53.312z"  horiz-adv-x="1024" />
      
      <glyph glyph-name="gaojingfangshi" unicode="&#59607;" d="M928 64a32 32 0 1 0 0-64h-256a32 32 0 1 0 0 64h256zM512.576 760.192a64 64 0 0 0 17.984-15.872l4.48-6.656L744.128 384h-74.368L480 705.088 120.064 96H576v-64H120.064a64 64 0 0 0-63.552 56.512L56.064 96a64 64 0 0 0 5.12 24.96l3.84 7.616 359.872 609.088a64 64 0 0 0 87.68 22.528zM928 192a32 32 0 1 0 0-64h-256a32 32 0 1 0 0 64h256z m-448.128 55.104a44.8 44.8 0 1 0 0-89.6 44.8 44.8 0 0 0 0 89.6zM928 320a32 32 0 1 0 0-64h-256a32 32 0 1 0 0 64h256zM485.76 543.168a32 32 0 0 0 32-32v-0.832l-5.12-192a32 32 0 0 0-31.936-31.168h-1.6a32 32 0 0 0-32 31.232l-4.672 192a32 32 0 0 0 31.168 32.768h12.16z"  horiz-adv-x="1024" />
      
      <glyph glyph-name="BIjisuanyinqingjiankong" unicode="&#59609;" d="M800 32a32 32 0 1 0 0-64h-576a32 32 0 1 0 0 64h576z m96 768a64 64 0 0 0 64-64v-576a64 64 0 0 0-64-64H128a64 64 0 0 0-64 64v576a64 64 0 0 0 64 64h768z m0-64H128v-576h768v576z m-200.96-99.392c11.2 0 20.224-3.712 27.136-11.136 6.976-7.424 10.432-18.688 10.432-33.856v-288.768c0-15.168-3.456-26.496-10.432-33.92a35.2 35.2 0 0 0-27.072-11.328 34.112 34.112 0 0 0-26.368 11.392c-6.976 7.616-10.432 18.88-10.432 33.92V591.552c0 14.976 3.456 26.24 10.24 33.728a34.176 34.176 0 0 0 26.56 11.264z m-244.736-6.208c17.536 0 32.64-1.088 45.504-3.264 12.8-2.176 24.32-6.4 34.56-12.544a90.496 90.496 0 0 0 38.208-45.824c3.52-9.6 5.248-19.712 5.248-30.4 0-36.672-18.304-63.488-55.04-80.512 48.192-15.36 72.32-45.184 72.32-89.472 0-20.48-5.248-38.976-15.744-55.36a94.528 94.528 0 0 0-42.56-36.416 151.104 151.104 0 0 0-38.464-9.856 392.32 392.32 0 0 0-50.752-2.88H331.52c-16.192 0-27.712 3.648-34.624 10.88-6.912 7.232-10.368 18.816-10.368 34.56V584.96c0 16.128 3.52 27.776 10.624 34.88 7.04 7.04 18.56 10.624 34.368 10.624z m-12.224-203.776H360.832v-107.008h79.744c50.176 0 75.264 18.112 75.264 54.272 0 18.496-6.528 31.872-19.52 40.256-12.992 8.32-32.384 12.48-58.24 12.48z m-17.024 147.968h-60.224v-94.72H428.8c18.56 0 32.832 1.728 42.88 5.248a40.96 40.96 0 0 1 23.168 20.032 45.056 45.056 0 0 1 6.208 23.488c0 18.496-6.528 30.72-19.712 36.864-13.184 6.08-33.28 9.088-60.288 9.088z"  horiz-adv-x="1024" />
      
      <glyph glyph-name="huihuaguanli" unicode="&#59610;" d="M898.304 800c31.616 0 57.728-23.808 61.312-54.528l0.384-7.168V544a32 32 0 1 0-64 0v192H128v-589.696h127.744l85.12-85.184 85.248 85.12H512a32 32 0 0 0 31.488-26.24l0.512-5.696a32 32 0 0 0-32-32h-59.328L340.928-29.44 229.12 82.304H125.696a61.696 61.696 0 0 0-61.312 54.528L64 144V738.304c0 31.616 23.808 57.728 54.528 61.312l7.168 0.384h772.608z m-20.608-354.112l5.568-2.56 18.624-10.752 19.392-11.52c16.448-9.28 22.208-30.08 14.272-46.592a53.376 53.376 0 0 1-6.4-25.856c0-30.08 23.68-55.168 54.4-57.344 15.936-1.28 29.568-13.312 31.424-29.12l0.192-6.016v-45.184a36.672 36.672 0 0 0-33.728-36.608 57.408 57.408 0 0 1-53.76-57.344c0-7.68 1.536-15.168 5.12-22.976l1.088-1.664a8.512 8.512 0 0 1 1.024-1.216 35.776 35.776 0 0 0-9.408-42.432l-4.928-3.456-37.952-22.208c-16.448-10.112-36.48-4.352-47.232 10.752a58.368 58.368 0 0 1-48 25.792 56.576 56.576 0 0 1-48-25.792 35.712 35.712 0 0 0-41.6-13.376l-5.696 2.56-37.952 22.272a35.968 35.968 0 0 0-14.272 46.592 53.312 53.312 0 0 1 6.4 25.856 58.112 58.112 0 0 1-54.4 58.112 36.544 36.544 0 0 0-32.448 29.76 138.24 138.24 0 0 0-0.512 12.16v37.696c0 19.328 14.272 34.368 32.96 35.84a58.112 58.112 0 0 1 54.4 58.112 53.376 53.376 0 0 1-6.4 25.792 36.16 36.16 0 0 0 9.216 43.072l5.12 3.52 18.56 10.816 20.032 10.688a36.032 36.032 0 0 0 47.296-10.688 56.576 56.576 0 0 1 47.936-25.856 56.64 56.64 0 0 1 48 25.856 36.032 36.032 0 0 0 41.6 13.312zM788.48 361.216c-8.32 0-15.616-1.024-22.848-2.048a125.248 125.248 0 0 1-77.12-44.16 117.76 117.76 0 0 1-22.912-39.808 151.68 151.68 0 0 1-7.296-44.16c0.064-15.104 2.88-30.08 8.32-44.16 5.248-14.72 12.544-28.288 22.976-39.872a130.496 130.496 0 0 1 98.944-46.208 131.008 131.008 0 0 1 99.008 46.208c9.28 11.52 17.664 25.216 22.848 39.872 5.44 14.08 8.32 29.056 8.32 44.16 0 15.744-2.048 30.4-7.296 44.16a137.536 137.536 0 0 1-22.848 39.872 136.96 136.96 0 0 1-77.12 44.096 155.264 155.264 0 0 1-22.976 2.048zM512 384v-64H256a32 32 0 0 0 0 64h256z m64 192a32 32 0 0 0 0-64H256a32 32 0 0 0 0 64h320z"  horiz-adv-x="1024" />
      
      <glyph glyph-name="rizhixiazai" unicode="&#59611;" d="M864 320a32 32 0 0 0 32-32v-274.752l73.344 73.408 4.48 3.648a32 32 0 0 0 44.48-44.48l-3.648-4.48-128-128-4.48-3.648a32 32 0 0 0-36.352 0l-4.48 3.648-128 128-3.648 4.48a32 32 0 0 0 0 36.352l3.648 4.48 4.48 3.648a32 32 0 0 0 36.352 0l4.48-3.648L832 13.248V288a32 32 0 0 0 32 32zM704 800a32 32 0 0 0 32-32v-31.296H832a128 128 0 0 0 128-128V416a32 32 0 1 0-64 0v64H128v-383.36a64 64 0 0 1 64-64h416a32 32 0 0 0 0-64H192a128 128 0 0 0-128 128v512a128 128 0 0 0 128 128l96 0.064V768a32 32 0 0 0 64 0v-31.296h320V768a32 32 0 0 0 32 32z m-192-608.32a32 32 0 0 0 0-64H256a32 32 0 1 0 0 64h256z m192 160.064a32 32 0 0 0-32-32H256a32 32 0 0 0 0 64h416a32 32 0 0 0 32-32z m-32 320.96h-320v-32.832a32 32 0 1 0-64 0V672.64H192a64 64 0 0 1-64-64V544h768V608.64a64 64 0 0 1-64 64l-96 0.064v-32.832a32 32 0 1 0-64 0V672.64z"  horiz-adv-x="1024" />
      
      <glyph glyph-name="wenjianfuwuqijiankong" unicode="&#59646;" d="M446.976 832l118.336-128H825.6c74.24 0 134.4-60.16 134.4-134.4v-456.256a134.4 134.4 0 0 0-134.4-134.4H198.4a134.4 134.4 0 0 0-134.4 134.4V832h382.976z m-28.928-64H128v-654.656a70.4 70.4 0 0 1 70.4-70.4h627.2a70.4 70.4 0 0 1 70.4 70.4V569.6A70.4 70.4 0 0 1 825.6 640H536.32L418.112 768z m56.32-237.248l3.2-5.312 95.488-203.776h235.2a32 32 0 0 0 31.488-26.24l0.512-5.76a32 32 0 0 0-26.24-31.552l-5.76-0.512H552.768a32 32 0 0 0-26.368 13.888l-2.624 4.544L449.792 433.92 382.336 276.992a32 32 0 0 0-24-18.944l-5.44-0.448h-128a32 32 0 0 0-5.76 63.488l5.76 0.512 106.944 0.064 87.296 202.88a32 32 0 0 0 55.296 6.208z"  horiz-adv-x="1024" />
      
      <glyph glyph-name="Nginxjiankong" unicode="&#59688;" d="M896 832a64 64 0 0 0 64-64v-768a64 64 0 0 0-64-64H128a64 64 0 0 0-64 64V768a64 64 0 0 0 64 64h768z m0-283.136H128V0h768V548.864zM369.984 449.152l4.224-3.456L640 189.184V422.656a32 32 0 0 0 26.24 31.488l5.76 0.512a32 32 0 0 0 31.488-26.24l0.512-5.76v-308.8a32 32 0 0 0-49.984-26.56l-4.224 3.52L384 347.328v-233.472a32 32 0 0 0-26.24-31.488l-5.76-0.512a32 32 0 0 0-31.488 26.24L320 113.856V422.656a32 32 0 0 0 49.984 26.496zM896 768H128v-155.136h768V768z m-672-45.568a32 32 0 1 0 0-64 32 32 0 0 0 0 64z m96 0a32 32 0 1 0 0-64 32 32 0 0 0 0 64z m96 0a32 32 0 1 0 0-64 32 32 0 0 0 0 64z"  horiz-adv-x="1024" />
      
      <glyph glyph-name="gaojingguize" unicode="&#59689;" d="M695.808-64a51.2 51.2 0 0 1 37.952 16.832l180.992 199.68a51.2 51.2 0 0 1 13.248 34.368V756.992a64 64 0 0 1-64 64h-704a64 64 0 0 1-64-64V0a64 64 0 0 1 64-64h535.808z m-23.808 64h-512V756.992h704v-546.752h-102.4a89.6 89.6 0 0 1-89.6-89.6V0zM310.784 320a32 32 0 0 1 32 31.36l5.44 257.408v0.704a32 32 0 0 1-32 32h-12.352a32 32 0 0 1-31.36-32.64l4.992-257.472a32 32 0 0 1 32-31.36zM736 512a32 32 0 1 1 0 64h-256a32 32 0 1 1 0-64z m-89.6-128a32 32 0 1 1 0 64H480a32 32 0 0 1 0-64z m-38.4-128a32 32 0 0 1 0 64h-128a32 32 0 0 1 0-64z m-297.856-65.664a44.8 44.8 0 1 1 0 89.6 44.8 44.8 0 0 1 0-89.6z m425.856-140.672v64.64a32 32 0 0 0 32 32l54.016-0.064-86.016-96.576z"  horiz-adv-x="1024" />
      
      <glyph glyph-name="Redisjiankong" unicode="&#59690;" d="M896 832a64 64 0 0 0 64-64v-768a64 64 0 0 0-64-64H128a64 64 0 0 0-64 64V768a64 64 0 0 0 64 64h768z m0-283.136H128V0h768V548.864zM581.76 455.488a115.776 115.776 0 0 0 38.08-225.088l9.344-9.6c10.688-11.52 20.48-24 29.12-37.312l8.32-13.568 33.152-58.048a32 32 0 0 0-52.288-36.48l-3.264 4.736-33.152 57.984a211.84 211.84 0 0 1-92.544 86.016L419.84 224v-125.376a32 32 0 1 0-64 0V391.488a64 64 0 0 0 56.512 63.552l7.488 0.448h161.92z m-161.984-63.936V288.128l162.048-0.128a51.776 51.776 0 0 1 51.328 45.248l0.384 6.528a51.776 51.776 0 0 1-45.248 51.328l-6.464 0.384-162.048 0.064zM896 768H128v-155.136h768V768z m-672-45.568a32 32 0 1 0 0-64 32 32 0 0 0 0 64z m96 0a32 32 0 1 0 0-64 32 32 0 0 0 0 64z m96 0a32 32 0 1 0 0-64 32 32 0 0 0 0 64z"  horiz-adv-x="1024" />
      
      <glyph glyph-name="rizhichaxun" unicode="&#59600;" d="M366.933333 810.666667c9.386667 0 17.066667-7.68 17.066667-17.066667V725.333333h256V793.6c0 9.386667 7.68 17.066667 17.066667 17.066667h93.866666c9.386667 0 17.066667-7.68 17.066667-17.066667V725.333333h128a42.666667 42.666667 0 0 0 42.666667-42.666666v-640a42.666667 42.666667 0 0 0-42.666667-42.666667H128a42.666667 42.666667 0 0 0-42.666667 42.666667V682.666667a42.666667 42.666667 0 0 0 42.666667 42.666666h128V793.6c0 9.386667 7.68 17.066667 17.066667 17.066667h93.866666zM853.333333 512H170.666667v-426.666667h682.666666V512z m-315.733333-256c9.386667 0 17.066667-7.68 17.066667-17.066667v-51.2a17.066667 17.066667 0 0 0-17.066667-17.066666H273.066667a17.066667 17.066667 0 0 0-17.066667 17.066666v51.2c0 9.386667 7.68 17.066667 17.066667 17.066667h264.533333z m213.333333 170.666667c9.386667 0 17.066667-7.68 17.066667-17.066667v-51.2a17.066667 17.066667 0 0 0-17.066667-17.066667H273.066667a17.066667 17.066667 0 0 0-17.066667 17.066667v51.2c0 9.386667 7.68 17.066667 17.066667 17.066667h477.866666z"  horiz-adv-x="1024" />
      
      <glyph glyph-name="gaojingpeizhi" unicode="&#59601;" d="M836.096 332.245333c6.016 0 10.965333-4.736 11.221333-10.752 0.554667-14.549333 3.541333-33.024 14.293334-38.144 12.202667-5.802667 32.725333 5.248 41.813333 11.349334l2.304 1.706666 2.432 1.365334a11.221333 11.221333 0 0 0 10.24-0.853334l2.176-1.792 39.253333-41.386666a11.264 11.264 0 0 0 1.024-14.208c-8.618667-12.117333-17.749333-29.098667-12.245333-41.130667 6.314667-13.781333 30.506667-18.986667 38.442667-19.669333 4.821333-0.469333 8.704-3.925333 9.856-8.405334l0.341333-2.816v-54.485333c0-5.802667-4.394667-10.666667-10.197333-11.178667-7.936-0.725333-32.128-5.930667-38.442667-19.754666-4.906667-10.666667 1.749333-25.258667 9.386667-36.864l2.858666-4.224 1.450667-2.773334a11.221333 11.221333 0 0 0-0.938667-9.386666l-1.493333-2.048-39.253333-41.386667a11.221333 11.221333 0 0 0-14.890667-1.237333c-7.168 5.418667-30.72 19.370667-44.117333 13.013333-9.557333-4.565333-12.970667-19.626667-13.994667-33.152l-0.298667-4.992-0.426666-2.474667a11.264 11.264 0 0 0-7.808-7.893333l-2.986667-0.426667H774.4a11.221333 11.221333 0 0 0-11.178667 10.794667c-0.597333 14.592-3.541333 33.024-14.293333 38.144-12.202667 5.802667-32.768-5.248-41.813333-11.349333l-2.346667-1.664-2.432-1.365334a11.221333 11.221333 0 0 0-10.282667 0.853334l-2.133333 1.749333-39.253333 41.386667a11.221333 11.221333 0 0 0-1.024 14.208c8.618667 12.117333 17.749333 29.056 12.245333 41.088-5.546667 12.245333-24.874667 17.664-35.114667 19.285333l-3.328 0.426667-2.773333 0.64a11.221333 11.221333 0 0 0-7.082667 7.765333l-0.384 2.816v54.485333c0 5.802667 4.437333 10.666667 10.24 11.178667 8.533333 0.853333 32.170667 5.973333 38.442667 19.754667 4.906667 10.709333-1.792 25.301333-9.386667 36.906666l-2.858666 4.181334-1.450667 2.773333a11.264 11.264 0 0 0 0.938667 9.472l1.536 2.005333 39.253333 41.344a11.221333 11.221333 0 0 0 14.848 1.28c7.210667-5.418667 30.72-19.413333 44.16-13.056 9.557333 4.565333 12.928 19.626667 13.994667 33.152l0.298666 4.992 0.341334 2.474667a11.221333 11.221333 0 0 0 7.850666 7.893333l2.986667 0.426667h61.653333zM540.8 776.96l231.168-393.6a234.666667 234.666667 0 0 1-188.458667-346.837333l-484.394666 0.042666c-42.24 0-70.4 41.6-49.28 75.136L442.24 776.96c21.12 36.821333 77.44 36.821333 98.56 0z m264.490667-549.418667a87.381333 87.381333 0 0 1-87.296-87.296c0-48.128 39.168-87.253333 87.296-87.253333a87.338667 87.338667 0 0 1 87.253333 87.253333 87.381333 87.381333 0 0 1-87.253333 87.296z m-351.232 9.813334c-44.544-45.056 27.093333-117.333333 71.594666-72.362667 47.786667 48.170667-23.893333 120.533333-71.594666 72.362667z m-14.378667 323.242666v-205.866666c0-65.962667 101.930667-65.962667 101.930667 0V560.64c0 67.498667-101.930667 67.498667-101.930667 0z"  horiz-adv-x="1024" />
      
      <glyph glyph-name="jiankongyibiaopan" unicode="&#59602;" d="M682.666667 85.333333a42.666667 42.666667 0 0 0 0-85.333333H341.333333a42.666667 42.666667 0 0 0 0 85.333333h341.333334z m213.333333 682.666667a42.666667 42.666667 0 0 0 42.666667-42.666667v-512a42.666667 42.666667 0 0 0-42.666667-42.666666H128a42.666667 42.666667 0 0 0-42.666667 42.666666V725.333333a42.666667 42.666667 0 0 0 42.666667 42.666667h768zM445.013333 660.352l-152.234666-256h-78.933334v-85.333333H341.333333l101.504 170.666666 95.573334-170.666666h272.426666v85.333333h-222.378666l-143.445334 256z"  horiz-adv-x="1024" />
      
      <glyph glyph-name="yunweigongju" unicode="&#59603;" d="M938.666667 537.6V42.666667a42.666667 42.666667 0 0 0-42.666667-42.666667H128a42.666667 42.666667 0 0 0-42.666667 42.666667V537.6h853.333334zM619.690667 469.333333h-79.445334l-135.936-373.333333h79.445334L619.690667 469.333333z m58.965333-54.656l-52.778667-52.864 79.232-79.146666-79.232-79.189334 52.778667-52.821333L810.666667 282.666667l-132.010667 132.010666z m-333.312 0L213.333333 282.666667l132.010667-132.010667 52.778667 52.864-79.189334 79.146667 79.189334 79.189333-52.778667 52.821333zM896 768a42.666667 42.666667 0 0 0 42.666667-42.666667v-128H85.333333V725.333333a42.666667 42.666667 0 0 0 42.666667 42.666667h768zM230.4 713.770667H170.666667v-59.733334h59.733333v59.733334z m85.333333 0H256v-59.733334h59.733333v59.733334z m85.333334 0H341.333333v-59.733334h59.733334v59.733334z"  horiz-adv-x="1024" />
      
      <glyph glyph-name="jiandaoyunshuru" unicode="&#59599;" d="M890.344 396.284c-0.336-1.7-0.688-3.392-1.06-5.08a198.464 198.464 0 0 1-259.944-188.776v-130.1l-0.508-0.504-0.04 0.04v245.812a314.388 314.388 0 0 1-208.504 296.024 266.412 266.412 0 0 0 208.776 100.932 266.404 266.404 0 0 0 246.116-164.44 266.388 266.388 0 0 0 15.164-153.908zM857.164 350.072a150.56 150.56 0 0 0 17.66-4.64 266.392 266.392 0 0 0-57.352-85.528l-0.02-0.02-140.112-139.696v82.256a150.48 150.48 0 0 0 179.824 147.628zM851.396 225.94399999999996l-174.056-173.54v-0.396h150.436a150.48 150.48 0 0 1 89.784 271.264 314.492 314.492 0 0 0-66.164-97.328zM393.236 572.136a266.388 266.388 0 0 0 187.556-254.46v-197.836l-140.112 140.044a266.38 266.38 0 0 0-47.444 312.252zM344.704 582.3399999999999a314.396 314.396 0 0 1 62.032-356.4l174.056-173.964v-0.696h-266.4a266.396 266.396 0 1 0 30.312 531.06z"  horiz-adv-x="1024" />
      
      <glyph glyph-name="guanlixitong_cunchuguanli" unicode="&#59598;" d="M856.384 317.888l5.568-2.56 18.688-10.752 19.328-11.52c16.448-9.28 22.208-30.08 14.272-46.592a53.376 53.376 0 0 1-6.4-25.856c0-30.08 23.68-55.168 54.4-57.344 15.936-1.28 29.568-13.312 31.488-29.12l0.128-6.016v-45.184a36.672 36.672 0 0 0-33.728-36.608 57.408 57.408 0 0 1-53.76-57.344c0-7.68 1.536-15.168 5.12-22.976l1.088-1.664a8.512 8.512 0 0 1 1.024-1.216 35.776 35.776 0 0 0-9.408-42.432l-4.928-3.456-37.952-22.208c-16.448-10.112-36.48-4.352-47.232 10.752a58.368 58.368 0 0 1-48 25.792 56.576 56.576 0 0 1-48-25.792 35.712 35.712 0 0 0-41.6-13.376l-5.696 2.56-37.888 22.272a35.968 35.968 0 0 0-14.336 46.592 53.312 53.312 0 0 1 6.4 25.856 58.112 58.112 0 0 1-54.4 58.112 36.544 36.544 0 0 0-32.448 29.76 138.24 138.24 0 0 0-0.512 12.16v37.696c0 19.328 14.336 34.368 32.96 35.84a58.112 58.112 0 0 1 54.4 58.112 53.376 53.376 0 0 1-6.4 25.792 36.16 36.16 0 0 0 9.216 43.072l5.12 3.52 18.56 10.816 20.032 10.688a36.032 36.032 0 0 0 47.296-10.688 56.576 56.576 0 0 1 48-25.856 56.64 56.64 0 0 1 48 25.856 36.032 36.032 0 0 0 41.6 13.312zM634.304 832a64 64 0 0 0 47.36-20.864l197.632-216.832a64 64 0 0 0 16.704-43.072V422.4a38.4 38.4 0 0 0-76.8 0V546.24L628.736 755.2H512V640a64 64 0 0 0-64-64H256a64 64 0 0 0-64 64V755.2h-51.2v-742.4h332.8a38.4 38.4 0 0 0 0-76.8H128a64 64 0 0 0-64 64V768a64 64 0 0 0 64 64h506.368z m132.928-598.784c-8.32 0-15.616-1.024-22.848-2.048a125.248 125.248 0 0 1-77.056-44.16 117.76 117.76 0 0 1-22.976-39.808 151.68 151.68 0 0 1-7.296-44.16c0.064-15.104 2.88-30.08 8.32-44.16 5.248-14.72 12.544-28.288 22.976-39.872a130.496 130.496 0 0 1 98.944-46.208 131.008 131.008 0 0 1 99.008 46.208c9.28 11.52 17.664 25.216 22.848 39.872 5.44 14.08 8.32 29.056 8.32 44.16 0 15.744-2.048 30.4-7.296 44.16a137.536 137.536 0 0 1-22.848 39.872 136.96 136.96 0 0 1-77.12 44.096 155.264 155.264 0 0 1-22.976 2.048zM473.6 256a38.4 38.4 0 0 0 0-76.8H230.4a38.4 38.4 0 0 0 0 76.8h243.2z m128 192a38.4 38.4 0 1 0 0-76.8H230.4a38.4 38.4 0 1 0 0 76.8h371.2zM435.2 755.2H268.8v-102.4h166.4V755.2z"  horiz-adv-x="1024" />
      
      <glyph glyph-name="yuanxingbeifen" unicode="&#59596;" d="M512 800c229.76 0 416-186.24 416-416s-186.24-416-416-416S96 154.24 96 384 282.24 800 512 800z m0-64a352 352 0 1 1 0-704c194.4 0 352 157.6 352 352S706.4 736 512 736z m0-256a96 96 0 1 0 0-192 96 96 0 0 0 0 192z"  horiz-adv-x="1024" />
      
      <glyph glyph-name="duobianxing" unicode="&#59594;" d="M864 784A48 48 0 0 0 912 736v-128a48 48 0 0 0-48-48h-32v-352h32a48 48 0 0 0 47.776-43.392L912 160v-128a48 48 0 0 0-48-48h-128a48 48 0 0 0-48 48v32h-352v-32a48 48 0 0 0-43.392-47.776L288-16H160A48 48 0 0 0 112 32v128A48 48 0 0 0 160 208h128c11.84 0 22.656-4.288 31.04-11.36L688.064 606.528 688 608V736A48 48 0 0 0 736 784z m-592-640h-96v-96h96v96z m576 0h-96v-96h96v96z m-115.584 416.128L343.296 128H688v32a48 48 0 0 0 43.392 47.776L736 208h32v352h-32c-1.216 0-2.4 0.032-3.584 0.128zM848 720h-96v-96h96v96z"  horiz-adv-x="1024" />
      
      <glyph glyph-name="juxing" unicode="&#59595;" d="M288 784A48 48 0 0 0 336 736v-32h352V736a48 48 0 0 0 43.392 47.776L736 784h128A48 48 0 0 0 912 736v-128a48 48 0 0 0-48-48h-32v-352h32a48 48 0 0 0 47.776-43.392L912 160v-128a48 48 0 0 0-48-48h-128a48 48 0 0 0-48 48v32h-352v-32a48 48 0 0 0-43.392-47.776L288-16H160A48 48 0 0 0 112 32v128A48 48 0 0 0 160 208h32v352H160a48 48 0 0 0-47.776 43.392L112 608V736A48 48 0 0 0 160 784z m-16-640h-96v-96h96v96z m576 0h-96v-96h96v96zM336 608A48 48 0 0 0 288 560H256v-352h32a48 48 0 0 0 47.776-43.392L336 160v-32h352v32a48 48 0 0 0 43.392 47.776L736 208h32v352h-32a48 48 0 0 0-47.776 43.392L688 608V640h-352z m512 112h-96v-96h96v96z m-576 0h-96v-96h96v96z"  horiz-adv-x="1024" />
      
      <glyph glyph-name="hebing" unicode="&#59597;" d="M325.404444 197.404444A320.113778 320.113778 0 0 0 384 831.943111a320.113778 320.113778 0 0 0 314.595556-261.347555 320.113778 320.113778 0 0 0-58.595556-634.652445 320.113778 320.113778 0 0 0-314.595556 261.347556z m-5.006222 74.808889a320.056889 320.056889 0 0 0 303.388445 303.388445A248.092444 248.092444 0 0 1 135.964444 512a248.092444 248.092444 0 0 1 184.376889-239.786667z m79.815111-79.815111a248.092444 248.092444 0 0 1 487.765334 63.601778 248.092444 248.092444 0 0 1-184.376889 239.786667 320.056889 320.056889 0 0 0-303.388445-303.388445z m-8.078222 71.68a248.035556 248.035556 0 0 1 239.729778 239.786667 248.035556 248.035556 0 0 1-239.729778-239.729778z"  horiz-adv-x="1024" />
      
      <glyph glyph-name="wenjianjia-guanbi" unicode="&#59593;" d="M430.272 768a44.8 44.8 0 0 0 27.392-9.344L579.456 664.32H864a96 96 0 0 0 95.552-86.784L960 568.32v-472.32a96 96 0 0 0-96-96h-704A96 96 0 0 0 64 96v576A96 96 0 0 0 160 768zM576 600.32H128v-504.32a32 32 0 0 1 26.24-31.488L160 64h704a32 32 0 0 1 32 32V568.32a32 32 0 0 1-32 32L576 600.384v-0.064z"  horiz-adv-x="1024" />
      
      <glyph glyph-name="wenjianjia-dakai" unicode="&#59592;" d="M128 0a64 64 0 0 0-64 64V704a64 64 0 0 0 64 64h270.272a12.8 12.8 0 0 0 7.808-2.688l130.56-100.992H768a64 64 0 0 0 64-64V480h95.808a32 32 0 0 0 30.912-40.32l-105.728-392.32a64 64 0 0 0-61.824-47.36H128z m758.016 416H242.368L147.52 64h643.648l94.848 352z"  horiz-adv-x="1024" />
      
      <glyph glyph-name="renwu1" unicode="&#59589;" d="M264 456h141.004c39.764 0 72-32.236 72-72v-96c0-75.112 60.888-136 136-136H760a8 8 0 0 1 8 8v48a8 8 0 0 1-8 8h-146.996c-39.764 0-72 32.236-72 72v96c0 75.112-60.888 136-136 136H264a8 8 0 0 1-8-8v-48a8 8 0 0 1 8-8zM256 360a8 8 0 0 0 8 8h180a8 8 0 0 0 8-8v-48a8 8 0 0 0-8-8H264a8 8 0 0 0-8 8v48zM569.052 439.44c-4.084-3.388-10.436-2.864-13.264 1.624l-25.496 40.452c-2.116 3.36-1.464 7.784 1.68 10.208A135.4 135.4 0 0 0 614.996 520H760a8 8 0 0 0 8-8v-48a8 8 0 0 0-8-8h-145.004a71.704 71.704 0 0 1-45.944-16.56zM264 216a8 8 0 0 1-8-8v-48a8 8 0 0 1 8-8h142.996a135.412 135.412 0 0 1 82.344 27.752c3.172 2.42 3.844 6.864 1.716 10.24l-25.484 40.428c-2.808 4.46-9.096 5.012-13.184 1.688A71.692 71.692 0 0 0 406.996 216H264zM896 808H128a16 16 0 0 1-16-16v-816a16 16 0 0 1 16-16h768a16 16 0 0 1 16 16V792a16 16 0 0 1-16 16zM176 744h96v-96a16 16 0 0 1 16-16h448a16 16 0 0 1 16 16V744h96v-720H176V744z m160 0h352v-48H336V744z"  horiz-adv-x="1024" />
      
      <glyph glyph-name="renwuyunwei1" unicode="&#59591;" d="M396 792a16 16 0 0 1-16-16v-72a16 16 0 0 1 16-16h232a16 16 0 0 1 16 16V776a16 16 0 0 1-16 16H396zM316 752H172a16 16 0 0 1-16-16v-736a16 16 0 0 1 16-16h680a16 16 0 0 1 16 16V736a16 16 0 0 1-16 16h-144v-112a16 16 0 0 0-16-16H332a16 16 0 0 0-16 16V752z m450.584-316.592a4.88 4.88 0 0 0 0-6.876l-290.032-291.116a4.78 4.78 0 0 0-6.792 0l-168.344 168.972a4.88 4.88 0 0 0 0 6.876l47 47.176a4.784 4.784 0 0 0 6.8 0l114.544-114.972a4.78 4.78 0 0 1 6.792 0l236.236 237.116a4.78 4.78 0 0 0 6.792 0l47.004-47.176z"  horiz-adv-x="1024" />
      
      </font>
</defs>
</svg>
