<?xml version="1.0" standalone="no"?>
<!DOCTYPE svg PUBLIC "-//W3C//DTD SVG 1.1//EN" "http://www.w3.org/Graphics/SVG/1.1/DTD/svg11.dtd" >
<svg xmlns="http://www.w3.org/2000/svg">
  <metadata>Created by iconfont</metadata>
  <defs>
  <font id="iconfont" horiz-adv-x="1024">
    <font-face
      font-family="iconfont"
      font-weight="400"
      font-stretch="normal"
      units-per-em="1024"
      ascent="896"
      descent="-128"
    />
      <missing-glyph />
      
      <glyph glyph-name="hebing" unicode="&#59649;" d="M376 720a8 8 0 0 1 8 8V776a8 8 0 0 1-8 8H128a16 16 0 0 1-16-16v-768a16 16 0 0 1 16-16h248a8 8 0 0 1 8 8v48a8 8 0 0 1-8 8H176v304h100v-93.224c0-7.048 8.456-10.652 13.54-5.768l132.452 127.224c3.28 3.148 3.28 8.388 0 11.536L289.54 518.992C284.46 523.88 276 520.272 276 513.224V416H176V720h200zM648-16a8 8 0 0 0-8 8v48a8 8 0 0 0 8 8h200v304h-100v-93.224c0-7.048-8.456-10.652-13.54-5.768l-132.452 127.224a7.992 7.992 0 0 0 0 11.536l132.452 127.224c5.084 4.884 13.54 1.28 13.54-5.768V416h100V720h-200a8 8 0 0 0-8 8V776a8 8 0 0 0 8 8h248a16 16 0 0 0 16-16v-768a16 16 0 0 0-16-16h-248zM488-16a8 8 0 0 0-8 8V776a8 8 0 0 0 8 8h48a8 8 0 0 0 8-8v-784a8 8 0 0 0-8-8h-48z"  horiz-adv-x="1024" />
      
      <glyph glyph-name="queshizhitianchong" unicode="&#59650;" d="M671.648 788c-57.42 0-109.012-25.16-144.216-64.948a191.808 191.808 0 0 1-37.412-63.712l-9.248-26.428a8 8 0 0 1 4.908-10.192l52.856-18.5a8 8 0 0 1 10.192 4.908l9.252 26.428a119.772 119.772 0 0 0 23.376 39.788C603.452 700.316 635.684 716 671.648 716 738.192 716 792 662.2 792 596c0-33.172-13.452-63.16-35.328-84.928-3.604-3.588-9.924-7.716-23.064-16.044-11.616-7.364-26.8-17.052-41.256-29.888-30.672-27.228-56.704-67.472-56.704-131.14v-28a8 8 0 0 1 8-8h56a8 8 0 0 1 8 8v28c0 40.332 15.04 61.792 32.508 77.3 9.612 8.536 20.264 15.476 32.004 22.92l2.492 1.576c9.996 6.308 23.108 14.58 32.812 24.244C842.34 494.752 864 542.88 864 596c0 106.116-86.196 192-192.352 192zM112 640a16 16 0 0 0 16 16h288v-66.844H184a8 8 0 0 1-8-8V58.84a8 8 0 0 1 8-8h656a8 8 0 0 1 8 8V400h64v-400a16 16 0 0 0-16-16H128a16 16 0 0 0-16 16V640zM512 232a8 8 0 0 1-8 8H264a8 8 0 0 1-8-8v-56a8 8 0 0 1 8-8h240a8 8 0 0 1 8 8v56zM504 408a8 8 0 0 0 8-8v-56a8 8 0 0 0-8-8H264a8 8 0 0 0-8 8v56a8 8 0 0 0 8 8h240zM716 240a8 8 0 0 1-8 8h-72a8 8 0 0 1-8-8v-72a8 8 0 0 1 8-8h72a8 8 0 0 1 8 8v72z"  horiz-adv-x="1024" />
      
      <glyph glyph-name="shouqi" unicode="&#59651;" d="M192 416a8 8 0 0 0 8 8h624a8 8 0 0 0 8-8v-64a8 8 0 0 0-8-8H200a8 8 0 0 0-8 8v64z"  horiz-adv-x="1024" />
      
      <glyph glyph-name="zhankai" unicode="&#59652;" d="M480 704a8 8 0 0 1-8-8v-272H200a8 8 0 0 1-8-8v-64a8 8 0 0 1 8-8h272v-272a8 8 0 0 1 8-8h64a8 8 0 0 1 8 8v272h272a8 8 0 0 1 8 8v64a8 8 0 0 1-8 8h-272V696a8 8 0 0 1-8 8h-64z"  horiz-adv-x="1024" />
      
      <glyph glyph-name="a-tishixiaoxi1" unicode="&#59644;" d="M512-64c247.424 0 448 200.576 448 448S759.424 832 512 832 64 631.424 64 384s200.576-448 448-448z m48 184a16 16 0 0 0-16-16h-64a16 16 0 0 0-16 16v288a16 16 0 0 0 16 16h64a16 16 0 0 0 16-16v-288z m16 480c0-35.348-28.652-64-64-64s-64 28.652-64 64 28.652 64 64 64 64-28.652 64-64z"  horiz-adv-x="1024" />
      
      <glyph glyph-name="a-hengxiangoff1" unicode="&#59645;" d="M680 776a8 8 0 0 1-8 8h-80a8 8 0 0 1-8-8v-80a8 8 0 0 1 8-8h80a8 8 0 0 1 8 8V776zM440 776a8 8 0 0 1-8 8H352a8 8 0 0 1-8-8v-80a8 8 0 0 1 8-8h80a8 8 0 0 1 8 8V776zM672 432a8 8 0 0 0 8-8v-80a8 8 0 0 0-8-8h-80a8 8 0 0 0-8 8v80a8 8 0 0 0 8 8h80zM680 72a8 8 0 0 1-8 8h-80a8 8 0 0 1-8-8v-80a8 8 0 0 1 8-8h80a8 8 0 0 1 8 8v80zM432 432a8 8 0 0 0 8-8v-80a8 8 0 0 0-8-8H352a8 8 0 0 0-8 8v80a8 8 0 0 0 8 8h80zM440 72a8 8 0 0 1-8 8H352a8 8 0 0 1-8-8v-80a8 8 0 0 1 8-8h80a8 8 0 0 1 8 8v80z"  horiz-adv-x="1024" />
      
      <glyph glyph-name="a-tishibaocuo" unicode="&#59646;" d="M512-64c247.424 0 448 200.576 448 448S759.424 832 512 832 64 631.424 64 384s200.576-448 448-448z m160.656 672.032a8 8 0 0 0 11.312 0L734.88 557.12a8 8 0 0 0 0-11.316l-161.784-161.784 161.784-161.788a8 8 0 0 0 0-11.312l-50.912-50.912a8 8 0 0 0-11.312 0l-161.788 161.788-160.652-160.656a8 8 0 0 0-11.316 0l-50.912 50.912a8 8 0 0 0 0 11.312l160.656 160.656-160.656 160.656a8 8 0 0 0 0 11.312l50.912 50.912a8 8 0 0 0 11.312 0l160.656-160.656 161.788 161.788z"  horiz-adv-x="1024" />
      
      <glyph glyph-name="a-tishijinggao" unicode="&#59647;" d="M512 832c247.424 0 448-200.576 448-448s-200.576-448-448-448S64 136.576 64 384 264.576 832 512 832z m48-184a16 16 0 0 1-16 16h-64a16 16 0 0 1-16-16v-288a16 16 0 0 1 16-16h64a16 16 0 0 1 16 16V648z m16-480c0 35.348-28.652 64-64 64s-64-28.652-64-64 28.652-64 64-64 64 28.652 64 64z"  horiz-adv-x="1024" />
      
      <glyph glyph-name="a-tishichenggong" unicode="&#59648;" d="M512-64c247.424 0 448 200.576 448 448S759.424 832 512 832 64 631.424 64 384s200.576-448 448-448z m187.704 630.224a8 8 0 0 0 11.316 0l50.912-50.912a8 8 0 0 0 0-11.312l-250.268-250.268c-0.312-0.488-0.68-0.952-1.108-1.38l-50.912-50.912a8 8 0 0 0-11.312 0l-186.68 186.676a8 8 0 0 0 0 11.316l50.916 50.912a8 8 0 0 0 11.312 0l129.972-129.972 245.852 245.852z"  horiz-adv-x="1024" />
      
      <glyph glyph-name="a-zhankaion1" unicode="&#59635;" d="M124 704a8 8 0 0 1-8-8v-64a8 8 0 0 1 8-8h464a8 8 0 0 1 8 8V696a8 8 0 0 1-8 8H124z m0-280a8 8 0 0 1-8-8v-64a8 8 0 0 1 8-8h464a8 8 0 0 1 8 8v64a8 8 0 0 1-8 8H124z m-8-288a8 8 0 0 0 8 8h464a8 8 0 0 0 8-8v-64a8 8 0 0 0-8-8H124a8 8 0 0 0-8 8v64z m574.348-49.188c-4.656-6.064-14.348-2.772-14.348 4.868v102.408c0 3.524 1.164 6.948 3.308 9.74L817.58 384l-138.272 180.172a16.004 16.004 0 0 0-3.308 9.74V676.32c0 7.64 9.692 10.932 14.348 4.868l213.124-277.704a32.008 32.008 0 0 0 0-38.964l-213.124-277.708z"  horiz-adv-x="1024" />
      
      <glyph glyph-name="a-zhankaioff1" unicode="&#59636;" d="M428 696a8 8 0 0 0 8 8h464a8 8 0 0 0 8-8v-64a8 8 0 0 0-8-8H436a8 8 0 0 0-8 8V696z m0-280a8 8 0 0 0 8 8h464a8 8 0 0 0 8-8v-64a8 8 0 0 0-8-8H436a8 8 0 0 0-8 8v64z m8-272a8 8 0 0 1-8-8v-64a8 8 0 0 1 8-8h464a8 8 0 0 1 8 8v64a8 8 0 0 1-8 8H436z m-88-52.32c0-7.64-9.692-10.932-14.348-4.868l-213.12 277.708a32 32 0 0 0 0 38.964l213.12 277.704C338.312 687.252 348 683.964 348 676.32v-102.408a16 16 0 0 0-3.308-9.74L206.42 384l138.272-180.172c2.148-2.792 3.308-6.216 3.308-9.74v-102.408z"  horiz-adv-x="1024" />
      
      <glyph glyph-name="shuzhigeshi" unicode="&#59637;" d="M800 784a16 16 0 0 0 16-16v-256h-72V704a8 8 0 0 1-8 8h-265.336a8 8 0 0 1-8-8v-232a16 16 0 0 0-16-16H192a8 8 0 0 1-8-8v-384a8 8 0 0 1 8-8h256v-72H128a16 16 0 0 0-16 16V520.752a16 16 0 0 0 5.14 11.752l267.604 247.248A16 16 0 0 0 395.604 784H800zM218.364 528h172.3V687.192L218.368 528zM844.028-16H904a8 8 0 0 1 8 8V440a8 8 0 0 1-8 8h-56a8 8 0 0 1-8-8v-336.5l-253.6 341.272a8.004 8.004 0 0 1-6.424 3.228H520a8 8 0 0 1-8-8v-448a8 8 0 0 1 8-8h56.008a8 8 0 0 1 8 7.992l0.416 336.508 253.176-341.268c1.512-2.032 3.892-3.232 6.428-3.232z"  horiz-adv-x="1024" />
      
      <glyph glyph-name="a-duiqifangxiangbeijingyanse" unicode="&#59638;" d="M359.892 826.912a8 8 0 0 0 11.316 0l335.92-335.92-0.168-0.168 111.632-111.636a24 24 0 0 0 0-33.94l-351.84-351.84a24 24 0 0 0-33.94 0l-351.84 351.84a24 24 0 0 0 0 33.94L393.38 691.6 314.64 770.344a8 8 0 0 0 0 11.312l45.256 45.256zM444.124 629.2L182.796 367.88a8 8 0 0 1 0-11.316l261.328-261.328a8 8 0 0 1 11.316 0l261.328 261.328a8 8 0 0 1 0 11.316L455.44 629.204a8 8 0 0 1-11.316 0zM912 85.648c0-57.44-46.56-101.648-104-101.648-57.436 0-104 44.208-104 101.648 0 56.468 34.668 118.588 104 186.352 69.336-67.764 104-129.884 104-186.352z"  horiz-adv-x="1024" />
      
      <glyph glyph-name="a-duiqifangxiangqingxie" unicode="&#59639;" d="M355.972 776a8 8 0 0 0 8 8h469.896a8 8 0 0 0 8-8v-56a8 8 0 0 0-8-8h-196.568l-180-656h200.596a8 8 0 0 0 8-8v-56a8 8 0 0 0-8-8H188a8 8 0 0 0-8 8v56a8 8 0 0 0 8 8h195.08l180.004 656H363.976a8 8 0 0 0-8 8V776z"  horiz-adv-x="1024" />
      
      <glyph glyph-name="a-duiqifangxiangjiacu" unicode="&#59640;" d="M640 784H388c-88.364 0-160-71.636-160-160v-480c0-88.364 71.636-160 160-160h252c88.364 0 160 71.636 160 160v120c0 47.788-20.948 90.684-54.168 120C779.052 413.316 800 456.212 800 504V624c0 88.364-71.636 160-160 160zM308 344h332.244c44.072-0.132 79.756-35.9 79.756-80v-120c0-44.184-35.816-80-80-80H388c-44.184 0-80 35.816-80 80v200z m332.244 80H308V624c0 44.184 35.816 80 80 80h252c44.184 0 80-35.816 80-80v-120c0-44.1-35.684-79.868-79.756-80z"  horiz-adv-x="1024" />
      
      <glyph glyph-name="a-duiqifangxiangyansexian" unicode="&#59641;" d="M112-8a8 8 0 0 1 8-8h784a8 8 0 0 1 8 8v64a8 8 0 0 1-8 8H120a8 8 0 0 1-8-8v-64z"  horiz-adv-x="1024" />
      
      <glyph glyph-name="a-duiqifangxiangxiahuaxian" unicode="&#59642;" d="M295.011611 776.347393a7.968872 7.968872 0 0 1-7.968872 7.968872h-63.750972a7.968872 7.968872 0 0 1-7.968872-7.968872v-525.945525c0-66.018117 53.514957-119.533074 119.533074-119.533074h350.63035c66.018117 0 119.533074 53.514957 119.533074 119.533074v525.945525a7.968872 7.968872 0 0 1-7.968872 7.968872h-63.750972a7.968872 7.968872 0 0 1-7.968872-7.968872v-525.945525c0-22.006039-17.838319-39.844358-39.844358-39.844358h-350.63035c-22.006039 0-39.844358 17.838319-39.844358 39.844358v525.945525zM167.509665-12.570895a7.968872 7.968872 0 0 0-7.968871 7.968872v63.750972a7.968872 7.968872 0 0 0 7.968871 7.968872h685.322958a7.968872 7.968872 0 0 0 7.968871-7.968872v-63.750972a7.968872 7.968872 0 0 0-7.968871-7.968872h-685.322958z"  horiz-adv-x="1024" />
      
      <glyph glyph-name="a-duiqifangxiangwenziyanse" unicode="&#59643;" d="M307.544 304l-95.816-314.344a8 8 0 0 0-7.652-5.668H138.776a8 8 0 0 0-7.656 10.316L328.136 645.936l0.024 0.068c31.56 103.02 140.656 160.948 243.676 129.388a195.084 195.084 0 0 0 129.384-129.384l0.02-0.072 197.628-651.624a8 8 0 0 0-7.652-10.324H825.92a8.008 8.008 0 0 0-7.652 5.66L722.144 304H307.544z m97.104 318.572L331.928 384h365.752l-72.968 238.632A115.096 115.096 0 0 1 548.4 698.9c-60.752 18.612-125.088-15.532-143.732-76.264l-0.02-0.064z"  horiz-adv-x="1024" />
      
      <glyph glyph-name="a-yuanquanoff" unicode="&#59628;" d="M480 704a8 8 0 0 1-8-8v-272H200a8 8 0 0 1-8-8v-64a8 8 0 0 1 8-8h272v-272a8 8 0 0 1 8-8h64a8 8 0 0 1 8 8v272h272a8 8 0 0 1 8 8v64a8 8 0 0 1-8 8h-272V696a8 8 0 0 1-8 8h-64z"  horiz-adv-x="1024" />
      
      <glyph glyph-name="dongtaishijian" unicode="&#59629;" d="M960 384c0 247.424-200.576 448-448 448-157.568 0-296.136-81.344-376-204.328V728a8 8 0 0 1-8 8H72a8 8 0 0 1-8-8v-208a8 8 0 0 1 8-8h208a8 8 0 0 1 8 8V576a8 8 0 0 1-8 8H193.544C260.092 689.736 377.84 760 512 760c207.66 0 376-168.34 376-376s-168.34-376-376-376-376 168.34-376 376H64c0-247.424 200.576-448 448-448s448 200.576 448 448zM548 622.14v-239.4l152.348-152.348a8 8 0 0 0 0-11.312l-45.284-45.284a8 8 0 0 0-11.316 0L468 349.62v272.52a8 8 0 0 0 8 8h64a8 8 0 0 0 8-8z"  horiz-adv-x="1024" />
      
      <glyph glyph-name="a-yuanquanon1" unicode="&#59630;" d="M512 832c247.424 0 448-200.576 448-448s-200.576-448-448-448S64 136.576 64 384 264.576 832 512 832z m0-64c-212.08 0-384-171.92-384-384 0-212.076 171.92-384 384-384 212.076 0 384 171.924 384 384 0 212.08-171.924 384-384 384z m-40-168a8 8 0 0 0 8 8h64a8 8 0 0 0 8-8v-176h176a8 8 0 0 0 8-8v-64a8 8 0 0 0-8-8h-176v-176a8 8 0 0 0-8-8h-64a8 8 0 0 0-8 8v176H296a8 8 0 0 0-8 8v64a8 8 0 0 0 8 8h176V600z"  horiz-adv-x="1024" />
      
      <glyph glyph-name="ziduanshezhi" unicode="&#59631;" d="M256 632a8 8 0 0 1-8-8v-64a8 8 0 0 1 8-8h216v-440a8 8 0 0 1 8-8h64a8 8 0 0 1 8 8V552h216a8 8 0 0 1 8 8V624a8 8 0 0 1-8 8H256zM128 784a16 16 0 0 1-16-16v-768a16 16 0 0 1 16-16h768a16 16 0 0 1 16 16V768a16 16 0 0 1-16 16H128z m48-72a8 8 0 0 0 8 8h656a8 8 0 0 0 8-8v-656a8 8 0 0 0-8-8H184a8 8 0 0 0-8 8V712z"  horiz-adv-x="1024" />
      
      <glyph glyph-name="xiala" unicode="&#59632;" d="M512 832c247.424 0 448-200.576 448-448s-200.576-448-448-448S64 136.576 64 384 264.576 832 512 832z m0-68c-212.08 0-384-170.132-384-380s171.92-380 384-380c212.076 0 384 170.132 384 380s-171.924 380-384 380z m192.9-230.344l-192.992-192.996-193 193a8 8 0 0 1-11.312 0L262.348 488.4a8 8 0 0 1 0-11.316l243.244-243.244a7.976 7.976 0 0 1 6.32-2.316 7.968 7.968 0 0 1 6.316 2.316l243.248 243.244a8 8 0 0 1 0 11.316l-45.256 45.252a8 8 0 0 1-11.316 0z"  horiz-adv-x="1024" />
      
      <glyph glyph-name="zhujian" unicode="&#59633;" d="M128-16a16 16 0 0 0-16 16V768a16 16 0 0 0 16 16h768a16 16 0 0 0 16-16v-320h-72V712H184v-656h280v-72H128zM264.44 605.676a8 8 0 0 0 0 11.312l45.256 45.256a8 8 0 0 0 11.312 0l285.252-285.252c78.568 41.404 178.056 29.06 244.148-37.036 81.272-81.272 81.272-213.04 0-294.312-81.272-81.272-213.04-81.272-294.312 0-76.904 76.904-81.04 199.016-12.408 280.78l-63.6 63.6-88.24-88.24a8 8 0 0 0-11.312 0L335.28 347.04a8 8 0 0 0 0 11.312l88.24 88.244-45.256 45.252-88.24-88.24a8 8 0 0 0-11.312 0l-45.256 45.256a8 8 0 0 0 0 11.316l88.24 88.24L264.44 605.676z m529.4-322.288c-50.032 50.032-131.144 50.032-181.176 0-50.032-50.028-50.032-131.144 0-181.176 50.032-50.028 131.144-50.028 181.176 0 50.032 50.032 50.032 131.148 0 181.176z"  horiz-adv-x="1024" />
      
      <glyph glyph-name="shuaxin" unicode="&#59634;" d="M698.74 702.312c-94.732 54.692-203.672 62.48-299.928 30.568-5.28-1.748-10.812 2.12-10.812 7.68V807.336c0 3.548 2.336 6.68 5.748 7.636 112.072 31.424 236.224 19.42 344.992-43.38 214.28-123.716 287.696-397.696 163.98-611.976a435.8 435.8 0 0 0-4.076-6.916c-45.372-75.492-109.664-132.92-183.224-169.696-5.28-2.64-11.388 1.32-11.292 7.224l0.368 22.492v252.7c0 6.232 6.812 10.072 12.144 6.844l117.624-71.208c100.464 175.796 40.008 399.912-135.524 501.256zM328.076 67.148c94.732-54.696 203.672-62.484 299.928-30.572 5.28 1.752 10.812-2.116 10.812-7.676v-66.776c0-3.548-2.332-6.68-5.748-7.636-112.072-31.428-236.224-19.42-344.992 43.376C73.8 121.58 0.384 395.564 124.096 609.844c1.344 2.32 2.7 4.628 4.076 6.916C173.544 692.252 237.84 749.68 311.396 786.452c5.28 2.64 11.388-1.32 11.292-7.22l-0.368-22.492V504.04c0-6.236-6.812-10.072-12.14-6.844L192.552 568.4c-100.464-175.8-40.008-399.912 135.524-501.256z"  horiz-adv-x="1024" />
      
      <glyph glyph-name="a-fuhaochu" unicode="&#59618;" d="M694.743365 777.069714a8.045714 8.045714 0 0 0 10.971429 2.925715l55.64546-31.995937a7.984762 7.984762 0 0 0 2.941968-10.930794L330.58946-11.17054a8.049778 8.049778 0 0 0-10.971428-2.929777l-55.645461 32a7.984762 7.984762 0 0 0-2.941968 10.930793L694.743365 777.069714z"  horiz-adv-x="1028" />
      
      <glyph glyph-name="a-fuhaojian" unicode="&#59619;" d="M192.763937 416c0 4.417016 3.592127 8.001016 8.02946 8.001016h626.476698c4.437333 0 8.02946-3.584 8.029461-8.001016v-64a8.013206 8.013206 0 0 0-8.029461-8.001016H200.793397a8.01727 8.01727 0 0 0-8.033524 8.001016v64z"  horiz-adv-x="1028" />
      
      <glyph glyph-name="a-fuhaoxiaoyu" unicode="&#59620;" d="M827.322921 775.444317a8.005079 8.005079 0 0 1-10.886096 3.084191L134.972952 397.970286c-10.930794-6.103365-10.930794-21.833143 0-27.936508L816.436825-10.524444a8.005079 8.005079 0 0 1 10.886096 3.08419l31.203555 55.877079a8.005079 8.005079 0 0 1-3.08419 10.886096L286.54527 377.014857c-5.465397 3.055746-5.465397 10.918603 0 13.970286L855.446349 708.681143a8.005079 8.005079 0 0 1 3.084191 10.882032l-31.203556 55.881142z"  horiz-adv-x="1024" />
      
      <glyph glyph-name="a-fuhaojia" unicode="&#59621;" d="M481.905778 704a8.01727 8.01727 0 0 1-8.033524-8.001016v-271.997968H200.793397a8.01727 8.01727 0 0 1-8.033524-8.001016v-64c0-4.417016 3.59619-8.001016 8.033524-8.001016h273.078857v-271.997968c0-4.421079 3.59619-8.001016 8.033524-8.001016h64.251936a8.01727 8.01727 0 0 1 8.033524 8.001016v271.997968h273.078857a8.013206 8.013206 0 0 1 8.029461 8.001016v64a8.013206 8.013206 0 0 1-8.029461 8.001016h-273.078857V695.998984a8.01727 8.01727 0 0 1-8.033524 8.001016h-64.251936z"  horiz-adv-x="1028" />
      
      <glyph glyph-name="a-gouon" unicode="&#59622;" d="M904.927492 615.245206a8.126984 8.126984 0 0 0 0-11.515936L415.280762 116.020825a8.122921 8.122921 0 0 0-11.471238 0l-284.204699 283.083175a8.126984 8.126984 0 0 0 0 11.515937l79.351873 79.03492a8.126984 8.126984 0 0 0 11.471239 0l193.381587-192.617651a8.126984 8.126984 0 0 1 11.471238 0l398.823619 397.246984a8.126984 8.126984 0 0 0 11.471238 0l79.351873-79.03492z"  horiz-adv-x="1028" />
      
      <glyph glyph-name="a-fuhaokuohao_zuo" unicode="&#59623;" d="M604.672 737.787937c3.380825-2.860698 3.795302-7.907556 0.926476-11.276191l-20.788825-24.397206c-78.291302-91.875556-122.985651-201.301333-122.985651-318.11454 0-116.81727 44.694349-226.243048 122.985651-318.118603l20.788825-24.397207a7.980698 7.980698 0 0 0-0.926476-11.27619l-48.98946-41.411048a8.053841 8.053841 0 0 0-11.320889 0.922413l-20.788826 24.397206C434.529524 118.613333 381.509079 245.946921 381.509079 384s53.020444 265.386667 142.063746 369.883429l20.788826 24.397206a8.053841 8.053841 0 0 0 11.320889 0.922413l48.98946-41.415111z"  horiz-adv-x="1028" />
      
      <glyph glyph-name="a-fuhaoxiaoyudengyu" unicode="&#59624;" d="M818.16381 786.204444a7.996952 7.996952 0 0 0 10.772317-3.453968l29.269333-56.91327a7.996952 7.996952 0 0 0-3.453968-10.772317l-505.457778-259.949714c-5.786413-2.97854-5.786413-11.25181 0-14.226286l505.457778-259.949714a8.001016 8.001016 0 0 0 3.453968-10.776381l-29.269333-56.91327a7.996952 7.996952 0 0 0-10.772317-3.453968L188.204698 433.773714c-11.576889 5.953016-11.576889 22.503619 0 28.456635l629.959112 323.978159zM165.250032 255.065397a7.996952 7.996952 0 0 0-3.453969 10.772317l29.269334 56.91327a8.005079 8.005079 0 0 0 10.768254 3.458032l616.915301-317.273397a8.001016 8.001016 0 0 0 3.458032-10.772317l-29.269333-56.91327a8.001016 8.001016 0 0 0-10.776381-3.453969L165.250032 255.065397z"  horiz-adv-x="1024" />
      
      <glyph glyph-name="a-fuhaokuohao_you" unicode="&#59625;" d="M403.695746 737.787937a7.976635 7.976635 0 0 1-0.926476-11.276191l20.788825-24.397206C501.845333 610.238984 546.539683 500.813206 546.539683 384c0-116.81727-44.694349-226.243048-122.981588-318.118603l-20.788825-24.397207a7.976635 7.976635 0 0 1 0.926476-11.27619l48.985397-41.411048c3.384889-2.860698 8.452063-2.446222 11.320889 0.922413l20.788825 24.397206c89.047365 104.496762 142.06781 231.830349 142.06781 369.883429s-53.020444 265.386667-142.06781 369.883429l-20.788825 24.397206a8.053841 8.053841 0 0 1-11.320889 0.922413L403.695746 737.787937z"  horiz-adv-x="1028" />
      
      <glyph glyph-name="a-fuhaocheng" unicode="&#59626;" d="M471.482921 775.870984a8.126984 8.126984 0 0 0 8.126984 8.126984h63.748063a8.126984 8.126984 0 0 0 8.126984-8.126984v-322.588444l279.369143 161.296254a8.126984 8.126984 0 0 0 11.101461-2.974477l31.874031-55.206603a8.126984 8.126984 0 0 0-2.974476-11.10146L591.481905 384l279.373206-161.296254a8.122921 8.122921 0 0 0 2.974476-11.10146l-31.874031-55.206603a8.126984 8.126984 0 0 0-11.101461-2.974477l-279.369143 161.296254v-322.592508a8.126984 8.126984 0 0 0-8.126984-8.126984h-63.748063a8.126984 8.126984 0 0 0-8.126984 8.126984V314.71746l-279.373207-161.296254a8.126984 8.126984 0 0 0-11.10146 2.974477l-31.869968 55.206603a8.126984 8.126984 0 0 0 2.974476 11.10146L431.481905 384 152.112762 545.296254a8.126984 8.126984 0 0 0-2.974476 11.10146l31.869968 55.206603a8.126984 8.126984 0 0 0 11.105524 2.974477l279.369143-161.296254V775.875048z"  horiz-adv-x="1024" />
      
      <glyph glyph-name="sousuo" unicode="&#59627;" d="M464 832c220.912 0 400-179.088 400-400 0-96.052-33.856-184.196-90.284-253.148l179.752-179.752a8 8 0 0 0 0-11.316l-45.252-45.256a8 8 0 0 0-11.316 0l-179.752 179.756C648.196 65.856 560.052 32 464 32c-220.912 0-400 179.088-400 400S243.088 832 464 832z m0-80c-176.732 0-320-143.268-320-320s143.268-320 320-320 320 143.268 320 320-143.268 320-320 320z"  horiz-adv-x="1024" />
      
      <glyph glyph-name="fuzhi1" unicode="&#59616;" d="M538 712a16 16 0 0 1 16 16V768a16 16 0 0 1-16 16H128a16 16 0 0 1-16-16v-632a16 16 0 0 1 16-16h40a16 16 0 0 1 16 16V696a16 16 0 0 0 16 16h338zM248 632a16 16 0 0 0 16 16h422.224a16 16 0 0 0 11.256-4.628l209.776-207.656a16.004 16.004 0 0 0 4.744-11.372V0a16 16 0 0 0-16-16H264a16 16 0 0 0-16 16V632z m72-56v-520h520v304h-204a16 16 0 0 0-16 16V576H320z m372-28.516V432h116.664L692 547.484z"  horiz-adv-x="1024" />
      
      <glyph glyph-name="duoxiangdanxuan" unicode="&#59617;" d="M608 304a16 16 0 0 0-16-16h-160a16 16 0 0 0-16 16v160a16 16 0 0 0 16 16h160a16 16 0 0 0 16-16v-160z"  horiz-adv-x="1024" />
      
      <glyph glyph-name="a-fangxiangxiangzuo" unicode="&#59612;" d="M660.64 716.344a8 8 0 0 1-11.316 0L354.64 421.656a7.92 7.92 0 0 1-1.728-1.312l-45.256-45.256a8 8 0 0 1 0-11.312l340.984-340.984a8 8 0 0 1 11.312 0l45.256 45.256a8 8 0 0 1 0 11.312l-289.864 289.864 290.552 290.552a8 8 0 0 1 0 11.312L660.64 716.344z"  horiz-adv-x="1024" />
      
      <glyph glyph-name="a-fangxiangxiangshang" unicode="&#59613;" d="M859.208 221.36a8 8 0 0 1 0 11.312L564.52 527.36a7.928 7.928 0 0 1-1.312 1.728l-45.256 45.252a8 8 0 0 1-11.312 0L165.656 233.36a8 8 0 0 1 0-11.312l45.256-45.256a8 8 0 0 1 11.312 0l289.864 289.864 290.552-290.552a8 8 0 0 1 11.312 0l45.256 45.256z"  horiz-adv-x="1024" />
      
      <glyph glyph-name="a-fangxiangxiangyou" unicode="&#59614;" d="M364.224 22.792a8 8 0 0 1 11.316 0l294.684 294.688c0.62 0.348 1.2 0.784 1.728 1.312l45.256 45.256a8 8 0 0 1 0 11.312L376.224 716.344a8 8 0 0 1-11.312 0L319.656 671.088a8 8 0 0 1 0-11.312l289.864-289.864-290.548-290.552a8 8 0 0 1 0-11.312l45.252-45.256z"  horiz-adv-x="1024" />
      
      <glyph glyph-name="a-fangxiangxiangxia" unicode="&#59615;" d="M165.656 517.772a8 8 0 0 1 0-11.312l294.688-294.688c0.348-0.616 0.788-1.2 1.312-1.728l45.256-45.252a8 8 0 0 1 11.312 0l340.984 340.98a8 8 0 0 1 0 11.316l-45.256 45.252a8 8 0 0 1-11.312 0l-289.864-289.864-290.552 290.552a8 8 0 0 1-11.312 0L165.656 517.772z"  horiz-adv-x="1024" />
      
      <glyph glyph-name="a-fangxiangsanjiao-you" unicode="&#59608;" d="M409.996 150.056c-10.48-8.38-25.996-0.924-25.996 12.492V607.968c0 13.416 15.52 20.88 25.996 12.496l278.388-222.712a16 16 0 0 0 0-24.988l-278.388-222.708z"  horiz-adv-x="1024" />
      
      <glyph glyph-name="a-fangxiangsanjiao-shang" unicode="&#59609;" d="M747.204 283.608c8.38-10.476 0.924-25.996-12.492-25.996H289.292c-13.416 0-20.88 15.52-12.496 25.996l222.712 278.388a16 16 0 0 0 24.988 0l222.708-278.388z"  horiz-adv-x="1024" />
      
      <glyph glyph-name="a-fangxiangsanjiao-zuo" unicode="&#59610;" d="M612.392 620.464c10.476 8.38 25.996 0.92 25.996-12.492v-445.424c0-13.416-15.52-20.872-25.996-12.492l-278.388 222.712a15.996 15.996 0 0 0 0 24.984l278.388 222.712z"  horiz-adv-x="1024" />
      
      <glyph glyph-name="a-fangxiangsanjiao-xia" unicode="&#59611;" d="M276.796 486.004c-8.38 10.48-0.92 25.996 12.492 25.996h445.42c13.416 0 20.876-15.52 12.496-25.996l-222.712-278.388a16 16 0 0 0-24.988 0l-222.708 278.388z"  horiz-adv-x="1024" />
      
      <glyph glyph-name="a-duiqifangxiangzuoduiqi" unicode="&#59603;" d="M84 780h800v-80H84V780z m0-240h560v-80H84V540z m0-240h800v-80H84v80z m0-240h560v-80H84v80z"  horiz-adv-x="1024" />
      
      <glyph glyph-name="a-duiqifangxiangyouduiqi" unicode="&#59606;" d="M112 784h800v-80H112V784z m240-240h560v-80H352V544z m-240-240h800v-80H112v80z m240-240h560v-80H352v80z"  horiz-adv-x="1024" />
      
      <glyph glyph-name="a-duiqifangxiangjuzhongduiqi" unicode="&#59607;" d="M112 784h800v-80H112V784z m120-240h560v-80H232V544z m-120-240h800v-80H112v80z m120-240h560v-80H232v80z"  horiz-adv-x="1024" />
      
      <glyph glyph-name="font-align-center" unicode="&#59071;" d="M224 704h576a32 32 0 1 0 0-64H224a32 32 0 0 0 0 64z m0-384h576a32 32 0 1 0 0-64H224a32 32 0 0 0 0 64z m128 192h320a32 32 0 1 0 0-64H352a32 32 0 0 0 0 64z m0-384h320a32 32 0 1 0 0-64H352a32 32 0 1 0 0 64z"  horiz-adv-x="1024" />
      
      <glyph glyph-name="font-align-left" unicode="&#59082;" d="M224 704h576a32 32 0 1 0 0-64H224a32 32 0 0 0 0 64z m0-384h576a32 32 0 1 0 0-64H224a32 32 0 0 0 0 64z m0 192h320a32 32 0 0 0 0-64H224a32 32 0 0 0 0 64z m0-384h320a32 32 0 1 0 0-64H224a32 32 0 1 0 0 64z"  horiz-adv-x="1024" />
      
      <glyph glyph-name="font-circle-close1" unicode="&#59093;" d="M512 0a384 384 0 1 0 0 768 384 384 0 0 0 0-768z m0 429.248L376.256 564.992a32 32 0 1 1-45.248-45.248L466.688 384l-135.68-135.744a32 32 0 0 1 45.248-45.248L512 338.688l135.744-135.68a32 32 0 1 1 45.248 45.248L557.312 384l135.68 135.744a32 32 0 1 1-45.248 45.248L512 429.312z"  horiz-adv-x="1024" />
      
      <glyph glyph-name="font-dot" unicode="&#59234;" d="M320 384a192 192 0 1 1 384 0 192 192 0 1 1-384 0z"  horiz-adv-x="1024" />
      
      <glyph glyph-name="font-number-field" unicode="&#59056;" d="M448 704l-23.296-128h256L704 704h64l-23.296-128H832v-64h-98.88l-46.528-256H768v-64h-93.056L640 0h-64l34.944 192h-256L320 0h-64l34.944 192H192v64h110.592l46.528 256H256v64h104.704L384 704h64z m221.12-192h-256l-46.528-256h256l46.528 256z"  horiz-adv-x="1024" />
      
      <glyph glyph-name="font-copy" unicode="&#59069;" d="M671.936 832l256-256v-448s0-64-64-64h-576s-64 0-64 64V766.4s0 65.6 64 65.6h384z m-64-256V768H288.384c-0.192-0.768-0.384-214.016-0.448-639.872 0.192 0 192.128-0.128 575.872-0.128l0.128 384h-192a64 64 0 0 0-64 64z m64 165.504V576h165.44L672 741.504zM388.48 448h118.848c20.224 0 36.608-14.336 36.608-32s-16.384-32-36.608-32H388.48c-20.16 0-36.544 14.336-36.544 32s16.384 32 36.544 32z m0-128h374.848c20.224 0 36.608-14.336 36.608-32s-16.384-32-36.608-32H388.48c-20.16 0-36.544 14.336-36.544 32s16.384 32 36.544 32zM704-64H192a96 96 0 0 0-96 96V544a32 32 0 0 0 64 0v-512a32 32 0 0 1 32-32h512a32 32 0 1 0 0-64z"  horiz-adv-x="1024" />
      
      <glyph glyph-name="font-solid-right" unicode="&#59096;" d="M659.2 403.712l-299.072 231.04A24.896 24.896 0 0 1 320 615.04v-462.144a24.96 24.96 0 0 1 40.128-19.712L659.2 364.22400000000005a24.96 24.96 0 0 1 0 39.488"  horiz-adv-x="1024" />
      
      <glyph glyph-name="font-string-field" unicode="&#59064;" d="M800 704v-70.4H544V0h-64V633.6H224V704h576z"  horiz-adv-x="1024" />
      
      <glyph glyph-name="font-solid-top" unicode="&#59094;" d="M514.176 548.736l231.04-299.008a24.896 24.896 0 0 0-19.712-40.192H263.296a24.96 24.96 0 0 0-19.648 40.192l231.04 299.008a24.96 24.96 0 0 0 39.424 0"  horiz-adv-x="1024" />
      
      <glyph glyph-name="font-check-mark" unicode="&#59087;" d="M795.904 630.0799999999999a53.44 53.44 0 0 0 68.8-5.76 45.248 45.248 0 0 0 0-64l-429.44-429.44a64 64 0 0 0-95.232 5.312l-183.04 228.8a50.56 50.56 0 0 0 3.712 67.392 55.232 55.232 0 0 0 69.696 6.848l154.24-102.848 411.2 293.696z"  horiz-adv-x="1024" />
      
      <glyph glyph-name="font-horizontal-drag" unicode="&#58937;" d="M426.667 85.33299999999997a42.667 42.667 0 1 0 0-85.333 42.667 42.667 0 0 0 0 85.333z m170.666 0a42.667 42.667 0 1 0 0-85.333 42.667 42.667 0 0 0 0 85.333zM426.667 256a42.667 42.667 0 1 0 0-85.333 42.667 42.667 0 0 0 0 85.333z m170.666 0a42.667 42.667 0 1 0 0-85.333 42.667 42.667 0 0 0 0 85.333zM426.667 426.667a42.667 42.667 0 1 0 0-85.334 42.667 42.667 0 0 0 0 85.334z m170.666 0a42.667 42.667 0 1 0 0-85.334 42.667 42.667 0 0 0 0 85.334zM426.667 597.3330000000001a42.667 42.667 0 1 0 0-85.333 42.667 42.667 0 0 0 0 85.333z m170.666 0a42.667 42.667 0 1 0 0-85.333 42.667 42.667 0 0 0 0 85.333zM426.667 768a42.667 42.667 0 1 0 0-85.333 42.667 42.667 0 0 0 0 85.333z m170.666 0a42.667 42.667 0 1 0 0-85.333 42.667 42.667 0 0 0 0 85.333z"  horiz-adv-x="1024" />
      
      <glyph glyph-name="font-time" unicode="&#59057;" d="M512 768a384 384 0 1 0 0-768 384 384 0 0 0 0 768z m0-64a320 320 0 1 1 0-640 320 320 0 0 1 0 640z m0.064-96a32 32 0 0 0 32-32v-178.688l103.808-103.808a32 32 0 0 0-45.248-45.248L489.472 361.34400000000005l-0.704 0.768-1.28 1.408-0.256 0.384 1.6-1.792-2.176 2.496-1.408 1.92a26.304 26.304 0 0 0-1.6 2.816l-0.64 1.28-0.512 1.152a23.04 23.04 0 0 0-1.664 5.312 22.336 22.336 0 0 0-0.64 5.44l-0.192 0.832V576a32 32 0 0 0 32 32z"  horiz-adv-x="1024" />
      
      <glyph glyph-name="font-cross1" unicode="&#59088;" d="M508.352 432.896l-248.96 248.96a32 32 0 1 1-45.248-45.312l248.96-248.896-248.96-248.896a32 32 0 0 1 45.312-45.248l248.896 248.96 248.896-248.96a32 32 0 1 1 45.248 45.248l-248.96 248.96 248.96 248.832a32 32 0 1 1-45.248 45.312l-248.96-248.96z"  horiz-adv-x="1024" />
      
      <glyph glyph-name="font-align-right" unicode="&#59080;" d="M800 704a32 32 0 1 0 0-64H224a32 32 0 0 0 0 64h576z m0-384a32 32 0 1 0 0-64H224a32 32 0 0 0 0 64h576z m0 192a32 32 0 1 0 0-64H480a32 32 0 0 0 0 64h320z m0-384a32 32 0 1 0 0-64H480a32 32 0 1 0 0 64h320z"  horiz-adv-x="1024" />
      
      <glyph glyph-name="font-solid-bottom" unicode="&#59095;" d="M514.176 219.264l231.04 299.008a24.896 24.896 0 0 1-19.712 40.192H263.296a24.96 24.96 0 0 1-19.648-40.192l231.04-299.008a24.96 24.96 0 0 1 39.424 0"  horiz-adv-x="1024" />
      
      <glyph glyph-name="font-parameter-formula" unicode="&#59078;" d="M284.16 510.784l29.888 117.632C339.2 727.6800000000001 428.608 800 531.136 800c45.312 0 87.808-6.016 127.424-18.048-0.128-64 0-8.96 0-64A640.448 640.448 0 0 1 531.2 736c-73.28 0-137.152-52.352-155.136-123.328L350.208 510.72h90.24c7.104 0 12.8-5.76 12.8-12.8v-38.4a12.8 12.8 0 0 0-12.8-12.8H334.08L229.888 35.84000000000003a96 96 0 0 0-93.056-72.32H70.4v64h66.368a32 32 0 0 1 31.04 24.064l100.16 395.136H146.112a12.8 12.8 0 0 0-12.8 12.8v38.4c0 7.04 5.76 12.8 12.8 12.8H284.16z m454.016-129.152l102.912 120.192a25.6 25.6 0 0 0 19.456 8.96h85.888a6.4 6.4 0 0 0 6.4-6.4v-51.2a6.4 6.4 0 0 0-6.4-6.4h-56.448a25.6 25.6 0 0 1-19.456-8.96L768.64 318.784l70.272-145.024a25.6 25.6 0 0 1 23.04-14.4h40.512a6.4 6.4 0 0 0 6.4-6.4v-51.2a6.4 6.4 0 0 0-6.4-6.4h-80.64a25.6 25.6 0 0 0-23.04 14.4l-75.52 155.968-138.24-161.408a25.6 25.6 0 0 0-19.52-8.96H456.96a6.4 6.4 0 0 0-6.4 6.4v51.2a6.4 6.4 0 0 0 6.4 6.4h79.168a25.6 25.6 0 0 1 19.456 8.96L692.8 328.576 642.496 432.32a25.6 25.6 0 0 1-23.04 14.464h-95.744a6.4 6.4 0 0 0-6.4 6.4v51.2a6.4 6.4 0 0 0 6.4 6.4H659.52a25.6 25.6 0 0 0 23.04-14.464l55.616-114.688z"  horiz-adv-x="1024" />
      
      <glyph glyph-name="font-down-triangle" unicode="&#59147;" d="M508.8 195.20000000000005a31.872 31.872 0 0 0-22.656 9.408l-316.8 316.8a32 32 0 1 0 45.312 45.248L508.8 272.448l294.144 294.208a32 32 0 0 0 45.248-45.312l-316.8-316.8A31.872 31.872 0 0 0 508.8 195.20000000000005z"  horiz-adv-x="1024" />
      
      <glyph glyph-name="font-operator-divide" unicode="&#59104;" d="M668.8 661.12a32 32 0 0 0 11.776-43.712l-288-498.816a32 32 0 1 0-55.424 32l288 498.816a32 32 0 0 0 43.712 11.712z"  horiz-adv-x="1024" />
      
      <glyph glyph-name="font-operator-minus" unicode="&#59106;" d="M256 352a32 32 0 0 0 0 64h512a32 32 0 1 0 0-64H256z"  horiz-adv-x="1024" />
      
      <glyph glyph-name="font-operator-multi" unicode="&#59103;" d="M456.576 352H256a32 32 0 0 0 0 64h200.576L356.288 589.696a32 32 0 1 0 55.424 32L512 448l100.288 173.696a32 32 0 1 0 55.424-32L567.424 416H768a32 32 0 0 0 0-64H567.424l100.288-173.696a32 32 0 1 0-55.424-32L512 320 411.712 146.30399999999997a32 32 0 0 0-55.424 32L456.576 352z"  horiz-adv-x="1024" />
      
      <glyph glyph-name="font-operator-left-brackets" unicode="&#59108;" d="M528.64 718.336a32 32 0 1 0 56.96-29.12 668.992 668.992 0 0 1-73.216-305.408c0-107.776 25.408-211.84 73.408-305.728a32 32 0 1 0-56.96-29.12 732.928 732.928 0 0 0-80.448 334.848c0 117.888 27.776 231.808 80.256 334.528z"  horiz-adv-x="1024" />
      
      <glyph glyph-name="font-search" unicode="&#59100;" d="M928.896 2.4320000000000164a38.976 38.976 0 0 0-55.04-55.04L696 125.31200000000001a386.56 386.56 0 0 0-223.808-71.232A388.928 388.928 0 1 0 861.12 443.008c0-99.2-37.952-194.56-106.24-266.56l174.08-174.08zM160.96 443.008a311.168 311.168 0 1 1 622.4 0 311.168 311.168 0 0 1-622.4 0z"  horiz-adv-x="1024" />
      
      <glyph glyph-name="font-parameter-refresh" unicode="&#59119;" d="M894.4 547.9680000000001a32 32 0 1 0-58.816-25.216 352.064 352.064 0 0 1-670.976-81.6 32 32 0 1 0-63.168 10.304 416.064 416.064 0 0 0 792.96 96.512z m-695.488-325.12A352.128 352.128 0 0 1 859.008 324.48a32 32 0 1 0 63.04-10.752 416.128 416.128 0 0 0-775.104-129.28v-121.536a32 32 0 1 0-64 0v192a32 32 0 0 0 32 32h192a32 32 0 1 0 0-64H198.912zM876.8 544V704a32 32 0 1 0 64 0v-192a32 32 0 0 0-32-32h-192a32 32 0 1 0 0 64h160z"  horiz-adv-x="1024" />
      
      <glyph glyph-name="font-up-triangle" unicode="&#59146;" d="M508.8 576c8.192 0 16.384-3.136 22.592-9.344l316.8-316.8a32 32 0 1 0-45.248-45.248L508.8 498.752 214.656 204.60799999999995a32 32 0 0 0-45.312 45.248l316.8 316.8A31.872 31.872 0 0 0 508.8 576z"  horiz-adv-x="1024" />
      
      <glyph glyph-name="font-add" unicode="&#59101;" d="M550.4 38.39999999999998V345.6h307.2a38.4 38.4 0 0 1 0 76.8H550.4V729.6a38.4 38.4 0 0 1-76.8 0v-307.2H166.4a38.4 38.4 0 0 1 0-76.8h307.2v-307.2a38.4 38.4 0 0 1 76.8 0z"  horiz-adv-x="1024" />
      
      <glyph glyph-name="font-filter-down" unicode="&#59120;" d="M536.64 178.048l288.832 373.76a31.104 31.104 0 0 1-24.64 50.24H223.104a31.168 31.168 0 0 1-24.64-50.176l288.832-373.76a31.168 31.168 0 0 1 49.28 0"  horiz-adv-x="1024" />
      
      <glyph glyph-name="font-arrow-left" unicode="&#59149;" d="M320 387.2a32.142 32.142 0 0 0 9.344 22.656l316.8 316.8a32 32 0 0 0 45.248-45.312L397.248 387.2l294.144-294.144a32 32 0 0 0-45.248-45.248l-316.8 316.8A31.872 31.872 0 0 0 320 387.2z"  horiz-adv-x="1024" />
      
      <glyph glyph-name="font-arrow-right" unicode="&#59148;" d="M700.8 387.2a31.872 31.872 0 0 0-9.408-22.592l-316.8-316.8a32 32 0 1 0-45.248 45.248L623.552 387.2 329.344 681.344a32 32 0 1 0 45.312 45.312l316.8-316.8A31.872 31.872 0 0 0 700.8 387.2z"  horiz-adv-x="1024" />
      
      <glyph glyph-name="font-operator-plus" unicode="&#59105;" d="M544 416h224c21.184 0 38.4-14.336 38.4-32s-17.216-32-38.4-32H544v-224c0-21.184-14.336-38.4-32-38.4s-32 17.216-32 38.4V352H256c-21.184 0-38.4 14.336-38.4 32s17.216 32 38.4 32h224V640c0 21.184 14.336 38.4 32 38.4s32-17.216 32-38.4v-224z"  horiz-adv-x="1024" />
      
      <glyph glyph-name="font-operator-right-brackets" unicode="&#59107;" d="M495.744 718.528a32 32 0 1 1-56.96-29.12A668.992 668.992 0 0 0 512 384c0-107.776-25.408-211.84-73.408-305.728a32 32 0 0 1 56.96-29.12A732.928 732.928 0 0 1 576 384c0 117.888-27.776 231.808-80.256 334.528z"  horiz-adv-x="1024" />
      
      <glyph glyph-name="font-solid-left" unicode="&#59097;" d="M329.664 364.288l299.072-231.04a24.896 24.896 0 0 1 40.128 19.712V615.04a24.96 24.96 0 0 1-40.128 19.712L329.6 403.776a24.96 24.96 0 0 1 0-39.488"  horiz-adv-x="1024" />
      
      <glyph glyph-name="font-parameter-string" unicode="&#59113;" d="M576 466.688V603.7760000000001h64v-137.088h153.472c51.84 0 92.8-42.496 92.8-93.824v-123.52c0-51.264-40.96-93.824-92.8-93.824H668.8c-51.84 0-92.8 42.56-92.8 93.888v217.28z m64-118.912v-98.368c0-16.512 12.864-29.888 28.8-29.888h124.672c15.936 0 28.8 13.44 28.8 29.888V372.86400000000003a29.376 29.376 0 0 1-28.8 29.824H668.8a29.376 29.376 0 0 1-28.8-29.824v-25.088z m-185.792-64H237.44l-42.624-127.872h-67.52l127.36 382.208a96 96 0 0 0 182.144 0l127.488-382.4H496.96l-42.752 128.064z m-21.312 64l-56.768 170.112a32 32 0 0 1-60.736 0l-56.704-170.112h174.208zM32 768h960a32 32 0 0 0 32-32v-704a32 32 0 0 0-32-32H32a32 32 0 0 0-32 32V736a32 32 0 0 0 32 32z m32-64v-640h896V704H64z"  horiz-adv-x="1024" />
      
      <glyph glyph-name="font-change" unicode="&#59183;" d="M766.016 672A384 384 0 1 1 896 384a32 32 0 1 0 64 0 448 448 0 1 0-160 343.168V800a32 32 0 1 0 64 0v-160a32 32 0 0 0-32-32H672a32 32 0 1 0 0 64h94.016z m-103.36-393.344a32 32 0 0 0-45.312-45.312l-128 128A32 32 0 0 0 480 384V576a32 32 0 0 0 64 0v-178.752l118.656-118.592z"  horiz-adv-x="1024" />
      
      <glyph glyph-name="font-key" unicode="&#59200;" d="M246.528 75.904c1.024-0.768 1.92-1.664 2.816-2.56l49.152-49.088a32 32 0 0 0-45.248-45.248l-49.152 49.088a32.32 32.32 0 0 0-2.496 2.816l-44.544-44.544a32 32 0 1 0-45.312 45.248L405.952 325.76a32.512 32.512 0 0 0 1.408 1.344 288 288 0 1 0 46.08-44.096 32.384 32.384 0 0 0-2.24-2.496l-95.552-95.552 86.272-86.272a32 32 0 0 0-45.248-45.248L310.4 139.712l-63.872-63.808zM628.224 288a224 224 0 1 1 0 448 224 224 0 0 1 0-448z"  horiz-adv-x="1024" />
      
      <glyph glyph-name="font-less-equal" unicode="&#59233;" d="M383.36 448L720 251.64800000000002a32 32 0 0 0-32.32-55.296l-384 224a32 32 0 0 0 0 55.296l384 224a32 32 0 0 0 32.256-55.296L383.36 448zM304 260.22400000000005a32 32 0 1 0 31.68 55.552l368-210.304a32 32 0 0 0-31.744-55.552L304 260.22400000000005z"  horiz-adv-x="1024" />
      
      <glyph glyph-name="font-collapse" unicode="&#59151;" d="M525.248 387.2l294.144-294.144a32 32 0 0 0-45.248-45.248l-316.8 316.8a32 32 0 0 0 0 45.248l316.8 316.8a32 32 0 0 0 45.248-45.312L525.248 387.2z m-256 0l294.144-294.144a32 32 0 0 0-45.248-45.248l-316.8 316.8a32 32 0 0 0 0 45.248l316.8 316.8a32 32 0 1 0 45.248-45.312L269.248 387.2z"  horiz-adv-x="1024" />
      
      <glyph glyph-name="font-expand" unicode="&#59150;" d="M495.552 387.2L201.344 93.05600000000004a32 32 0 0 1 45.312-45.248l316.8 316.8a32 32 0 0 1 0 45.248l-316.8 316.8a32 32 0 0 1-45.312-45.312L495.552 387.2z m256 0L457.344 93.05600000000004a32 32 0 0 1 45.312-45.248l316.8 316.8a32 32 0 0 1 0 45.248l-316.8 316.8a32 32 0 1 1-45.312-45.312L751.552 387.2z"  horiz-adv-x="1024" />
      
      <glyph glyph-name="font-parameter-double" unicode="&#58891;" d="M123.264-95.74400000000003v64h740.224V543.36H671.616a64 64 0 0 0-64 64V799.04H160V512H96V798.912a64 64 0 0 0 64 64h475.264a34.688 34.688 0 0 0 31.36-9.088l249.536-249.28a34.56 34.56 0 0 0 9.792-19.648 30.72 30.72 0 0 0 1.472-9.6v-607.04a64 64 0 0 0-64-64h-740.16zM671.616 749.12v-141.76h141.952L671.616 749.184z m-472.32-341.312c-4.864-0.96-6.592-3.072-7.68-10.112v-381.248h-64l0.192 385.152c4.48 36.8 25.152 62.336 59.136 68.992 32.448 6.336 61.248-7.04 82.368-35.776l4.16-7.808 116.992-318.016c7.936-16.064 15.872-20.48 30.4-18.048 13.184 2.176 17.024 6.912 17.28 23.104V477.76h64V113.60000000000002c-0.768-46.784-26.24-78.464-70.848-85.76-43.136-7.168-78.08 12.16-99.584 55.936l-116.608 316.48c-5.824 7.04-10.24 8.64-15.872 7.552z"  horiz-adv-x="1024" />
      
      <glyph glyph-name="font-date" unicode="&#59187;" d="M704 768h192a64 64 0 0 0 64-64v-704a64 64 0 0 0-64-64H128a64 64 0 0 0-64 64V704a64 64 0 0 0 64 64h192V800a32 32 0 0 0 64 0v-32h256V800a32 32 0 1 0 64 0v-32z m0-64v-32a32 32 0 1 0-64 0v32H384v-32a32 32 0 0 0-64 0v32H128v-704h768V704H704zM256 384h128v-128H256V384z m0-192h128v-128H256V192z m192 192h128v-128H448V384z m0 192h128v-128H448V576z m0-384h128v-128H448V192z m192 192h128v-128H640V384z m0 192h128v-128H640V576z"  horiz-adv-x="1024" />
      
      <glyph glyph-name="font-underline" unicode="&#59036;" d="M768 704v-416a128 128 0 0 0-128-128H384a128 128 0 0 0-128 128V704a32 32 0 0 0 64 0v-416a64 64 0 0 1 64-64h256a64 64 0 0 1 64 64V704a32 32 0 1 0 64 0zM224 70.39999999999998h576a32 32 0 1 0 0-64H224a32 32 0 1 0 0 64z"  horiz-adv-x="1024" />
      
      <glyph glyph-name="font-tip-error" unicode="&#59223;" d="M512-127.99099999999999a501.751 501.751 0 0 0-199.357 40 513.783 513.783 0 0 0-163.069 109.565 513.783 513.783 0 0 0-109.566 163.07A501.751 501.751 0 0 0 0.01 384a501.751 501.751 0 0 0 40 199.357 513.783 513.783 0 0 0 109.565 163.069 513.783 513.783 0 0 0 163.07 109.566A501.751 501.751 0 0 0 512 895.99a501.751 501.751 0 0 0 199.357-40 513.783 513.783 0 0 0 163.069-109.565 513.783 513.783 0 0 0 109.566-163.07A501.751 501.751 0 0 0 1023.99 384a501.751 501.751 0 0 0-40-199.357 513.783 513.783 0 0 0-109.565-163.069 513.783 513.783 0 0 0-163.07-109.566A501.751 501.751 0 0 0 512-127.99000000000001z m235.068 660.916a24.32 24.32 0 0 1 7.36 17.856 24.32 24.32 0 0 1-7.36 17.856l-52.927 51.647a23.616 23.616 0 0 1-34.432 0L512 472.638 363.075 620.284a23.616 23.616 0 0 1-34.432 0l-52.927-51.647a26.944 26.944 0 0 1-6.144-17.92c0-6.912 2.048-12.864 6.144-17.792l148.926-147.709-148.926-147.645a26.944 26.944 0 0 1-6.144-17.92c0-6.912 2.048-12.864 6.144-17.792l52.927-51.71a23.616 23.616 0 0 1 34.432 0L512 297.85699999999997l147.71-147.71a23.616 23.616 0 0 1 34.43 0l52.928 51.711a24.32 24.32 0 0 1 7.36 17.856 24.32 24.32 0 0 1-7.36 17.856L598.142 385.216l148.926 147.71z"  horiz-adv-x="1024" />
      
      <glyph glyph-name="font-tip-success" unicode="&#59222;" d="M512 895.991a501.751 501.751 0 0 0 199.357-40 513.783 513.783 0 0 0 163.069-109.565 513.783 513.783 0 0 0 109.566-163.07A501.751 501.751 0 0 0 1023.99 384a501.751 501.751 0 0 0-40-199.357 513.783 513.783 0 0 0-109.565-163.069 513.783 513.783 0 0 0-163.07-109.566A501.751 501.751 0 0 0 512-127.99000000000001a501.751 501.751 0 0 0-199.357 40 513.783 513.783 0 0 0-163.069 109.565 513.783 513.783 0 0 0-109.566 163.07A501.751 501.751 0 0 0 0.01 384a501.751 501.751 0 0 0 40 199.357 513.783 513.783 0 0 0 109.565 163.069 513.783 513.783 0 0 0 163.07 109.566A501.751 501.751 0 0 0 512 895.99z m312.57-407.48a21.76 21.76 0 0 1 7.424 16.319 21.76 21.76 0 0 1-7.423 16.32l-50.88 47.87a24.576 24.576 0 0 1-17.343 6.977 24.576 24.576 0 0 1-17.344-7.04L431.361 279.682 284.996 418.559a24.576 24.576 0 0 1-17.28 6.912 24.576 24.576 0 0 1-17.407-6.976l-50.88-47.807a21.76 21.76 0 0 1-7.423-16.383 21.76 21.76 0 0 1 7.423-16.32L406.594 142.01999999999998l7.424-7.04c4.992-4.672 10.752-6.976 17.343-6.976a24.576 24.576 0 0 1 17.408 7.04L824.571 488.51z"  horiz-adv-x="1024" />
      
      <glyph glyph-name="font-trigger-triangle" unicode="&#58958;" d="M333.248 512h357.504a32 32 0 0 0 22.592-54.656L534.656 278.65599999999995a32 32 0 0 0-45.312 0L310.656 457.344A32 32 0 0 0 333.248 512z"  horiz-adv-x="1024" />
      
      <glyph glyph-name="font-vertical-drag" unicode="&#59282;" d="M896 469.333a42.667 42.667 0 1 0-85.333 0 42.667 42.667 0 0 0 85.333 0z m-170.667 0a42.667 42.667 0 1 0-85.333 0 42.667 42.667 0 0 0 85.333 0zM896 298.66700000000003a42.667 42.667 0 1 0-85.333 0 42.667 42.667 0 0 0 85.333 0z m-170.667 0a42.667 42.667 0 1 0-85.333 0 42.667 42.667 0 0 0 85.333 0zM554.667 469.333a42.667 42.667 0 1 0-85.334 0 42.667 42.667 0 0 0 85.334 0z m0-170.666a42.667 42.667 0 1 0-85.334 0 42.667 42.667 0 0 0 85.334 0zM384 469.333a42.667 42.667 0 1 0-85.333 0 42.667 42.667 0 0 0 85.333 0z m0-170.666a42.667 42.667 0 1 0-85.333 0 42.667 42.667 0 0 0 85.333 0zM213.333 469.333a42.667 42.667 0 1 0-85.333 0 42.667 42.667 0 0 0 85.333 0z m0-170.666a42.667 42.667 0 1 0-85.333 0 42.667 42.667 0 0 0 85.333 0z"  horiz-adv-x="1024" />
      
      <glyph glyph-name="font-auto" unicode="&#58898;" d="M512 832a448 448 0 1 0 0-896 448 448 0 0 0 0 896z m0-64a384 384 0 1 1 0-768 384 384 0 0 1 0 768z m47.168-115.2l171.776-518.144h-86.592l-43.648 147.84H420.48l-44.352-147.84h-83.072L464.832 652.8h94.336z m-47.872-64.064h-2.816a3544 3544 0 0 0-35.328-130.112l-12.544-42.368-21.12-69.696h141.504l-20.416 69.696c-17.6 56.32-33.088 114.048-49.28 172.48z"  horiz-adv-x="1024" />
      
      <glyph glyph-name="font-tip-warning" unicode="&#59221;" d="M512 895.991a501.751 501.751 0 0 0 199.357-40 513.783 513.783 0 0 0 163.069-109.565 513.783 513.783 0 0 0 109.566-163.07A501.751 501.751 0 0 0 1023.99 384a501.751 501.751 0 0 0-40-199.357 513.783 513.783 0 0 0-109.565-163.069 513.783 513.783 0 0 0-163.07-109.566A501.751 501.751 0 0 0 512-127.99000000000001a501.751 501.751 0 0 0-199.357 40 513.783 513.783 0 0 0-163.069 109.565 513.783 513.783 0 0 0-109.566 163.07A501.751 501.751 0 0 0 0.01 384a501.751 501.751 0 0 0 40 199.357 513.783 513.783 0 0 0 109.565 163.069 513.783 513.783 0 0 0 163.07 109.566A501.751 501.751 0 0 0 512 895.99z m0-802.418a56.959 56.959 0 0 1 41.855 17.216 56.959 56.959 0 0 1 17.28 41.855 56.959 56.959 0 0 1-17.28 41.791A56.959 56.959 0 0 1 512 211.71500000000003a56.959 56.959 0 0 1-41.855-17.28 56.959 56.959 0 0 1-17.28-41.791c0-16.448 5.76-30.4 17.28-41.855 11.52-11.52 25.471-17.28 41.855-17.28z m59.071 255.996V625.212a56.959 56.959 0 0 1-17.28 41.855A56.959 56.959 0 0 1 512 684.347a56.959 56.959 0 0 1-41.855-17.28 56.959 56.959 0 0 1-17.28-41.855v-275.643c0-16.448 5.76-30.4 17.28-41.856 11.52-11.52 25.471-17.28 41.855-17.28a56.959 56.959 0 0 1 41.855 17.28 56.959 56.959 0 0 1 17.28 41.856z"  horiz-adv-x="1024" />
      
      <glyph glyph-name="font-less" unicode="&#59230;" d="M352.512 416l399.36-228.224a32 32 0 1 0-31.744-55.552l-448 256a32 32 0 0 0 0 55.552l448 256a32 32 0 0 0 31.744-55.552L352.512 416z"  horiz-adv-x="1024" />
      
      <glyph glyph-name="font-tip-message" unicode="&#59211;" d="M512-127.99099999999999a501.751 501.751 0 0 1 199.357 40 513.783 513.783 0 0 1 163.069 109.565 513.783 513.783 0 0 1 109.566 163.07A501.751 501.751 0 0 1 1023.99 384a501.751 501.751 0 0 1-40 199.357 513.783 513.783 0 0 1-109.565 163.069 513.783 513.783 0 0 1-163.07 109.566A501.751 501.751 0 0 1 512 895.99a501.751 501.751 0 0 1-199.357-40 513.783 513.783 0 0 1-163.069-109.565 513.783 513.783 0 0 1-109.566-163.07A501.751 501.751 0 0 1 0.01 384a501.751 501.751 0 0 1 40-199.357 513.783 513.783 0 0 1 109.565-163.069 513.783 513.783 0 0 1 163.07-109.566A501.751 501.751 0 0 1 512-127.99000000000001z m0 767.987c17.792 0 32.895-6.208 45.311-18.688 12.48-12.416 18.688-27.52 18.688-45.311a61.695 61.695 0 0 0-18.688-45.312A61.695 61.695 0 0 0 512 511.998a61.695 61.695 0 0 0-45.311 18.687A61.695 61.695 0 0 0 448 575.9970000000001c0 17.791 6.208 32.895 18.688 45.31A61.695 61.695 0 0 0 512 639.9970000000001zM575.999 390.4v-268.795c0-16-6.208-29.568-18.688-40.832-12.416-11.2-27.52-16.767-45.311-16.767-17.792 0-32.895 5.568-45.311 16.831A52.863 52.863 0 0 0 448 121.60500000000002V390.4c0 16 6.208 29.567 18.688 40.767C479.105 442.431 494.209 448 512 448c17.792 0 32.895-5.568 45.311-16.832A52.863 52.863 0 0 0 576 390.4z"  horiz-adv-x="1024" />
      
      <glyph glyph-name="font-color" unicode="&#59032;" d="M365.12 371.20000000000005l-68.672-230.4h-67.2l160.384 536.64a128 128 0 0 0 244.736 0L794.752 140.79999999999995h-67.2L658.88 371.20000000000005H365.12z m19.072 64h255.616l-66.56 223.488a64 64 0 0 1-122.432 0L384.192 435.2z"  horiz-adv-x="1024" />
      
      <glyph glyph-name="font-italic" unicode="&#59037;" d="M623.68 659.2L459.712 110.39999999999998H620.8a32 32 0 1 0 0-64h-384a32 32 0 0 0 0 64h156.16l163.968 548.8H399.04a32 32 0 1 0 0 64h384a32 32 0 1 0 0-64H623.68z"  horiz-adv-x="1024" />
      
      <glyph glyph-name="font-background" unicode="&#59033;" d="M414.4 819.392L753.792 480a64 64 0 0 0 0-90.496L527.552 163.20000000000005a64 64 0 0 0-90.56 0l-226.24 226.304a64 64 0 0 0 0 90.496l226.24 226.304-67.84 67.84A32 32 0 0 0 414.4 819.392z m67.84-158.4L256 434.752l226.304-226.304 226.24 226.304-226.24 226.24z m226.304-226.24l-226.24-226.304L256 434.752h452.544z m66.048-274.432a57.6 57.6 0 0 0-57.6 57.472c0 21.184 19.2 65.92 57.6 134.208 38.4-68.288 57.6-113.024 57.6-134.208a57.6 57.6 0 0 0-57.6-57.472z"  horiz-adv-x="1024" />
      
      <glyph glyph-name="font-bold" unicode="&#59031;" d="M320 430.336h318.08c19.456 0 35.264 4.672 47.232 13.952A46.656 46.656 0 0 1 704 482.56V593.472c0 15.872-4.928 44.672-14.848 54.592-11.712 11.648-28.736 17.536-51.008 17.536H381.568c-14.08 0-26.88-3.648-38.208-10.88C327.744 644.608 320 616.192 320 601.6v-171.264z m405.824-35.584l1.088-1.024c25.984-24.32 41.024-54.4 41.024-88.448v-133.312c0-33.728-12.672-64.32-37.248-88.384-28.16-27.008-65.728-39.68-109.056-39.68H382.08c-79.616 0-126.08 55.936-126.08 138.752V601.6c0 38.144 17.536 84.032 53.12 107.2a133.76 133.76 0 0 0 72.448 20.8H638.08c38.08 0 71.424-11.52 96.192-36.288 24.064-24 33.664-64.384 33.664-99.84V482.56a110.72 110.72 0 0 0-42.112-87.808zM320 366.336v-183.68c0-49.92 20.736-74.752 62.08-74.752h239.552c27.904 0 49.536 7.296 64.768 21.888 11.712 11.52 17.536 25.6 17.536 42.24V305.28c0 14.912-6.912 28.8-20.736 41.728-13.44 12.8-31.104 19.328-53.12 19.328H320z"  horiz-adv-x="1024" />
      
      <glyph glyph-name="font-color-underline" unicode="&#59034;" d="M230.272 76.79999999999995h563.2q38.4 0 38.4-38.4t-38.4-38.4h-563.2q-38.4 0-38.4 38.4t38.4 38.4z"  horiz-adv-x="1024" />
      
      <glyph glyph-name="font-change-and-or" unicode="&#59228;" d="M512 576H320a192 192 0 0 1-1.792-384l-42.496-59.392C155.136 155.32799999999997 64 259.264 64 384c0 141.44 116.992 256 261.312 256h314.304L512 461.376V576zM409.28 192l81.92 114.688V192H704a192 192 0 0 1 0 384h-20.096l44.608 62.336C858.88 623.808 960 515.456 960 384c0-141.44-116.992-256-261.312-256H363.52l45.76 64z"  horiz-adv-x="1024" />
      
      <glyph glyph-name="font-minus" unicode="&#59226;" d="M186.182 337.45500000000004h651.636v93.09H186.182z"  horiz-adv-x="1024" />
      
      <glyph glyph-name="font-parameter-int" unicode="&#59330;" d="M960 704h-64v64H64v-768h832v64h64v-64a64 64 0 0 0-64-64H64a64 64 0 0 0-64 64V768a64 64 0 0 0 64 64h832a64 64 0 0 0 64-64v-64zM226.496 170.49599999999998V504L128 484.992v61.056l119.232 24.192h52.992v-399.744h-73.728z m149.12 0v67.968c150.336 119.808 188.352 165.888 188.352 215.424 0 48.384-32.832 61.632-74.88 61.632-25.92 0-55.296-3.456-88.128-13.248v61.056c29.376 8.64 63.936 12.672 100.8 12.672 84.672 0 135.936-35.712 135.936-113.472 0-67.968-27.648-111.168-148.608-207.36l-24.768-19.584v-4.608h185.472v-60.48H375.616z m436.608-5.76a476.16 476.16 0 0 0-91.008 7.488v62.784c30.528-6.912 57.024-9.792 87.552-9.792 51.84 0 92.736 13.248 92.736 61.632 0 47.808-37.44 61.632-103.68 61.632H766.72v55.872h30.528c60.48 0 96.768 17.28 96.768 59.328 0 39.744-28.224 52.992-77.184 52.992-23.616 0-55.872-4.608-78.912-11.52V564.48c19.008 6.336 54.144 11.52 86.976 11.52 86.976 0 140.544-28.8 140.544-107.712 0-46.08-22.464-73.728-66.816-88.128v-3.456c52.416-9.792 77.184-43.776 77.184-94.464 0-78.336-54.72-117.504-163.584-117.504z"  horiz-adv-x="1024" />
      
      <glyph glyph-name="font-plus" unicode="&#59227;" d="M465.455 430.545V709.818h93.09v-279.273h279.273v-93.09H558.545v-279.273h-93.09V337.45500000000004H186.182v93.09h279.273z"  horiz-adv-x="1024" />
      
      <glyph glyph-name="font-combine-level" unicode="&#59323;" d="M480 0V768H96v-128H32V800a32 32 0 0 0 32 32h896a32 32 0 0 0 32-32v-159.872h-64V768H544v-768h384V128.06399999999996h64V-32a32 32 0 0 0-32-32H64a32 32 0 0 0-32 32V128h64v-128h384zM274.752 416L193.6 497.152a32 32 0 1 0 45.248 45.248l135.808-135.744a32 32 0 0 0 0-45.312l-135.808-135.68a32 32 0 1 0-45.248 45.184L274.752 352H96a32 32 0 0 0 0 64h178.752z m474.816 0.128H928a32 32 0 1 0 0-64H748.992L830.4 270.72a32 32 0 1 0-45.248-45.312L649.344 361.216A31.872 31.872 0 0 0 640 384.128a32 32 0 0 0 12.096 25.024l133.056 133.12A32 32 0 1 0 830.4 496.96l-80.832-80.832z"  horiz-adv-x="1170" />
      
      <glyph glyph-name="font-circle-close" unicode="&#58996;" d="M512 0a384 384 0 1 0 0 768 384 384 0 0 0 0-768z m0 429.248L376.256 564.992a32 32 0 1 1-45.248-45.248L466.688 384l-135.68-135.744a32 32 0 0 1 45.248-45.248L512 338.688l135.744-135.68a32 32 0 1 1 45.248 45.248L557.312 384l135.68 135.744a32 32 0 1 1-45.248 45.248L512 429.312z"  horiz-adv-x="1024" />
      
      <glyph glyph-name="font-cross" unicode="&#58987;" d="M771.656 690.024a8 8 0 0 1-11.312 0L512.568 442.248 264.224 690.592a8 8 0 0 1-11.312 0l-45.256-45.256a8 8 0 0 1 0-11.312L456 385.68 205.972 135.65200000000004a8 8 0 0 1 0-11.316l45.256-45.252a8 8 0 0 1 11.312 0l250.028 250.028 249.46-249.46a8 8 0 0 1 11.316 0l45.252 45.256a8 8 0 0 1 0 11.312l-249.46 249.46 247.776 247.776a8 8 0 0 1 0 11.312l-45.256 45.256z"  horiz-adv-x="1024" />
      
      <glyph glyph-name="a-leixingliuxiangtu" unicode="&#59605;" d="M906.464 762.332a8 8 0 0 1-7.472 10.864l-203.872-0.104c-6.44 0-10.236-7.228-6.588-12.532l54.38-79.052c-66.964-45.108-156.616-40.252-218.444 13.364-83.608 72.504-206.36 85.184-295.248 19.26L107.252 623.672a8 8 0 0 1-1.66-11.192l23.828-32.128a8 8 0 0 1 11.192-1.66L262.58 669.16c67.8 50.28 161.428 38.712 225.2-16.592 81.204-70.42 199.028-76.68 286.872-17.2l44.748-65.056c3.652-5.304 11.756-4.344 14.06 1.672l73.004 190.352zM906.464 464.824a8 8 0 0 1-7.472 10.864l-203.872-0.104c-6.44 0-10.236-7.228-6.588-12.532L742.912 384c-66.964-45.108-156.616-40.252-218.444 13.364-83.608 72.504-206.36 85.184-295.248 19.264l-121.968-90.464a8 8 0 0 1-1.66-11.192l23.828-32.128a8 8 0 0 1 11.192-1.66l121.968 90.464c67.8 50.28 161.428 38.712 225.2-16.588 81.204-70.424 199.028-76.684 286.872-17.2L819.4 272.79999999999995c3.652-5.304 11.756-4.344 14.06 1.672l73.004 190.352zM898.992 179.688a8 8 0 0 0 7.472-10.864l-73.004-190.352c-2.304-6.016-10.408-6.976-14.06-1.672l-44.748 65.06c-87.844-59.484-205.668-53.224-286.872 17.2-63.772 55.3-157.4 66.868-225.2 16.588l-121.968-90.464a8 8 0 0 0-11.192 1.66l-23.828 32.128a8 8 0 0 0 1.66 11.192l121.968 90.464c88.888 65.92 211.64 53.24 295.248-19.264 61.828-53.616 151.48-58.472 218.444-13.364l-54.38 79.052c-3.648 5.304 0.148 12.532 6.588 12.532l203.872 0.104z"  horiz-adv-x="1024" />
      
      <glyph glyph-name="a-tubiaoleixingxiangxingtusecaioff" unicode="&#59604;" d="M620 730.812h-82.5V784h-55v-53.188H400v-512.98h82.5V104h55v113.832H620V730.812z m-55-457.308h-110V675.144h110v-401.64zM912 553.332h-81V604.284h-54v-50.952H696v-506.284h81V-16h54v63.048H912V553.332z m-54-452.952h-108V500h108v-399.62zM328 509.444H247V568.144h-54v-58.7H112v-452.808h81V-16h54v72.636H328V509.444zM274 118.08000000000004h-108V448h108v-329.92z"  horiz-adv-x="1024" />
      
      <glyph glyph-name="a-leixingsqlbiaoshishion" unicode="&#59602;" d="M120-16a8 8 0 0 0-8 8v64a8 8 0 0 0 8 8h784a8 8 0 0 0 8-8v-64a8 8 0 0 0-8-8H120zM912 784h-80v-624h80V784zM112 584.92C112 613.132 134.584 636 162.44 636H424v-80H192v-108h181.56c27.856 0 50.44-23.356 50.44-51.568v-149.348c0-28.212-22.584-51.084-50.44-51.084H112v80h232v92H162.44C134.588 368 112 390.872 112 419.084V584.92zM464 585.12c0 28.1 22.78 50.88 50.88 50.88h234.604c28.1 0 50.88-22.78 50.88-50.88L800 160.008h-80l0.364 135.996H514.88c-28.1 0-50.88 22.78-50.88 50.88V585.12z m232.364-209.248a24 24 0 0 1 24 24V532a24 24 0 0 1-24 24H568a24 24 0 0 1-24-24v-132.128a24 24 0 0 1 24-24h128.364z"  horiz-adv-x="1024" />
      
      <glyph glyph-name="a-zhankaioff" unicode="&#59600;" d="M643.992 169.592c-20.956-16.76-51.992-1.844-51.992 24.988v378.84c0 26.832 31.036 41.752 51.992 24.988l236.772-189.42c16.016-12.812 16.016-37.164 0-49.976l-236.772-189.42z"  horiz-adv-x="1024" />
      
      <glyph glyph-name="a-zhankaion" unicode="&#59601;" d="M857.372 553.372c20.16 20.16 54.628 5.88 54.628-22.628V256a32 32 0 0 0-32-32h-274.744c-28.512 0-42.788 34.468-22.628 54.628l274.744 274.744z"  horiz-adv-x="1024" />
      
      <glyph glyph-name="a-leixingliebiaozhanshi" unicode="&#59597;" d="M112 696a8 8 0 0 0 8 8h784a8 8 0 0 0 8-8v-256a8 8 0 0 0-8-8H120a8 8 0 0 0-8 8V696z m288-64H192c-6.592 0-10.356-7.528-6.4-12.8l104-138.668a8 8 0 0 1 12.8 0l104 138.668c3.956 5.276 0.192 12.8-6.4 12.8zM112 328a8 8 0 0 0 8 8h784a8 8 0 0 0 8-8v-256a8 8 0 0 0-8-8H120a8 8 0 0 0-8 8v256z m288-64H192c-6.592 0-10.356-7.528-6.4-12.8l104-138.668a8 8 0 0 1 12.8 0l104 138.668c3.956 5.272 0.192 12.8-6.4 12.8z"  horiz-adv-x="1024" />
      
      <glyph glyph-name="a-leixingshuzhuangzhanshi" unicode="&#59598;" d="M64 696a8 8 0 0 0 8 8h256a8 8 0 0 0 8-8v-140a8 8 0 0 0-8-8H228v-136h188v44a8 8 0 0 0 8 8h480a8 8 0 0 0 8-8v-140a8 8 0 0 0-8-8H424a8 8 0 0 0-8 8v40H228v-188h188v44a8 8 0 0 0 8 8h480a8 8 0 0 0 8-8v-140a8 8 0 0 0-8-8H424a8 8 0 0 0-8 8v40H180a8 8 0 0 0-8 8V548H72a8 8 0 0 0-8 8V696zM424 704a8 8 0 0 1-8-8v-140a8 8 0 0 1 8-8h480a8 8 0 0 1 8 8V696a8 8 0 0 1-8 8H424z"  horiz-adv-x="1024" />
      
      <glyph glyph-name="a-leixingduoliezhanshi" unicode="&#59599;" d="M112 72a8 8 0 0 1 8-8h192a8 8 0 0 1 8 8V696a8 8 0 0 1-8 8H120a8 8 0 0 1-8-8v-624zM408 312a8 8 0 0 1 8-8h192a8 8 0 0 1 8 8V696a8 8 0 0 1-8 8h-192a8 8 0 0 1-8-8v-384zM712 224a8 8 0 0 1-8-8v-144a8 8 0 0 1 8-8h192a8 8 0 0 1 8 8v144a8 8 0 0 1-8 8h-192zM408 216a8 8 0 0 0 8 8h192a8 8 0 0 0 8-8v-144a8 8 0 0 0-8-8h-192a8 8 0 0 0-8 8v144zM712 464a8 8 0 0 1-8-8v-144a8 8 0 0 1 8-8h192a8 8 0 0 1 8 8v144a8 8 0 0 1-8 8h-192zM704 696a8 8 0 0 0 8 8h192a8 8 0 0 0 8-8v-144a8 8 0 0 0-8-8h-192a8 8 0 0 0-8 8V696z"  horiz-adv-x="1024" />
      
      <glyph glyph-name="a-danxuanoffqianseonstatebanxuanze" unicode="&#59590;" d="M96 832a32 32 0 0 1-32-32v-832a32 32 0 0 1 32-32h832a32 32 0 0 1 32 32V800a32 32 0 0 1-32 32H96z m64-64h704a32 32 0 0 0 32-32v-704a32 32 0 0 0-32-32H160a32 32 0 0 0-32 32V736a32 32 0 0 0 32 32zM288 589.332A18.668 18.668 0 0 0 306.668 608h410.664A18.668 18.668 0 0 0 736 589.332v-410.664a18.664 18.664 0 0 0-18.668-18.668H306.668A18.668 18.668 0 0 0 288 178.668V589.332z"  horiz-adv-x="1024" />
      
      <glyph glyph-name="a-danxuanonqianseonstatehover" unicode="&#59591;" d="M512-64c247.424 0 448 200.576 448 448S759.424 832 512 832 64 631.424 64 384s200.576-448 448-448z m0 64c-212.08 0-384 171.924-384 384 0 212.08 171.92 384 384 384 212.076 0 384-171.92 384-384 0-212.076-171.924-384-384-384z"  horiz-adv-x="1024" />
      
      <glyph glyph-name="a-danxuanoffqianseonstatehover" unicode="&#59592;" d="M96 832a32 32 0 0 1-32-32v-832a32 32 0 0 1 32-32h832a32 32 0 0 1 32 32V800a32 32 0 0 1-32 32H96z m64-64h704a32 32 0 0 0 32-32v-704a32 32 0 0 0-32-32H160a32 32 0 0 0-32 32V736a32 32 0 0 0 32 32z"  horiz-adv-x="1024" />
      
      <glyph glyph-name="a-danxuanoffqianseonstatenormal" unicode="&#59593;" d="M96 832a32 32 0 0 1-32-32v-832a32 32 0 0 1 32-32h832a32 32 0 0 1 32 32V800a32 32 0 0 1-32 32H96z m64-64h704a32 32 0 0 0 32-32v-704a32 32 0 0 0-32-32H160a32 32 0 0 0-32 32V736a32 32 0 0 0 32 32z"  horiz-adv-x="1024" />
      
      <glyph glyph-name="a-danxuanonqianseonstatecheck" unicode="&#59594;" d="M512 160c123.712 0 224 100.288 224 224s-100.288 224-224 224-224-100.288-224-224 100.288-224 224-224zM960 384c0-247.424-200.576-448-448-448S64 136.576 64 384 264.576 832 512 832s448-200.576 448-448z m-64 0c0 212.08-171.924 384-384 384-212.08 0-384-171.92-384-384 0-212.076 171.92-384 384-384 212.076 0 384 171.924 384 384z"  horiz-adv-x="1024" />
      
      <glyph glyph-name="a-danxuanoffqianseonstatecheck" unicode="&#59595;" d="M96 832a32 32 0 0 1-32-32v-832a32 32 0 0 1 32-32h832a32 32 0 0 1 32 32V800a32 32 0 0 1-32 32H96z m661.692-228l56.568-56.568-383.1-383.1-56.568 56.568 0.024 0.028L208 387.544l56.568 56.568 166.616-166.616L757.692 604z"  horiz-adv-x="1024" />
      
      <glyph glyph-name="a-danxuanonqianseonstatenormal" unicode="&#59596;" d="M512-64c247.424 0 448 200.576 448 448S759.424 832 512 832 64 631.424 64 384s200.576-448 448-448z m0 64c-212.08 0-384 171.924-384 384 0 212.08 171.92 384 384 384 212.076 0 384-171.92 384-384 0-212.076-171.924-384-384-384z"  horiz-adv-x="1024" />
      
      <glyph glyph-name="a-fabuzhuangtaiyifabu" unicode="&#59587;" d="M512-64c247.424 0 448 200.576 448 448S759.424 832 512 832 64 631.424 64 384s200.576-448 448-448z m162.904 572.992a8 8 0 0 0 11.312 0l38.444-38.44a8 8 0 0 0 0-11.316l-236.992-236.988a8 8 0 0 0-10.368-0.812 8.048 8.048 0 0 0-1.608 1.248l-147 146.996a8 8 0 0 0 0 11.316l38.44 38.44a8 8 0 0 0 11.32 0l103.444-103.448 193.008 193.004z"  horiz-adv-x="1024" />
      
      <glyph glyph-name="a-fabuzhuangtaishenqingquxiaofabu" unicode="&#59588;" d="M512-64c247.424 0 448 200.576 448 448S759.424 832 512 832 64 631.424 64 384s200.576-448 448-448z m-152.276 253.404c-6.24-2.06-12.16 3.864-10.104 10.104l131.884 399.68c1.868 5.656 9.044 7.36 13.256 3.148l100.976-100.976-62.408-127.912 127.912 62.404 101.312-101.308c4.212-4.212 2.508-11.388-3.148-13.256l-399.68-131.884z"  horiz-adv-x="1024" />
      
      <glyph glyph-name="a-fabuzhuangtaishenqingfabu" unicode="&#59589;" d="M512-64c247.424 0 448 200.576 448 448S759.424 832 512 832 64 631.424 64 384s200.576-448 448-448z m152.012 619.944c6.24 2.06 12.164-3.864 10.104-10.104l-131.884-399.68c-1.868-5.656-9.044-7.36-13.256-3.148L428 243.988l62.408 127.912-127.912-62.408-101.312 101.312c-4.212 4.212-2.508 11.388 3.148 13.256l399.68 131.88z"  horiz-adv-x="1024" />
      
      <glyph glyph-name="a-leixingtianjiamulu" unicode="&#59582;" d="M112 768a16 16 0 0 0 16 16h768a16 16 0 0 0 16-16v-384h-64V720H176v-672h336v-64H128a16 16 0 0 0-16 16V768zM392 228h120v-72H392a8 8 0 0 0-8 8v56a8 8 0 0 0 8 8zM384 604a8 8 0 0 0 8 8h368a8 8 0 0 0 8-8v-56a8 8 0 0 0-8-8H392a8 8 0 0 0-8 8V604zM392 420a8 8 0 0 1-8-8v-56a8 8 0 0 1 8-8h264a8 8 0 0 1 8 8v56a8 8 0 0 1-8 8H392zM256 612a8 8 0 0 1-8-8v-56a8 8 0 0 1 8-8h56a8 8 0 0 1 8 8V604a8 8 0 0 1-8 8H256zM248 412a8 8 0 0 0 8 8h56a8 8 0 0 0 8-8v-56a8 8 0 0 0-8-8H256a8 8 0 0 0-8 8v56zM256 228a8 8 0 0 1-8-8v-56a8 8 0 0 1 8-8h56a8 8 0 0 1 8 8v56a8 8 0 0 1-8 8H256zM724 328a8 8 0 0 0 8 8h56a8 8 0 0 0 8-8v-156h156a8 8 0 0 0 8-8v-56a8 8 0 0 0-8-8h-156v-156a8 8 0 0 0-8-8h-56a8 8 0 0 0-8 8v156h-156a8 8 0 0 0-8 8v56a8 8 0 0 0 8 8h156v156z"  horiz-adv-x="1024" />
      
      <glyph glyph-name="a-leixingshangbaobiaoqian" unicode="&#59583;" d="M128 784a16 16 0 0 1-16-16v-768a16 16 0 0 1 16-16h384v64H176V720h672v-336h64V768a16 16 0 0 1-16 16H128zM516.696 613.656a8 8 0 0 0 0-11.312L348.832 434.48a8 8 0 0 0-11.312 0L229.656 542.344a8 8 0 0 0 0 11.312L263.6 587.6a8 8 0 0 0 11.316 0L337.52 524.984a8 8 0 0 1 11.312 0L471.44 647.6a8 8 0 0 0 11.316 0l33.94-33.94zM364.168 128a112 112 0 1 0 0 224 112 112 0 0 0 0-224z m0 64a47.992 47.992 0 0 1 48 48 48 48 0 1 1-48-48zM776 484a8 8 0 0 1 8 8V548a8 8 0 0 1-8 8h-208a8 8 0 0 1-8-8v-56a8 8 0 0 1 8-8h208zM724 328a8 8 0 0 0 8 8h56a8 8 0 0 0 8-8v-156h156a8 8 0 0 0 8-8v-56a8 8 0 0 0-8-8h-156v-156a8 8 0 0 0-8-8h-56a8 8 0 0 0-8 8v156h-156a8 8 0 0 0-8 8v56a8 8 0 0 0 8 8h156v156z"  horiz-adv-x="1024" />
      
      <glyph glyph-name="a-leixingtianjiashouye" unicode="&#59584;" d="M128 784a16 16 0 0 1-16-16v-768a16 16 0 0 1 16-16h384v64H176V720h672v-336h64V768a16 16 0 0 1-16 16H128zM732 336a8 8 0 0 1-8-8v-156h-156a8 8 0 0 1-8-8v-56a8 8 0 0 1 8-8h156v-156a8 8 0 0 1 8-8h56a8 8 0 0 1 8 8v156h156a8 8 0 0 1 8 8v56a8 8 0 0 1-8 8h-156v156a8 8 0 0 1-8 8h-56zM291.948 436.796v-205.852a16 16 0 0 1 16-16h330.68a16 16 0 0 1 16 16v210.728l34.228-34.228a8 8 0 0 1 11.316 0l30.068 30.068a8 8 0 0 1 0 11.316l-232.544 232.544a32 32 0 0 1-45.256 0l-234.784-234.784a8 8 0 0 1 0-11.312l30.896-30.892a8 8 0 0 1 11.34 0.028l32.056 32.384z m60.096 60.72l122.736 124.004 119.752-119.752v-226.728H352.044V497.516z"  horiz-adv-x="1024" />
      
      <glyph glyph-name="a-leixingtianjialianjie" unicode="&#59585;" d="M128 784a16 16 0 0 1-16-16v-768a16 16 0 0 1 16-16h384v64H176V720h672v-336h64V768a16 16 0 0 1-16 16H128zM512 184h8.98l38.02 37.488a165.76 165.76 0 0 1-0.208 237.056l-31.264 30.72-51.272-50.552 31.268-30.72a95.128 95.128 0 0 0 0.12-136.044l-45.188-44.552c-38.136-37.6-100.024-37.656-138.228-0.12a95.128 95.128 0 0 0-0.12 136.044l49.96 49.256-51.36 50.46-49.96-49.256a165.76 165.76 0 0 1 0.212-237.056c65.964-64.812 172.452-65.304 239.04-1.552V184zM712 384h1.308l0.084 0.084a165.756 165.756 0 0 1-0.208 237.056c-66.568 65.4-174.4 65.308-240.856-0.212l-45.184-44.552a165.756 165.756 0 0 1 0.208-237.056l31.264-30.72 51.272 50.552-31.268 30.72a95.124 95.124 0 0 0-0.12 136.04l45.188 44.556c38.136 37.6 100.024 37.656 138.228 0.12a95.132 95.132 0 0 0 0.12-136.044l-48.008-47.332 51.36-50.46L712 382.708V384zM724 328a8 8 0 0 0 8 8h56a8 8 0 0 0 8-8v-156h156a8 8 0 0 0 8-8v-56a8 8 0 0 0-8-8h-156v-156a8 8 0 0 0-8-8h-56a8 8 0 0 0-8 8v156h-156a8 8 0 0 0-8 8v56a8 8 0 0 0 8 8h156v156z"  horiz-adv-x="1024" />
      
      <glyph glyph-name="a-leixingtianjiaBImoban" unicode="&#59586;" d="M112 768a16 16 0 0 0 16 16h768a16 16 0 0 0 16-16v-384h-64V720H176v-672h336v-64H128a16 16 0 0 0-16 16V768zM488 164v-56H248a8 8 0 0 0-8 8v40a8 8 0 0 0 8 8h240zM600 668a8 8 0 0 1-8 8h-32a8 8 0 0 1-8-8v-320a8 8 0 0 1 8-8h32a8 8 0 0 1 8 8V668zM640 232a8 8 0 0 0-8-8H248a8 8 0 0 0-8 8v40a8 8 0 0 0 8 8h384a8 8 0 0 0 8-8v-40zM240 664a8 8 0 0 0 8 8h128c50.812 0 92-41.188 92-92a91.644 91.644 0 0 0-23.336-61.232C472.992 502.08 492 471.26 492 436c0-53.02-42.98-96-96-96H248a8 8 0 0 0-8 8V664z m134.064-132C399.44 532.036 420 552.616 420 578c0 25.404-20.596 46-46 46H288v-92h86.064zM288 488v-100h106c27.616 0 50 22.384 50 50S421.616 488 394 488H288zM724 328a8 8 0 0 0 8 8h56a8 8 0 0 0 8-8v-156h156a8 8 0 0 0 8-8v-56a8 8 0 0 0-8-8h-156v-156a8 8 0 0 0-8-8h-56a8 8 0 0 0-8 8v156h-156a8 8 0 0 0-8 8v56a8 8 0 0 0 8 8h156v156z"  horiz-adv-x="1024" />
      
      <glyph glyph-name="a-qitazujianleixingwenbenzujian" unicode="&#59166;" d="M72 832a8 8 0 0 1-8-8v-48a8 8 0 0 1 8-8h48a8 8 0 0 1 8 8V824a8 8 0 0 1-8 8H72zM64-8a8 8 0 0 0 8 8h48a8 8 0 0 0 8-8v-48a8 8 0 0 0-8-8H72a8 8 0 0 0-8 8v48zM904-64a8 8 0 0 0-8 8v48a8 8 0 0 0 8 8h48a8 8 0 0 0 8-8v-48a8 8 0 0 0-8-8h-48zM960 776a8 8 0 0 0-8-8h-48a8 8 0 0 0-8 8V824a8 8 0 0 0 8 8h48a8 8 0 0 0 8-8v-48zM187.2 824a8 8 0 0 0 8 8h96a8 8 0 0 0 8-8v-48a8 8 0 0 0-8-8h-96a8 8 0 0 0-8 8V824zM366.4 824a8 8 0 0 0 8 8h96a8 8 0 0 0 8-8v-48a8 8 0 0 0-8-8h-96a8 8 0 0 0-8 8V824zM545.6 824a8 8 0 0 0 8 8h96a8 8 0 0 0 8-8v-48a8 8 0 0 0-8-8h-96a8 8 0 0 0-8 8V824zM724.8 824a8 8 0 0 0 8 8h96a8 8 0 0 0 8-8v-48a8 8 0 0 0-8-8h-96a8 8 0 0 0-8 8V824zM952 708.8a8 8 0 0 0 8-8v-96a8 8 0 0 0-8-8h-48a8 8 0 0 0-8 8v96a8 8 0 0 0 8 8h48zM952 529.6a8 8 0 0 0 8-8v-96a8 8 0 0 0-8-8h-48a8 8 0 0 0-8 8v96a8 8 0 0 0 8 8h48zM952 350.4a8 8 0 0 0 8-8v-96a8 8 0 0 0-8-8h-48a8 8 0 0 0-8 8v96a8 8 0 0 0 8 8h48zM952 171.2a8 8 0 0 0 8-8v-96a8 8 0 0 0-8-8h-48a8 8 0 0 0-8 8v96a8 8 0 0 0 8 8h48zM836.8-56a8 8 0 0 0-8-8h-96a8 8 0 0 0-8 8v48a8 8 0 0 0 8 8h96a8 8 0 0 0 8-8v-48zM657.6-56a8 8 0 0 0-8-8h-96a8 8 0 0 0-8 8v48a8 8 0 0 0 8 8h96a8 8 0 0 0 8-8v-48zM478.4-56a8 8 0 0 0-8-8h-96a8 8 0 0 0-8 8v48a8 8 0 0 0 8 8h96a8 8 0 0 0 8-8v-48zM299.2-56a8 8 0 0 0-8-8h-96a8 8 0 0 0-8 8v48a8 8 0 0 0 8 8h96a8 8 0 0 0 8-8v-48zM72 59.2a8 8 0 0 0-8 8v96a8 8 0 0 0 8 8h48a8 8 0 0 0 8-8v-96a8 8 0 0 0-8-8H72zM72 238.4a8 8 0 0 0-8 8v96a8 8 0 0 0 8 8h48a8 8 0 0 0 8-8v-96a8 8 0 0 0-8-8H72zM72 417.6a8 8 0 0 0-8 8v96a8 8 0 0 0 8 8h48a8 8 0 0 0 8-8v-96a8 8 0 0 0-8-8H72zM72 596.8a8 8 0 0 0-8 8v96a8 8 0 0 0 8 8h48a8 8 0 0 0 8-8v-96a8 8 0 0 0-8-8H72zM372.884 234.668h278.232l66.864-165.664A8 8 0 0 1 725.4 64h74.784a8 8 0 0 1 7.428 10.972l-249.6 624A8 8 0 0 1 550.584 704h-77.168a8 8 0 0 1-7.428-5.028l-249.6-624A8 8 0 0 1 223.816 64H298.6a8 8 0 0 1 7.42 5.004l66.864 165.664zM512 580.908L616.828 320h-209.656L512 580.908z"  horiz-adv-x="1024" />
      
      <glyph glyph-name="a-qitazujianleixingtupianzujian" unicode="&#59580;" d="M72 832a8 8 0 0 1-8-8v-48a8 8 0 0 1 8-8h48a8 8 0 0 1 8 8V824a8 8 0 0 1-8 8H72zM64-8a8 8 0 0 0 8 8h48a8 8 0 0 0 8-8v-48a8 8 0 0 0-8-8H72a8 8 0 0 0-8 8v48zM904-64a8 8 0 0 0-8 8v48a8 8 0 0 0 8 8h48a8 8 0 0 0 8-8v-48a8 8 0 0 0-8-8h-48zM960 776a8 8 0 0 0-8-8h-48a8 8 0 0 0-8 8V824a8 8 0 0 0 8 8h48a8 8 0 0 0 8-8v-48zM187.2 824a8 8 0 0 0 8 8h96a8 8 0 0 0 8-8v-48a8 8 0 0 0-8-8h-96a8 8 0 0 0-8 8V824zM366.4 824a8 8 0 0 0 8 8h96a8 8 0 0 0 8-8v-48a8 8 0 0 0-8-8h-96a8 8 0 0 0-8 8V824zM545.6 824a8 8 0 0 0 8 8h96a8 8 0 0 0 8-8v-48a8 8 0 0 0-8-8h-96a8 8 0 0 0-8 8V824zM724.8 824a8 8 0 0 0 8 8h96a8 8 0 0 0 8-8v-48a8 8 0 0 0-8-8h-96a8 8 0 0 0-8 8V824zM952 708.8a8 8 0 0 0 8-8v-96a8 8 0 0 0-8-8h-48a8 8 0 0 0-8 8v96a8 8 0 0 0 8 8h48zM952 529.6a8 8 0 0 0 8-8v-96a8 8 0 0 0-8-8h-48a8 8 0 0 0-8 8v96a8 8 0 0 0 8 8h48zM952 350.4a8 8 0 0 0 8-8v-96a8 8 0 0 0-8-8h-48a8 8 0 0 0-8 8v96a8 8 0 0 0 8 8h48zM952 171.2a8 8 0 0 0 8-8v-96a8 8 0 0 0-8-8h-48a8 8 0 0 0-8 8v96a8 8 0 0 0 8 8h48zM836.8-56a8 8 0 0 0-8-8h-96a8 8 0 0 0-8 8v48a8 8 0 0 0 8 8h96a8 8 0 0 0 8-8v-48zM657.6-56a8 8 0 0 0-8-8h-96a8 8 0 0 0-8 8v48a8 8 0 0 0 8 8h96a8 8 0 0 0 8-8v-48zM478.4-56a8 8 0 0 0-8-8h-96a8 8 0 0 0-8 8v48a8 8 0 0 0 8 8h96a8 8 0 0 0 8-8v-48zM299.2-56a8 8 0 0 0-8-8h-96a8 8 0 0 0-8 8v48a8 8 0 0 0 8 8h96a8 8 0 0 0 8-8v-48zM72 59.2a8 8 0 0 0-8 8v96a8 8 0 0 0 8 8h48a8 8 0 0 0 8-8v-96a8 8 0 0 0-8-8H72zM72 238.4a8 8 0 0 0-8 8v96a8 8 0 0 0 8 8h48a8 8 0 0 0 8-8v-96a8 8 0 0 0-8-8H72zM72 417.6a8 8 0 0 0-8 8v96a8 8 0 0 0 8 8h48a8 8 0 0 0 8-8v-96a8 8 0 0 0-8-8H72zM72 596.8a8 8 0 0 0-8 8v96a8 8 0 0 0 8 8h48a8 8 0 0 0 8-8v-96a8 8 0 0 0-8-8H72zM258.68 555.432A80 80 0 1 1 371.816 668.56 80 80 0 0 1 258.68 555.432zM652.216 80a8 8 0 0 0-7.192 4.496l-145.68 299.124a8 8 0 0 0 0.14 7.28l108.832 203.152c3.096 5.784 11.452 5.584 14.272-0.34l239.18-502.272a8 8 0 0 0-7.224-11.44h-202.328zM388.596 452.432c2.92 5.996 11.464 5.996 14.384 0l175.776-360.928a8 8 0 0 0-7.192-11.504H220.012a8 8 0 0 0-7.196 11.504l175.78 360.928z"  horiz-adv-x="1024" />
      
      <glyph glyph-name="a-qitazujianleixingwebzujian" unicode="&#59581;" d="M72 832a8 8 0 0 1-8-8v-48a8 8 0 0 1 8-8h48a8 8 0 0 1 8 8V824a8 8 0 0 1-8 8H72zM64-8a8 8 0 0 0 8 8h48a8 8 0 0 0 8-8v-48a8 8 0 0 0-8-8H72a8 8 0 0 0-8 8v48zM904-64a8 8 0 0 0-8 8v48a8 8 0 0 0 8 8h48a8 8 0 0 0 8-8v-48a8 8 0 0 0-8-8h-48zM960 776a8 8 0 0 0-8-8h-48a8 8 0 0 0-8 8V824a8 8 0 0 0 8 8h48a8 8 0 0 0 8-8v-48zM187.2 824a8 8 0 0 0 8 8h96a8 8 0 0 0 8-8v-48a8 8 0 0 0-8-8h-96a8 8 0 0 0-8 8V824zM366.4 824a8 8 0 0 0 8 8h96a8 8 0 0 0 8-8v-48a8 8 0 0 0-8-8h-96a8 8 0 0 0-8 8V824zM545.6 824a8 8 0 0 0 8 8h96a8 8 0 0 0 8-8v-48a8 8 0 0 0-8-8h-96a8 8 0 0 0-8 8V824zM724.8 824a8 8 0 0 0 8 8h96a8 8 0 0 0 8-8v-48a8 8 0 0 0-8-8h-96a8 8 0 0 0-8 8V824zM952 708.8a8 8 0 0 0 8-8v-96a8 8 0 0 0-8-8h-48a8 8 0 0 0-8 8v96a8 8 0 0 0 8 8h48zM952 529.6a8 8 0 0 0 8-8v-96a8 8 0 0 0-8-8h-48a8 8 0 0 0-8 8v96a8 8 0 0 0 8 8h48zM952 350.4a8 8 0 0 0 8-8v-96a8 8 0 0 0-8-8h-48a8 8 0 0 0-8 8v96a8 8 0 0 0 8 8h48zM952 171.2a8 8 0 0 0 8-8v-96a8 8 0 0 0-8-8h-48a8 8 0 0 0-8 8v96a8 8 0 0 0 8 8h48zM836.8-56a8 8 0 0 0-8-8h-96a8 8 0 0 0-8 8v48a8 8 0 0 0 8 8h96a8 8 0 0 0 8-8v-48zM657.6-56a8 8 0 0 0-8-8h-96a8 8 0 0 0-8 8v48a8 8 0 0 0 8 8h96a8 8 0 0 0 8-8v-48zM478.4-56a8 8 0 0 0-8-8h-96a8 8 0 0 0-8 8v48a8 8 0 0 0 8 8h96a8 8 0 0 0 8-8v-48zM299.2-56a8 8 0 0 0-8-8h-96a8 8 0 0 0-8 8v48a8 8 0 0 0 8 8h96a8 8 0 0 0 8-8v-48zM72 59.2a8 8 0 0 0-8 8v96a8 8 0 0 0 8 8h48a8 8 0 0 0 8-8v-96a8 8 0 0 0-8-8H72zM72 238.4a8 8 0 0 0-8 8v96a8 8 0 0 0 8 8h48a8 8 0 0 0 8-8v-96a8 8 0 0 0-8-8H72zM72 417.6a8 8 0 0 0-8 8v96a8 8 0 0 0 8 8h48a8 8 0 0 0 8-8v-96a8 8 0 0 0-8-8H72zM72 596.8a8 8 0 0 0-8 8v96a8 8 0 0 0 8 8h48a8 8 0 0 0 8-8v-96a8 8 0 0 0-8-8H72zM221.528 103.476c40.84-40.936 114.752-31.276 200.364 15.324a280.268 280.268 0 0 1 227.812-6.584 280.768 280.768 0 0 1 96.284 65.708 281.572 281.572 0 0 1 61.412 99.208h-149.136c-19.5-37.088-64.332-62.452-111.132-62.452-66.3 0-120.9 54.636-122.836 117.088v5.848h368.036c1.476 0.004 2.952 0.036 4.432 0.092h25.084c1.436 11.48 2.152 23.144 2.152 35.028a280.728 280.728 0 0 1-32.044 130.688c0.104 0.24 0.204 0.492 0.304 0.736 0.172 0.424 0.344 0.852 0.54 1.268 29.236 70.268 31.2 128.812-3.9 163.932-38.004 38.028-127.828 27.896-224.392-15.948a280.452 280.452 0 0 1-188.424-54.456 281.64 281.64 0 0 1-106.976-164.736c11.668 13.916 65.112 75.992 125.952 110.236 1.576 0 12.2 6.48 16.104 8.896-6.336-4.948-30.376-29.02-35.6-34.26a725.492 725.492 0 0 1-113.072-153.768c-60.56-110.144-82.9-219.944-40.964-261.848z m57.5 173.656a282.244 282.244 0 0 1 123.928-148.296l-0.096-0.06c-62.4-33.152-113.1-39.028-138.464-13.636-30.92 30.96-21.592 90.628 14.632 161.992zM783.04 521.032c-0.16-0.352-0.316-0.708-0.468-1.064a281.976 281.976 0 0 1-136.72 114.836c61.836 28.708 113.972 32.4 141.088 5.252 21.464-25.392 19.5-68.3-3.9-119.024z m-113.072-107.36v-1.94h-243.704v1.94c3.9 60.512 60.404 113.208 126.704 113.208 62.4 0 113.1-48.784 117-113.208z"  horiz-adv-x="1024" />
      
      <glyph glyph-name="a-typegonggongshujustatenormal" unicode="&#59215;" d="M112 600a8 8 0 0 0 8 8h264v-268H120a8 8 0 0 0-8 8V600zM112 244a8 8 0 0 0 8 8h264v-268H120a8 8 0 0 0-8 8v252zM912 600a8 8 0 0 1-8 8H384v-268h520a8 8 0 0 1 8 8V600zM912 244a8 8 0 0 1-8 8H384v-268h520a8 8 0 0 1 8 8v252zM112 776a8 8 0 0 0 8 8h784a8 8 0 0 0 8-8v-72a8 8 0 0 0-8-8H120a8 8 0 0 0-8 8V776zM468 512a8 8 0 0 0 8 8h340a8 8 0 0 0 8-8v-76a8 8 0 0 0-8-8h-340a8 8 0 0 0-8 8V512zM468 156a8 8 0 0 0 8 8h340a8 8 0 0 0 8-8v-76a8 8 0 0 0-8-8h-340a8 8 0 0 0-8 8v76z"  horiz-adv-x="1024" />
      
      <glyph glyph-name="a-typewodefenxistatenormal" unicode="&#59579;" d="M795.66 628.5l-273.364-182.244-275.796 91.932 26.984 80.956 236.204-78.736 238.636 159.092 47.336-71zM112 412a8 8 0 0 0 8 8h152a8 8 0 0 0 8-8v-288a8 8 0 0 0-8-8H120a8 8 0 0 0-8 8v288zM744 496a8 8 0 0 0 8 8h152a8 8 0 0 0 8-8v-372a8 8 0 0 0-8-8h-152a8 8 0 0 0-8 8v372zM112 60a8 8 0 0 0 8 8h784a8 8 0 0 0 8-8v-68a8 8 0 0 0-8-8H120a8 8 0 0 0-8 8v68zM428 324a8 8 0 0 0 8 8h152a8 8 0 0 0 8-8v-200a8 8 0 0 0-8-8h-152a8 8 0 0 0-8 8v200zM280 592c0-46.392-37.608-84-84-84s-84 37.608-84 84 37.608 84 84 84 84-37.608 84-84zM594.668 504c0-46.392-37.612-84-84-84-46.392 0-84 37.608-84 84s37.608 84 84 84c46.388 0 84-37.608 84-84zM912 700c0-46.392-37.608-84-84-84s-84 37.608-84 84 37.608 84 84 84 84-37.608 84-84z"  horiz-adv-x="1024" />
      
      <glyph glyph-name="a-jiahaooff" unicode="&#59576;" d="M112 768a16 16 0 0 0 16 16h768a16 16 0 0 0 16-16v-768a16 16 0 0 0-16-16H128a16 16 0 0 0-16 16V768z m64-56v-656a8 8 0 0 1 8-8h656a8 8 0 0 1 8 8V712a8 8 0 0 1-8 8H184a8 8 0 0 1-8-8z m120-288a8 8 0 0 1-8-8v-64a8 8 0 0 1 8-8h432a8 8 0 0 1 8 8v64a8 8 0 0 1-8 8H296z"  horiz-adv-x="1024" />
      
      <glyph glyph-name="a-jiahaoon" unicode="&#59577;" d="M112 768a16 16 0 0 0 16 16h768a16 16 0 0 0 16-16v-768a16 16 0 0 0-16-16H128a16 16 0 0 0-16 16V768z m64-56v-656a8 8 0 0 1 8-8h656a8 8 0 0 1 8 8V712a8 8 0 0 1-8 8H184a8 8 0 0 1-8-8z m296-112a8 8 0 0 0 8 8h64a8 8 0 0 0 8-8v-176h176a8 8 0 0 0 8-8v-64a8 8 0 0 0-8-8h-176v-176a8 8 0 0 0-8-8h-64a8 8 0 0 0-8 8v176H296a8 8 0 0 0-8 8v64a8 8 0 0 0 8 8h176V600z"  horiz-adv-x="1024" />
      
      <glyph glyph-name="a-statepressed-1" unicode="&#58998;" d="M960 384c0 247.424-200.576 448-448 448S64 631.424 64 384s200.576-448 448-448 448 200.576 448 448z m-824 0c0 207.66 168.34 376 376 376s376-168.34 376-376-168.34-376-376-376-376 168.34-376 376zM269.368 96.752a378.468 378.468 0 0 0-45.2 45.308L753.94 671.836a378.176 378.176 0 0 0 45.308-45.2L269.368 96.748z"  horiz-adv-x="1024" />
      
      <glyph glyph-name="a-statelishiyanse-1" unicode="&#59575;" d="M118.88 25.464a8 8 0 0 0 0 11.312L858.232 776.124a8 8 0 0 0 11.312 0l33.94-33.944a7.992 7.992 0 0 0 0-11.312L164.136-8.476a8 8 0 0 0-11.312 0l-33.94 33.94z"  horiz-adv-x="1024" />
      
      <glyph glyph-name="huifuquanxianjicheng" unicode="&#59145;" d="M856 784a16 16 0 0 0 16-16v-768a16 16 0 0 0-16-16h-264v64h216V720H216v-336H152V768a16 16 0 0 0 16 16h688zM744 620a8 8 0 0 0 8-8v-56a8 8 0 0 0-8-8H280a8 8 0 0 0-8 8V612a8 8 0 0 0 8 8h464zM280.36 421.38a8 8 0 0 0 0.084 11.312l34.188 33.692a8 8 0 0 0 11.312-0.08l169.452-171.944a8 8 0 0 0 0-11.228l-175.064-177.64-39.888 39.308a8 8 0 0 0-0.08 11.316l97.2 98.628H280c-57.44 0-104-46.56-104-104 0-57.436 46.56-104 104-104h224a8 8 0 0 0 8-8v-48a8 8 0 0 0-8-8H280c-92.784 0-168 75.216-168 168s75.216 168 168 168h101.508L280.36 421.38zM752 448a8 8 0 0 1-8 8h-192a8 8 0 0 1-8-8v-56a8 8 0 0 1 8-8h192a8 8 0 0 1 8 8v56zM744 292a8 8 0 0 0 8-8v-56a8 8 0 0 0-8-8h-192a8 8 0 0 0-8 8v56a8 8 0 0 0 8 8h192z"  horiz-adv-x="1024" />
      
      <glyph glyph-name="qingyingyong" unicode="&#59573;" d="M508.108 830.46a8 8 0 0 0 7.784 0l392-218.368A8 8 0 0 0 912 605.104v-438.208a8 8 0 0 0-4.108-6.988l-392-218.368a8 8 0 0 0-7.784 0l-392 218.368A8 8 0 0 0 112 166.896V605.104a8 8 0 0 0 4.108 6.988l392 218.368zM176 199.804l308-171.576v330.816L176 532.516v-332.712z m372-167.12l300 167.12V532.516l-300-168.968v-330.864z m-36 726.688L206.144 588.984 512 416.724l305.856 172.264L512 759.372z"  horiz-adv-x="1024" />
      
      <glyph glyph-name="shuzhuang" unicode="&#59574;" d="M576 528a16 16 0 0 1 16-16h304a16 16 0 0 1 16 16V768a16 16 0 0 1-16 16h-304a16 16 0 0 1-16-16v-100H284a16 16 0 0 1-16-16v-132H128a16 16 0 0 1-16-16v-240a16 16 0 0 1 16-16h140v-132a16 16 0 0 1 16-16h292v-100a16 16 0 0 1 16-16h304a16 16 0 0 1 16 16v240a16 16 0 0 1-16 16h-304a16 16 0 0 1-16-16v-76H332v84h140a16 16 0 0 1 16 16V504a16 16 0 0 1-16 16H332V604h244v-76z m264 56h-192V712h192v-128z m-424-264H184v128h232v-128z m232-264v128h192v-128h-192z"  horiz-adv-x="1024" />
      
      <glyph glyph-name="panding" unicode="&#59572;" d="M384 648c0 75.112-60.888 136-136 136S112 723.112 112 648c0-64.088 44.332-117.824 104-132.212v-263.576C156.332 237.824 112 184.088 112 120c0-75.112 60.888-136 136-136s136 60.888 136 136c0 61.756-41.164 113.9-97.552 130.488 3.156 12.296 7.312 22.5 12.112 31.008 10.696 18.964 25.828 31.728 45.304 40.676 41.8 19.212 99.832 19.828 168.136 19.828h4.28c62.708-0.016 134.656-0.028 190.584 25.672 30.024 13.8 56.14 35.16 74.32 67.388 12.684 22.488 20.852 49.104 24.54 80.2C866.54 528.812 912 583.096 912 648c0 75.112-60.888 136-136 136s-136-60.888-136-136c0-63.128 43.012-116.212 101.328-131.54-3.132-21.18-8.808-37.408-15.888-49.956-10.696-18.964-25.828-31.728-45.304-40.676-41.796-19.212-99.832-19.828-168.136-19.828h-4.28c-62.708 0.016-134.656 0.028-190.584-25.672-13.256-6.096-25.748-13.66-37.136-22.984v158.44C339.672 530.176 384 583.912 384 648z m-200 0c0 35.348 28.652 64 64 64s64-28.652 64-64-28.652-64-64-64-64 28.652-64 64z m0-528c0 35.348 28.652 64 64 64s64-28.652 64-64-28.652-64-64-64-64 28.652-64 64zM776 712c35.348 0 64-28.652 64-64s-28.652-64-64-64-64 28.652-64 64 28.652 64 64 64z"  horiz-adv-x="1024" />
      
      <glyph glyph-name="canshuyulan" unicode="&#59570;" d="M848 768a16 16 0 0 1-16 16H395.6a16 16 0 0 1-10.856-4.248l-267.6-247.248A16 16 0 0 1 112 520.752V0a16 16 0 0 1 16-16h336v72H184V456h278.664V712H776v-232h72V768zM390.664 687.192V528H218.368l172.296 159.192zM866.672 78.24a232.004 232.004 0 1 1-51.224-50.596l86.252-86.252a8 8 0 0 1 11.312 0l39.6 39.596a8 8 0 0 1 0 11.316l-85.94 85.936z m-305.464 18.968a167.988 167.988 0 0 0 0 237.584 167.988 167.988 0 0 0 237.584 0 167.988 167.988 0 0 0 0-237.584 167.988 167.988 0 0 0-237.584 0z"  horiz-adv-x="1024" />
      
      <glyph glyph-name="feishuguanli" unicode="&#59571;" d="M460.828 71.812a39.988 39.988 0 0 0-11.716 28.624l1.548 182.172c0.188 22.356-17.984 40.528-40.34 40.336l-182.172-1.544a39.996 39.996 0 0 0-28.624 11.712l-139.2 139.204c-21.304 21.304-12.3 57.62 16.488 66.504L857.456 779.76c30.712 9.48 59.496-19.304 50.016-50.016l-240.94-780.644c-8.884-28.788-45.2-37.792-66.504-16.488l-139.2 139.2z m14.788 315.692l41.104 41.1c-22.352 39.644-16.652 90.828 17.104 124.584 33.752 33.756 84.94 39.456 124.584 17.104l117.24 117.24-641.912-198.12 103.932-103.928 237.948 2.02z m39.6-39.6l-2.02-237.952 103.928-103.928 198.12 641.908-117.24-117.24c22.352-39.64 16.652-90.828-17.104-124.584-33.752-33.752-84.94-39.456-124.584-17.1l-41.1-41.104z m126.088 97.804c-18.748-18.744-49.14-18.744-67.884 0s-18.744 49.136 0 67.88c18.744 18.748 49.136 18.748 67.884 0 18.744-18.744 18.744-49.136 0-67.88z"  horiz-adv-x="1024" />
      
      <glyph glyph-name="yindao" unicode="&#59143;" d="M460 824a8 8 0 0 0 8 8h88a8 8 0 0 0 8-8v-88h201.256a8 8 0 0 0 4.912-1.684l133.712-104a8 8 0 0 0 0-12.632l-133.712-104a8 8 0 0 0-4.912-1.684H564v-128h292a8 8 0 0 0 8-8v-208a8 8 0 0 0-8-8h-292v-216a8 8 0 0 0-8-8h-88a8 8 0 0 0-8 8v216H258.744a8 8 0 0 0-4.912 1.684l-133.712 104a8 8 0 0 0 0 12.632l133.712 104a8 8 0 0 0 4.912 1.684H460V512H168a8 8 0 0 0-8 8V728a8 8 0 0 0 8 8h292V824z"  horiz-adv-x="1024" />
      
      <glyph glyph-name="danyonghuxianzhi" unicode="&#59224;" d="M459.916 384c110.456 0 200 89.544 200 200s-89.544 200-200 200-200-89.544-200-200 89.544-200 200-200zM119.916-16A7.888 7.888 0 0 0 112-7.976c4.108 189.38 153.22 343.576 339.888 347.884a7.832 7.832 0 0 0 8.028-7.844v-340.036a8.024 8.024 0 0 0-8-8.028h-332zM512 244a8 8 0 0 0 8 8h56v38c0 76.216 61.784 138 138 138 76.216 0 138-61.784 138-138v-38h52a8 8 0 0 0 8-8v-252a8 8 0 0 0-8-8h-384a8 8 0 0 0-8 8v252z m56-48v-156h288v156h-288z m228 56v38c0 45.288-36.712 82-82 82s-82-36.712-82-82v-38h164z"  horiz-adv-x="1024" />
      
      <glyph glyph-name="a-kejianoff" unicode="&#59568;" d="M442.896 236.98l-27.052-101.24a8.004 8.004 0 0 0-9.808-5.66l-55.912 15.044a8 8 0 0 0-5.652 9.792l27.028 101.228a405.74 405.74 0 0 0-119.624 69.388l-73.9-74.156a8 8 0 0 0-11.332-0.004l-40.992 41.12a8 8 0 0 0 0 11.296l73.968 74.16a406.656 406.656 0 0 0-86.124 180.1 7.88 7.88 0 0 0 6.348 9.28l22.052 4.052a8.06 8.06 0 0 0 6.144-1.38A624.096 624.096 0 0 1 512 453.528c135.66 0 261.264 43.144 363.972 116.48a8.044 8.044 0 0 0 6.124 1.376l22.052-4.028a7.88 7.88 0 0 0 6.36-9.28 406.684 406.684 0 0 0-86.092-180.128l73.936-74.16a8 8 0 0 0 0-11.296l-40.996-41.12a8 8 0 0 0-11.332 0.004l-73.896 74.156a405.804 405.804 0 0 0-119.624-69.388l27.024-101.264a8 8 0 0 0-5.656-9.788l-55.908-15.016a8 8 0 0 0-9.804 5.66l-27.052 101.244a407.8 407.8 0 0 0-138.212 0z"  horiz-adv-x="1024" />
      
      <glyph glyph-name="a-kejianon" unicode="&#59569;" d="M392 384c0 66.276 53.724 120 120 120 66.276 0 120-53.724 120-120 0-66.276-53.724-120-120-120-66.276 0-120 53.724-120 120zM960.512 384l-8.12 17.152-0.02 0.04-0.044 0.1-0.132 0.268-0.148 0.304-0.088 0.184a330.524 330.524 0 0 1-6.448 12.292 484.84 484.84 0 0 1-19.188 31.636 573.448 573.448 0 0 1-78.096 94.664C777.412 609.68 666.916 680 512.256 680c-154.66 0-265.156-70.32-335.972-139.36a573.212 573.212 0 0 1-78.092-94.664 483.944 483.944 0 0 1-19.188-31.636c-2.16-3.904-3.8-7.04-4.948-9.284-0.572-1.124-1.02-2.024-1.344-2.684l-0.4-0.812-0.124-0.268-0.048-0.1-0.02-0.04L64 384l8.12-17.152 0.02-0.04 0.048-0.1 0.128-0.268 0.396-0.812c0.324-0.66 0.772-1.56 1.344-2.684 1.148-2.244 2.792-5.38 4.948-9.284a483.944 483.944 0 0 1 19.188-31.636A573.208 573.208 0 0 1 176.28 227.36C247.1 158.32 357.6 88 512.256 88c154.66 0 265.156 70.32 335.972 139.36a573.444 573.444 0 0 1 78.096 94.664 484.84 484.84 0 0 1 19.188 31.636c2.152 3.904 3.8 7.04 4.944 9.284 0.572 1.124 1.02 2.024 1.348 2.684l0.212 0.44 0.18 0.372 0.132 0.268 0.044 0.1 0.02 0.04 8.12 17.152zM316 384c0 108.248 87.752 196 196 196s196-87.752 196-196-87.752-196-196-196-196 87.752-196 196z"  horiz-adv-x="1024" />
      
      <glyph glyph-name="a-hengxiangoff" unicode="&#59458;" d="M120 552a8 8 0 0 1-8-8v-80a8 8 0 0 1 8-8h80a8 8 0 0 1 8 8V544a8 8 0 0 1-8 8H120zM120 312a8 8 0 0 1-8-8v-80a8 8 0 0 1 8-8h80a8 8 0 0 1 8 8v80a8 8 0 0 1-8 8H120zM464 544a8 8 0 0 0 8 8h80a8 8 0 0 0 8-8v-80a8 8 0 0 0-8-8h-80a8 8 0 0 0-8 8V544zM824 552a8 8 0 0 1-8-8v-80a8 8 0 0 1 8-8h80a8 8 0 0 1 8 8V544a8 8 0 0 1-8 8h-80zM464 304a8 8 0 0 0 8 8h80a8 8 0 0 0 8-8v-80a8 8 0 0 0-8-8h-80a8 8 0 0 0-8 8v80zM824 312a8 8 0 0 1-8-8v-80a8 8 0 0 1 8-8h80a8 8 0 0 1 8 8v80a8 8 0 0 1-8 8h-80z"  horiz-adv-x="1024" />
      
      <glyph glyph-name="a-shouyeweiyeshouye" unicode="&#59566;" d="M901.092 713.368a8 8 0 0 1 2.012 11.132l-36.472 52.588a8 8 0 0 1-11.132 2.016L304.768 397.148c-9.176-6.364-9.176-19.932 0-26.296l550.732-381.96a8 8 0 0 1 11.132 2.016l36.472 52.588a8 8 0 0 1-2.012 11.136l-465.424 322.792a8 8 0 0 0 0 13.148l465.424 322.796zM192 728a8 8 0 0 1-8 8H120a8 8 0 0 1-8-8v-688a8 8 0 0 1 8-8h64a8 8 0 0 1 8 8V728z"  horiz-adv-x="1024" />
      
      <glyph glyph-name="a-shouyeweiyeweiye" unicode="&#59567;" d="M122.908 713.368a8 8 0 0 0-2.012 11.132l36.472 52.588a8 8 0 0 0 11.132 2.016l550.732-381.956c9.172-6.364 9.172-19.932 0-26.296l-550.732-381.96a8 8 0 0 0-11.132 2.016l-36.472 52.588a8 8 0 0 0 2.012 11.136l465.424 322.792a8 8 0 0 1 0 13.148L122.908 713.368zM832 728a8 8 0 0 0 8 8h64a8 8 0 0 0 8-8v-688a8 8 0 0 0-8-8h-64a8 8 0 0 0-8 8V728z"  horiz-adv-x="1024" />
      
      <glyph glyph-name="a-paixudaoxu" unicode="&#59564;" d="M788.208-12.504a8 8 0 0 1 12.916 0l154.904 211.78c3.864 5.288 0.092 12.724-6.456 12.724h-112.24V728a8 8 0 0 1-8 8H760a8 8 0 0 1-8-8v-516h-112.236c-6.548 0-10.324-7.436-6.46-12.724l154.904-211.78zM573.332 650.668a8 8 0 0 1 8 8V728a8 8 0 0 1-8 8H120a8 8 0 0 1-8-8v-69.332a8 8 0 0 1 8-8h453.332z m0-310.668a8 8 0 0 1 8 8v69.332a8 8 0 0 1-8 8H120a8 8 0 0 1-8-8V348a8 8 0 0 1 8-8h453.332zM488 29.332a8 8 0 0 1 8 8v69.336a8 8 0 0 1-8 8H120a8 8 0 0 1-8-8v-69.336a8 8 0 0 1 8-8h368z"  horiz-adv-x="1024" />
      
      <glyph glyph-name="a-paixushunxu" unicode="&#59565;" d="M788.208 779.172a8 8 0 0 0 12.916 0l154.904-211.784c3.864-5.28 0.092-12.72-6.456-12.72h-112.24v-516a8 8 0 0 0-8-8H760a8 8 0 0 0-8 8v516h-112.236c-6.548 0-10.324 7.44-6.46 12.72l154.904 211.784zM573.332 116a8 8 0 0 0 8-8v-69.332a8 8 0 0 0-8-8H120a8 8 0 0 0-8 8V108a8 8 0 0 0 8 8h453.332z m0 310.668a8 8 0 0 0 8-8v-69.336a8 8 0 0 0-8-8H120a8 8 0 0 0-8 8v69.336a8 8 0 0 0 8 8h453.332zM488 737.332a8 8 0 0 0 8-8V660a8 8 0 0 0-8-8H120a8 8 0 0 0-8 8V729.332a8 8 0 0 0 8 8h368z"  horiz-adv-x="1024" />
      
      <glyph glyph-name="a-fangxiangxiangyou-1" unicode="&#59560;" d="M530.192 13.944a8 8 0 0 1 11.316 0l295.492 295.492 0.076 0.08 45.256 45.252a7.988 7.988 0 0 1 0 11.316l-45.256 45.256-0.06 0.06-295.508 295.508a8 8 0 0 1-11.316 0l-45.252-45.256a8 8 0 0 1 0-11.312l289.912-289.912-289.912-289.916a8 8 0 0 1 0-11.312l45.252-45.256zM142.508 650.34a8 8 0 0 0 0 11.312L187.76 706.908a8 8 0 0 0 11.316 0l295.508-295.508 0.064-0.06 45.252-45.256a7.948 7.948 0 0 0 2.344-5.74 7.984 7.984 0 0 0-2.344-5.576l-45.252-45.252-0.08-0.08-295.492-295.492a8 8 0 0 0-11.316 0L142.508 59.2a8 8 0 0 0 0 11.312l289.912 289.916-289.912 289.912z"  horiz-adv-x="1028" />
      
      <glyph glyph-name="a-fangxiangxiangshang-1" unicode="&#59561;" d="M858.784 378.2a8 8 0 0 1 0 11.316l-295.492 295.492-0.076 0.08-45.256 45.252a7.996 7.996 0 0 1-11.312 0l-45.256-45.256-0.06-0.06-295.508-295.508a8 8 0 0 1 0-11.316l45.252-45.252a8 8 0 0 1 11.316 0l289.912 289.912 289.912-289.912a8 8 0 0 1 11.316 0l45.252 45.252zM222.392-9.484a8 8 0 0 0-11.316 0l-45.252 45.252a8 8 0 0 0 0 11.316l295.508 295.508 0.06 0.06 45.256 45.256c0.78 0.78 1.684 1.368 2.644 1.76a8.032 8.032 0 0 0 8.668-1.76l45.256-45.252 0.076-0.08 295.492-295.492a8 8 0 0 0 0-11.316l-45.252-45.252a8 8 0 0 0-11.316 0l-289.912 289.912-289.912-289.912z"  horiz-adv-x="1028" />
      
      <glyph glyph-name="a-fangxiangxiangzuo-1" unicode="&#59562;" d="M495.212 706.908a8 8 0 0 1-11.312 0l-295.492-295.492-0.08-0.08-45.256-45.252a8 8 0 0 1 0-11.316l45.256-45.256 0.06-0.06 295.512-295.508a8 8 0 0 1 11.312 0l45.256 45.252a8 8 0 0 1 0 11.316l-289.912 289.912 289.912 289.916a8 8 0 0 1 0 11.312l-45.256 45.256z m387.688-636.396a8 8 0 0 0 0-11.316l-45.256-45.252a8 8 0 0 0-11.312 0l-295.512 295.508-0.06 0.06-45.256 45.256a7.996 7.996 0 0 0 0 11.316l45.256 45.252 0.08 0.08 295.492 295.492a8 8 0 0 0 11.312 0l45.256-45.256a8 8 0 0 0 0-11.312l-289.916-289.916 289.916-289.912z"  horiz-adv-x="1028" />
      
      <glyph glyph-name="a-fangxiangxiangxia-1" unicode="&#59563;" d="M165.936 342.656a8 8 0 0 1 0-11.316l295.492-295.492 0.076-0.08 45.256-45.252a7.984 7.984 0 0 1 11.316 0l45.252 45.256 0.06 0.06 295.512 295.508a8 8 0 0 1 0 11.316l-45.256 45.252a8 8 0 0 1-11.312 0l-289.916-289.912-289.912 289.912a8 8 0 0 1-11.312 0l-45.256-45.252z m636.396 387.684a8 8 0 0 0 11.312 0l45.256-45.256a8 8 0 0 0 0-11.312l-295.512-295.508-0.06-0.064-45.252-45.252a7.988 7.988 0 0 0-11.316 0l-45.256 45.252-0.076 0.08-295.492 295.492a8 8 0 0 0 0 11.316l45.252 45.252a8 8 0 0 0 11.316 0l289.912-289.912 289.916 289.912z"  horiz-adv-x="1028" />
      
      <glyph glyph-name="a-qiehuanfangxiangshu" unicode="&#59362;" d="M474.912 594.344a8 8 0 0 1 0 11.312L301.656 778.912a8 8 0 0 1-11.312 0L117.088 605.656a8 8 0 0 1 0-11.312l45.256-45.256a8 8 0 0 1 11.312 0l83.68 83.676V-8a8 8 0 0 1 8-8h64a8 8 0 0 1 8 8V630.1l81.008-81.012a8 8 0 0 1 11.312 0l45.256 45.256zM766.668 135.236l83.676 83.676a8 8 0 0 0 11.312 0l45.256-45.256a8 8 0 0 0 0-11.312l-173.256-173.256a8 8 0 0 0-11.312 0l-173.256 173.256a8 8 0 0 0 0 11.312l45.256 45.256a8 8 0 0 0 11.312 0l81.012-81.012V776a8 8 0 0 0 8 8h64a8 8 0 0 0 8-8v-640.764z"  horiz-adv-x="1024" />
      
      <glyph glyph-name="a-qiehuanfangxiangheng" unicode="&#59405;" d="M722.344 421.088a8 8 0 0 1 11.312 0l173.256 173.256a8 8 0 0 1 0 11.312l-173.256 173.256a8 8 0 0 1-11.312 0l-45.256-45.256a8 8 0 0 1 0-11.312l83.676-83.68H120a8 8 0 0 1-8-8v-64a8 8 0 0 1 8-8h638.1l-81.012-81.008a8 8 0 0 1 0-11.312l45.256-45.256zM263.236 129.332l83.676-83.676a8 8 0 0 0 0-11.312l-45.256-45.256a8 8 0 0 0-11.312 0l-173.256 173.256a8 8 0 0 0 0 11.312l173.256 173.256a8 8 0 0 0 11.312 0l45.256-45.256a8 8 0 0 0 0-11.312l-81.012-81.012H904a8 8 0 0 0 8-8v-64a8 8 0 0 0-8-8H263.236z"  horiz-adv-x="1024" />
      
      <glyph glyph-name="a-leixingshujukubiaoshishioff" unicode="&#59557;" d="M380 112c66.276 0 120 53.724 120 120V544c0 66.276-53.724 120-120 120H128a16 16 0 0 1-16-16v-520a16 16 0 0 1 16-16h252z m-24 80H192V584h164c35.348 0 64-28.652 64-64v-264c0-35.348-28.652-64-64-64zM881.444 388A119.56 119.56 0 0 1 912 468V544c0 66.276-53.724 120-120 120h-220a16 16 0 0 1-16-16v-520a16 16 0 0 1 16-16h220c66.276 0 120 53.724 120 120v76a119.56 119.56 0 0 1-30.556 80zM636 348h156c22.092 0 40-17.908 40-40v-76c0-22.092-17.908-40-40-40h-156v156z m0 80V584h156c22.092 0 40-17.908 40-40v-76c0-22.092-17.908-40-40-40h-156z"  horiz-adv-x="1024" />
      
      <glyph glyph-name="a-leixingshujukubiaoshishion" unicode="&#59558;" d="M380 160c66.276 0 120 53.724 120 120V592c0 66.276-53.724 120-120 120H128a16 16 0 0 1-16-16v-520a16 16 0 0 1 16-16h252z m-24 80H192V632h164c35.348 0 64-28.652 64-64v-264c0-35.348-28.652-64-64-64zM881.444 436A119.56 119.56 0 0 1 912 516V592c0 66.276-53.724 120-120 120h-220a16 16 0 0 1-16-16v-520a16 16 0 0 1 16-16h220c66.276 0 120 53.724 120 120v76a119.56 119.56 0 0 1-30.556 80zM636 396h156c22.092 0 40-17.908 40-40v-76c0-22.092-17.908-40-40-40h-156v156z m0 80V632h156c22.092 0 40-17.908 40-40v-76c0-22.092-17.908-40-40-40h-156zM124-16a8 8 0 0 0-8 8v64a8 8 0 0 0 8 8h808a8 8 0 0 0 8-8v-64a8 8 0 0 0-8-8H124z"  horiz-adv-x="1024" />
      
      <glyph glyph-name="a-leixingzizhushujujishishioff" unicode="&#59552;" d="M760-8a8 8 0 0 1 8-8h64a8 8 0 0 1 8 8V464a8 8 0 0 1-8 8h-64a8 8 0 0 1-8-8v-472zM456 384a8 8 0 0 1-8 8H384a8 8 0 0 1-8-8v-392a8 8 0 0 1 8-8h64a8 8 0 0 1 8 8v392zM576-16a8 8 0 0 0-8 8v312a8 8 0 0 0 8 8h64a8 8 0 0 0 8-8v-312a8 8 0 0 0-8-8h-64zM184-8a8 8 0 0 1 8-8h64a8 8 0 0 1 8 8v232a8 8 0 0 1-8 8H192a8 8 0 0 1-8-8v-232zM912.608 775.92a8 8 0 0 1-8.08 8.08l-220.192-2.18c-7.088-0.068-10.588-8.64-5.576-13.656l75.944-75.944-176.896-176.896-154.896 144.192a8 8 0 0 1-11.316 0L366.344 614.264c-0.888-0.888-1.524-1.936-1.908-3.048l-246.092-238.092a8 8 0 0 1 0-11.316L163.6 316.556a8 8 0 0 1 11.312 0l242.912 234.912L572 407.992c1.592-1.588 3.684-2.372 5.768-2.34a7.96 7.96 0 0 1 5.848 2.34l227.656 227.66 85.5-85.5c5.012-5.012 13.588-1.512 13.656 5.576l2.18 220.192z"  horiz-adv-x="1024" />
      
      <glyph glyph-name="a-leixingzizhushujujishishion" unicode="&#59554;" d="M912-8a8 8 0 0 0-8-8H120a8 8 0 0 0-8 8v64a8 8 0 0 0 8 8h784a8 8 0 0 0 8-8v-64zM760 168a8 8 0 0 1 8-8h64a8 8 0 0 1 8 8v296a8 8 0 0 1-8 8h-64a8 8 0 0 1-8-8v-296zM456 384a8 8 0 0 1-8 8H384a8 8 0 0 1-8-8v-216a8 8 0 0 1 8-8h64a8 8 0 0 1 8 8v216zM576 160a8 8 0 0 0-8 8v136a8 8 0 0 0 8 8h64a8 8 0 0 0 8-8v-136a8 8 0 0 0-8-8h-64zM184 168a8 8 0 0 1 8-8h64a8 8 0 0 1 8 8v56a8 8 0 0 1-8 8H192a8 8 0 0 1-8-8v-56zM912.608 775.92a8 8 0 0 1-8.08 8.08l-220.192-2.18c-7.088-0.068-10.588-8.64-5.576-13.656l75.944-75.944-176.896-176.896-154.896 144.192a8 8 0 0 1-11.316 0L366.344 614.264c-0.888-0.888-1.524-1.936-1.908-3.048l-246.092-238.092a8 8 0 0 1 0-11.316L163.6 316.556a8 8 0 0 1 11.312 0l242.912 234.912L572 407.992c1.592-1.588 3.684-2.372 5.768-2.34a7.96 7.96 0 0 1 5.848 2.34l227.656 227.66 85.5-85.5c5.012-5.012 13.588-1.512 13.656 5.576l2.18 220.192z"  horiz-adv-x="1024" />
      
      <glyph glyph-name="a-leixingETLshujujishishioff" unicode="&#59060;" d="M112 608a32 32 0 0 0 32 32h189.536v-80H192v-136h141.536v-80H192v-136h141.536v-80H144a32 32 0 0 0-32 32V608zM372 560V640h296v-80h-108v-432h-80V560H372zM716 640h80v-432h108v-80h-156a32 32 0 0 0-32 32V640z"  horiz-adv-x="1024" />
      
      <glyph glyph-name="a-leixingETLshujujishishion" unicode="&#59553;" d="M112 640a32 32 0 0 0 32 32h189.536v-80H192v-136h141.536v-80H192v-136h141.536v-80H144a32 32 0 0 0-32 32V640zM372 592V672h296v-80h-108v-432h-80V592H372zM716 672h80v-432h108v-80h-156a32 32 0 0 0-32 32V672zM120-16a8 8 0 0 0-8 8v64a8 8 0 0 0 8 8h784a8 8 0 0 0 8-8v-64a8 8 0 0 0-8-8H120z"  horiz-adv-x="1024" />
      
      <glyph glyph-name="a-leixingexcelshujujishishion" unicode="&#59555;" d="M496 736h80v-576h-80V736zM471.036 632h-96L293.36 481.116 208 632H111.036l134-236-134-236h96l86 151.464L375.032 160H472l-130.724 236.428L471.036 632zM620 616a24 24 0 0 0 24 24h268v-80h-212v-120h180a32 32 0 0 0 32-32v-216a32 32 0 0 0-32-32h-260v80h212v120h-188a24 24 0 0 0-24 24V616zM120-16a8 8 0 0 0-8 8v64a8 8 0 0 0 8 8h784a8 8 0 0 0 8-8v-64a8 8 0 0 0-8-8H120z"  horiz-adv-x="1024" />
      
      <glyph glyph-name="a-leixingexcelshujujishishioff" unicode="&#59556;" d="M580 784h-80v-656h80V784zM380 600h96l-134.724-235.572L476 128H380l-86 151.464L208 128H112l134 236L112 600h96l85.36-150.884L380 600zM640 608a24 24 0 0 1-24-24v-232a24 24 0 0 1 24-24h192v-120h-216v-80h264a32 32 0 0 1 32 32v216a32 32 0 0 1-32 32h-184V528h216V608h-272z"  horiz-adv-x="1024" />
      
      <glyph glyph-name="a-dakaioff1" unicode="&#59550;" d="M266.668 464V575.2C266.668 715.42 374.948 832 512 832s245.336-116.576 245.336-256.8V464H856a8 8 0 0 0 8-8v-464a8 8 0 0 0-8-8H168a8 8 0 0 0-8 8V456a8 8 0 0 0 8 8h98.668z m64 111.2V464h362.668V575.2c0 108.08-82.744 192.8-181.336 192.8-98.588 0-181.332-84.72-181.332-192.8zM548 190.4c39.696 14.648 68 52.816 68 97.6 0 57.436-46.564 104-104 104s-104-46.564-104-104c0-44.784 28.304-82.952 68-97.6V40h72v150.4z"  horiz-adv-x="1024" />
      
      <glyph glyph-name="a-dakaion1" unicode="&#59551;" d="M330.668 575.2C330.668 683.28 413.412 768 512 768c49.156 0 93.976-20.788 126.912-55.108l16.616-17.32a8 8 0 0 1 11.312-0.228l34.632 33.232a8 8 0 0 1 0.236 11.312l-16.62 17.32C640.952 803.2 579.804 832 512 832c-137.052 0-245.332-116.576-245.332-256.8V464H168a8 8 0 0 1-8-8v-464a8 8 0 0 1 8-8h688a8 8 0 0 1 8 8V456a8 8 0 0 1-8 8H330.668V575.2zM548 190.4V40h-72v150.4c-39.696 14.648-68 52.816-68 97.6 0 57.436 46.564 104 104 104s104-46.564 104-104c0-44.784-28.304-82.952-68-97.6z"  horiz-adv-x="1024" />
      
      <glyph glyph-name="jinyongyonghu" unicode="&#59549;" d="M260 348a8 8 0 0 1 8-8h496a8 8 0 0 1 8 8v72a8 8 0 0 1-8 8H268a8 8 0 0 1-8-8v-72zM516 832c247.424 0 448-200.576 448-448s-200.576-448-448-448S68 136.576 68 384 268.576 832 516 832z m0-72c-207.66 0-376-168.34-376-376s168.34-376 376-376 376 168.34 376 376-168.34 376-376 376z"  horiz-adv-x="1024" />
      
      <glyph glyph-name="ziyuanqianyi" unicode="&#59046;" d="M591.356 493.656a8 8 0 0 1-11.316 0l-33.94-33.94a8 8 0 0 1 0-11.312l104.4-104.404H264a8 8 0 0 1-8-8v-48a8 8 0 0 1 8-8h384.416l-102.444-102.444a8 8 0 0 1 0-11.316l33.94-33.94a8 8 0 0 1 11.316 0l140.064 140.064c0.416 0.284 0.812 0.608 1.18 0.976l33.944 33.944a8 8 0 0 1 0 11.312l-175.06 175.06zM438.46 752c4.52 0 8.832-1.916 11.868-5.272l106.296-117.58a15.996 15.996 0 0 1 11.868-5.272h326.46a16 16 0 0 0 16-16V16a16 16 0 0 0-16-16H128a16 16 0 0 0-16 16V736a16 16 0 0 0 16 16h310.46z m-17.312-72.408H176.564v-607.184h669.82V555.656h-308.828l-116.408 123.936z"  horiz-adv-x="1024" />
      
      <glyph glyph-name="a-fabuquxiaofabuon" unicode="&#59547;" d="M71.108 492.984c-8.468 8.468-4.976 22.888 6.424 26.548l813.072 260.96c12.396 3.976 24.104-7.728 20.124-20.128L649.8-52.736c-3.66-11.4-18.084-14.888-26.548-6.424l-241.856 241.856 105.98 176.632-180.272-102.34-235.996 235.996z m100.128-9.616l146.656-146.66 296.704 168.44c14.304 8.12 30.08-8.04 21.62-22.148l-174.232-290.384 151.648-151.648 205.872 648.296-648.268-205.896z"  horiz-adv-x="1024" />
      
      <glyph glyph-name="a-fabuquxiaofabuoff" unicode="&#59548;" d="M316.504 596.232L77.532 519.532c-11.4-3.66-14.888-18.08-6.424-26.548l235.996-235.996 180.272 102.34-105.98-176.632 241.856-241.856c8.464-8.464 22.888-4.976 26.548 6.424l76.688 238.98-50.64 50.644-62.216-195.92-151.648 151.648 96.8 161.336-76.236 76.232-164.656-93.476-146.656 146.66 195.908 62.22-50.64 50.64zM757.652 494.492l61.852 194.772-194.764-61.86-51.292 51.292 317.156 101.792c12.396 3.98 24.104-7.724 20.124-20.12L808.948 443.2l-51.296 51.292zM306.32 730.864a8 8 0 0 0 0 11.312l33.944 33.944a8 8 0 0 0 11.316 0l554.368-554.372a7.996 7.996 0 0 0 0-11.316l-33.94-33.94a8 8 0 0 0-11.312 0L306.324 730.864z"  horiz-adv-x="1024" />
      
      <glyph glyph-name="a-yonghucaozuoyonghubianji" unicode="&#59546;" d="M736 604c0 121.504-98.496 220-220 220S296 725.504 296 604s98.496-220 220-220 220 98.496 220 220z m-72 0c0-81.736-66.26-148-148-148S368 522.264 368 604s66.26 148 148 148 148-66.264 148-148zM499.608 120.596a16 16 0 0 1-4.672-11.3v-135.776a16 16 0 0 1 16-16h135.752a16 16 0 0 1 11.328 4.7l295.252 296.092a16.004 16.004 0 0 1-0.016 22.612l-135.764 135.764a16 16 0 0 1-22.644-0.016l-295.236-296.076z m59.328-31.14l247.284 247.988 67.884-67.884-247.34-248.04h-67.828v67.936zM451.98 243.88c4.42 0.132 8.02 3.7 8.02 8.12v56a7.88 7.88 0 0 1-8.028 7.908c-186.668-4.308-335.78-158.504-339.884-347.884A7.888 7.888 0 0 1 120-40h56c4.42 0 7.988 3.604 8.108 8.02 4.06 151.184 122.516 271.576 267.872 275.86z"  horiz-adv-x="1024" />
      
      <glyph glyph-name="a-yonghucaozuoyonghudaoru" unicode="&#59544;" d="M736 604c0 121.504-98.496 220-220 220S296 725.504 296 604s98.496-220 220-220 220 98.496 220 220z m-72 0c0-81.736-66.26-148-148-148S368 522.264 368 604s66.26 148 148 148 148-66.264 148-148zM717.504 356.3a8 8 0 0 1-11.312 0l-192.336-192.332a8 8 0 0 1 0-11.316l33.944-33.94 0.08-0.08 158.312-158.312a8 8 0 0 1 11.312 0l33.944 33.94a8 8 0 0 1 0 11.316l-120.452 120.448h273.544a8 8 0 0 1 8 8v48a8 8 0 0 1-8 8h-274.116l121.02 121.02a8 8 0 0 1 0 11.316l-33.94 33.94zM451.98 243.88c4.42 0.132 8.02 3.7 8.02 8.12v56a7.88 7.88 0 0 1-8.028 7.908c-186.668-4.308-335.78-158.504-339.884-347.884A7.888 7.888 0 0 1 120-40h56c4.42 0 7.988 3.604 8.108 8.02 4.06 151.184 122.516 271.576 267.872 275.86z"  horiz-adv-x="1024" />
      
      <glyph glyph-name="a-yonghucaozuoyonghutianjia" unicode="&#59545;" d="M516 384c-121.504 0-220 98.496-220 220s98.496 220 220 220 220-98.496 220-220-98.496-220-220-220z m0 72c81.74 0 148 66.264 148 148s-66.26 148-148 148-148-66.264-148-148 66.26-148 148-148zM688 360a8 8 0 0 1-8-8v-160h-160a8 8 0 0 1-8-8v-48a8 8 0 0 1 8-8h160v-160a8 8 0 0 1 8-8h48a8 8 0 0 1 8 8v160h160a8 8 0 0 1 8 8v48a8 8 0 0 1-8 8h-160v160a8 8 0 0 1-8 8h-48zM460 252c0-4.42-3.6-7.988-8.02-8.12-145.36-4.284-263.812-124.676-267.872-275.86-0.12-4.416-3.688-8.02-8.108-8.02H120a7.888 7.888 0 0 0-7.912 8.024c4.104 189.38 153.216 343.576 339.884 347.884A7.88 7.88 0 0 0 460 308v-56z"  horiz-adv-x="1024" />
      
      <glyph glyph-name="H5" unicode="&#59335;" d="M504.86 136.608L335.408 184.76a8 8 0 0 0-5.768 6.864l-11.64 111.544A8 8 0 0 0 325.96 312h58.576a8 8 0 0 0 7.972-7.316l5.2-60.724a8 8 0 0 1 6.068-7.088l101.384-24.86c1.212-0.296 2.472-0.308 3.688-0.032l109.224 24.952a8.008 8.008 0 0 1 6.196 7.164l9.244 116.148a8 8 0 0 1-7.972 8.636H320.676a8 8 0 0 0-7.964 7.244l-23.88 251.12A8 8 0 0 0 296.8 636h428.14a8 8 0 0 0 7.936-8.996l-7.072-56.4a8 8 0 0 0-7.94-7.004H372.432a8 8 0 0 1-7.98-8.532l7.092-106.24a8 8 0 0 1 7.98-7.468h328.376a8 8 0 0 0 7.96-8.78l-23.56-240.848a8.008 8.008 0 0 0-5.864-6.94l-177.288-48.208a8.004 8.004 0 0 0-4.288 0.024zM152.788 775.28A8 8 0 0 0 160.756 784h702.492a8 8 0 0 0 7.968-8.72l-63.636-705.736a8 8 0 0 0-5.872-7l-287.612-77.976a8 8 0 0 0-4.188 0l-287.612 77.976a8 8 0 0 0-5.876 7L152.788 775.28z m132.728-657.748L512 56l226.484 61.532L792 712H232l53.52-594.468z"  horiz-adv-x="1024" />
      
      <glyph glyph-name="dangjichuli" unicode="&#59343;" d="M558.656 616.776l0.268-187.7h124.7c6.66 0 10.404-7.664 6.308-12.916l-210.28-269.84c-4.676-6-14.296-2.7-14.308 4.908l-0.268 187.696H340.376c-6.66 0-10.404 7.664-6.308 12.92l210.28 269.84c4.676 6 14.296 2.696 14.308-4.912zM731.384 771.98c2.856 0 5.496-1.528 6.928-4L957.692 388a8.004 8.004 0 0 0 0-8l-219.38-379.98c-1.432-2.476-4.072-4-6.928-4H292.624a8 8 0 0 0-6.932 4L66.312 380a8 8 0 0 0 0 8l219.38 379.98a8 8 0 0 0 6.928 4h438.764zM696 702.7H328L144 384l184-318.696h368L880 384l-184 318.7z"  horiz-adv-x="1024" />
      
      </font>
</defs>
</svg>
