<?xml version="1.0" standalone="no"?>
<!DOCTYPE svg PUBLIC "-//W3C//DTD SVG 1.1//EN" "http://www.w3.org/Graphics/SVG/1.1/DTD/svg11.dtd" >
<svg xmlns="http://www.w3.org/2000/svg">
  <metadata>Created by iconfont</metadata>
  <defs>
  <font id="iconfont" horiz-adv-x="1024">
    <font-face
      font-family="iconfont"
      font-weight="400"
      font-stretch="normal"
      units-per-em="1024"
      ascent="896"
      descent="-128"
    />
      <missing-glyph />
      
      <glyph glyph-name="a-yibiaobancaozuotianjiayibiaoban-xin" unicode="&#59642;" d="M112 768a16 16 0 0 0 16 16h768a16 16 0 0 0 16-16v-449.252a241.332 241.332 0 0 1-40 36.212V744H152v-720h382.224a241.52 241.52 0 0 1 34.604-40H128a16 16 0 0 0-16 16V768zM660 744h-44v-373.844a238.428 238.428 0 0 0 44 18.856V480h212V520h-212V744zM505.656 240a239 239 0 0 0 18.452 40H152v-40h208v-216h44v216h101.656zM704 336a8 8 0 0 1-8-8v-128h-128a8 8 0 0 1-8-8v-56a8 8 0 0 1 8-8h128v-136a8 8 0 0 1 8-8h56a8 8 0 0 1 8 8v136h136a8 8 0 0 1 8 8v56a8 8 0 0 1-8 8h-136v128a8 8 0 0 1-8 8h-56z"  horiz-adv-x="1024" />
      
      <glyph glyph-name="shuju" unicode="&#59637;" d="M883.976 607.408C881.628 705.128 715.988 784 512 784S142.372 705.128 140.024 607.408H140V164.8c0-32.648 15.64-60.512 37.232-82.34 21.44-21.672 50.588-39.452 83.612-53.572C327.032 0.588 415.856-16 512-16s184.968 16.588 251.156 44.884c33.024 14.12 62.168 31.9 83.612 53.572 21.596 21.828 37.232 49.692 37.232 82.34V607.408h-0.024z m-141.352-60.16C687.492 520.76 606.044 502.296 512 502.296c-94.044 0-175.492 18.468-230.624 44.952C220.704 576.392 215.24 601.908 215.24 605.308c0 3.4 5.468 28.916 66.14 58.06C336.508 689.848 417.96 708.32 512 708.32c94.044 0 175.492-18.472 230.624-44.952 60.672-29.144 66.14-54.664 66.14-58.06 0-3.4-5.468-28.92-66.14-58.06z m66.14-49.708v-107.336c0-6.828-3.076-16.572-15.324-28.952-12.396-12.532-32.224-25.552-59.712-37.304-54.832-23.444-133.2-38.856-221.728-38.856-88.528 0-166.896 15.412-221.732 38.856-27.484 11.752-47.312 24.772-59.708 37.304-12.248 12.38-15.324 22.124-15.324 28.952V497.54c67.92-43.088 175.576-70.928 296.764-70.928 121.192 0 228.844 27.84 296.764 70.928z m0-219.636v-113.108c0-6.828-3.076-16.572-15.324-28.952-12.396-12.532-32.224-25.556-59.712-37.308-54.832-23.44-133.2-38.856-221.728-38.856-88.528 0-166.896 15.416-221.732 38.856-27.484 11.752-47.312 24.776-59.708 37.308-12.248 12.38-15.324 22.124-15.324 28.952v113.108c13.952-8.78 29.304-16.64 45.608-23.608 66.188-28.3 155.012-44.888 251.156-44.888s184.968 16.588 251.156 44.888c16.304 6.968 31.656 14.828 45.608 23.608z"  horiz-adv-x="1024" />
      
      <glyph glyph-name="tuichubianji" unicode="&#59640;" d="M116.688 396.404a16 16 0 0 1 0-22.628l209.94-209.944a8 8 0 0 1 11.312 0l39.6 39.6a8 8 0 0 1 0 11.312L244.28 348H679.32a8 8 0 0 1 8 8v56a8 8 0 0 1-8 8H242.108l135.432 135.432a8 8 0 0 1 0 11.312l-39.6 39.6a8 8 0 0 1-11.312 0L116.688 396.4zM486.34 512a8 8 0 0 0-8 8V768a16 16 0 0 0 16 16h404.972a16 16 0 0 0 16-16v-768a16 16 0 0 0-16-16H494.34a16 16 0 0 0-16 16v248a8 8 0 0 0 8 8h56a8 8 0 0 0 8-8v-184a8 8 0 0 1 8-8h276.972a8 8 0 0 1 8 8V704a8 8 0 0 1-8 8h-276.972a8 8 0 0 1-8-8v-184a8 8 0 0 0-8-8h-56z"  horiz-adv-x="1024" />
      
      <glyph glyph-name="shujujiyixuan" unicode="&#59634;" d="M744 352c132.548 0 240-107.452 240-240s-107.452-240-240-240-240 107.452-240 240 107.452 240 240 240zM910.34 197.004a8 8 0 0 0 0-11.316l-208.148-208.036a7.992 7.992 0 0 0-11.308 0l-125.224 125.156a8 8 0 0 0 0 11.316l29.356 29.34a8 8 0 0 0 11.312 0l84.556-84.512a8 8 0 0 1 11.308 0l167.48 167.392a8 8 0 0 0 11.312 0l29.356-29.34z"  horiz-adv-x="1024" />
      
      <glyph glyph-name="a-fangxiangoff" unicode="&#59737;" d="M512-64c-247.424 0-448 200.576-448 448S264.576 832 512 832s448-200.576 448-448-200.576-448-448-448z m0 68c212.076 0 384 170.132 384 380s-171.924 380-384 380c-212.08 0-384-170.132-384-380s171.92-380 384-380z m-192.9 230.344l192.992 192.996 192.996-192.996a8 8 0 0 1 11.316 0l45.252 45.256a8 8 0 0 1 0 11.312l-243.244 243.244a7.984 7.984 0 0 1-6.32 2.32 7.976 7.976 0 0 1-6.316-2.32l-243.248-243.244a8 8 0 0 1 0-11.312l45.256-45.256a8 8 0 0 1 11.316 0z"  horiz-adv-x="1024" />
      
      <glyph glyph-name="a-fangxiangsanjiao-xiachicunxiao" unicode="&#59735;" d="M370.132 264.588C365.08 270.8 369.576 280 377.668 280h268.664c8.092 0 12.592-9.2 7.536-15.412l-134.332-165.028a9.756 9.756 0 0 0-15.072 0l-134.332 165.028z"  horiz-adv-x="1024" />
      
      <glyph glyph-name="a-fangxiangsanjiao-shangchicunxiao" unicode="&#59736;" d="M653.868 111.412c5.056-6.212 0.556-15.412-7.536-15.412H377.668c-8.092 0-12.592 9.2-7.536 15.412l134.332 165.028a9.756 9.756 0 0 0 15.072 0l134.332-165.028z"  horiz-adv-x="1024" />
      
      <glyph glyph-name="a-duiqifangxiangcharuchaolianjie" unicode="&#59734;" d="M565.284 749.912l235.556-136-120-207.844-55.424 32-40-69.284 110.852-64a16 16 0 0 1 21.856 5.856l184 318.7a16 16 0 0 1-5.856 21.856l-346.412 200A16 16 0 0 1 528 845.34L344 526.64a16 16 0 0 1 5.856-21.856l110.852-64 40 69.28-55.424 32 120 207.848z m-128.576-350.696l-110.852 64A16 16 0 0 1 304 457.36l-184-318.696a16 16 0 0 1 5.856-21.86l346.412-200a16 16 0 0 1 21.856 5.86l184 318.696a16 16 0 0 1-5.856 21.856l-110.852 64-40-69.284 55.424-32-120-207.844-235.56 136 120 207.844 55.428-32 40 69.284zM572.418 570.276536m6.928203-4l55.425626-32q6.928203-4 2.928203-10.928203l-184-318.697349q-4-6.928203-10.928203-2.928203l-55.425626 32q-6.928203 4-2.928203 10.928203l184 318.697349q4 6.928203 10.928203 2.928203Z"  horiz-adv-x="1024" />
      
      <glyph glyph-name="quxiaoxuanzhong" unicode="&#59733;" d="M112 800a16 16 0 0 1-16-16v-800a16 16 0 0 1 16-16h800a16 16 0 0 1 16 16V784a16 16 0 0 1-16 16H112z m752-64v-704H160V736h704zM234.816 163.384l497.8 497.8 56.572-56.568-497.804-497.8-56.568 56.568z"  horiz-adv-x="1024" />
      
      <glyph glyph-name="fuzhidao" unicode="&#59732;" d="M735.356 325.656a8 8 0 0 0 11.312 0l163.748-163.748a8 8 0 0 0 0-11.312l-33.94-33.94a7.948 7.948 0 0 0-1.184-0.976l-128.752-128.752a8 8 0 0 0-11.312 0l-33.94 33.94a7.992 7.992 0 0 0 0 11.312l91.132 91.132H552a8 8 0 0 0-8 8v48a8 8 0 0 0 8 8h242.5l-93.088 93.092a8 8 0 0 0 0 11.312l33.944 33.94zM554 728a16 16 0 0 0-16-16H200a16 16 0 0 1-16-16v-560a16 16 0 0 0-16-16H128a16 16 0 0 0-16 16V768a16 16 0 0 0 16 16h410a16 16 0 0 0 16-16v-40zM264 648a16 16 0 0 1-16-16v-632a16 16 0 0 1 16-16h276v72H320V576h300v-200a16 16 0 0 1 16-16h276v64.344a16.004 16.004 0 0 1-4.744 11.372L697.48 643.372A16 16 0 0 1 686.224 648H264z m428-216V547.484L808.664 432H692z"  horiz-adv-x="1024" />
      
      <glyph glyph-name="a-Property1fenxiangdaomulu" unicode="&#59731;" d="M128 784a16 16 0 0 1-16-16v-768a16 16 0 0 1 16-16h768a16 16 0 0 1 16 16v296a8 8 0 0 1-8 8h-56a8 8 0 0 1-8-8v-240H184V712h240a8 8 0 0 1 8 8V776a8 8 0 0 1-8 8H128z m357.48-483a8 8 0 0 0-11.312 0l-45.256 45.252a8 8 0 0 0 0 11.316L775.344 704H600a8 8 0 0 0-8 8V776a8 8 0 0 0 8 8h304a8 8 0 0 0 8-8v-304a8 8 0 0 0-8-8h-64a8 8 0 0 0-8 8V647.52l-346.52-346.52z"  horiz-adv-x="1024" />
      
      <glyph glyph-name="a-Property1xiezuogeiwode" unicode="&#59730;" d="M744 472c88.364 0 160 71.636 160 160s-71.636 160-160 160-160-71.636-160-160c0-17.2 2.712-33.76 7.732-49.28l-156.012-90.328C402.86 535.888 350.712 564 292 564c-99.412 0-180-80.588-180-180s80.588-180 180-180c53.688 0 101.888 23.508 134.868 60.788l164.072-82.036A159.968 159.968 0 0 1 584 136c0-88.364 71.636-160 160-160s160 71.636 160 160-71.636 160-160 160c-49.132 0-93.092-22.148-122.444-57l-161.384 80.692A179.6 179.6 0 0 1 472 384c0 17.776-2.576 34.952-7.38 51.172l158.636 91.84C652.592 493.312 695.808 472 744 472z"  horiz-adv-x="1024" />
      
      <glyph glyph-name="tianjiajisuanzhibiao" unicode="&#59729;" d="M465.78 708c-37.68 0-66.752-21.092-76.896-57.384L364.664 568h196.764a8 8 0 0 0 8-8v-64a8 8 0 0 0-8-8H344.536L204.04-10.516a8 8 0 0 0-7.704-5.848H128a8 8 0 0 0-7.696 10.176L261.2 488H113.428a8 8 0 0 0-8 8V560a8 8 0 0 0 8 8h168.136l29.976 102.004C330.38 737.4 395.8 788 465.78 788h95.648a8 8 0 0 0 8-8v-64a8 8 0 0 0-8-8h-95.648zM653.796 403.056a8 8 0 0 1-8-8v-160.84h-159.16a8 8 0 0 1-8-8v-64a8 8 0 0 1 8-8h159.16v-163.16a8 8 0 0 1 8-8h64a8 8 0 0 1 8 8v163.16h168.84a8 8 0 0 1 8 8v64a8 8 0 0 1-8 8h-168.84v160.84a8 8 0 0 1-8 8h-64z"  horiz-adv-x="1024" />
      
      <glyph glyph-name="tianjiacanshu" unicode="&#59728;" d="M480 516a8 8 0 0 1 8-8h408a8 8 0 0 1 8 8V780a8 8 0 0 1-8 8H488a8 8 0 0 1-8-8v-264z m80 192h264v-120h-264V708zM128 788a8 8 0 0 1-8-8v-480a8 8 0 0 1 8-8h264a8 8 0 0 1 8 8V780a8 8 0 0 1-8 8H128z m192-80v-336H200V708h120zM120 36a8 8 0 0 0 8 8h264a8 8 0 0 0 8-8v-64a8 8 0 0 0-8-8H128a8 8 0 0 0-8 8v64zM655.16 384a8 8 0 0 1-8-8v-160.84H488a8 8 0 0 1-8-8v-64a8 8 0 0 1 8-8h159.16V-28a8 8 0 0 1 8-8h64a8 8 0 0 1 8 8v163.16H896a8 8 0 0 1 8 8v64a8 8 0 0 1-8 8h-168.84V376a8 8 0 0 1-8 8h-64zM120 204a8 8 0 0 0 8 8h264a8 8 0 0 0 8-8v-64a8 8 0 0 0-8-8H128a8 8 0 0 0-8 8v64z"  horiz-adv-x="1024" />
      
      <glyph glyph-name="yujingshezhi" unicode="&#59566;" d="M191.72 340v-276H119.692a8 8 0 0 1-8-8v-64a8 8 0 0 1 8-8H368v80H271.792v276a239.896 239.896 0 0 0 70.356 169.704A240.312 240.312 0 0 0 512 580a240.348 240.348 0 0 0 149.316-52h109.864A320.42 320.42 0 0 1 512 660a320.416 320.416 0 0 1-226.472-93.724A319.86 319.86 0 0 1 191.724 340z m288.248 492a8 8 0 0 1-8-8v-116a8 8 0 0 1 8-8h64.068a8 8 0 0 1 8 8V824a8 8 0 0 1-8 8h-64.068z m361.076-117.972a8 8 0 0 1-11.308 0l-85.592-85.528a8 8 0 0 1 0-11.32l45.328-45.252a8 8 0 0 1 11.308 0l85.56 85.532a8 8 0 0 1-0.004 11.32l-45.292 45.248zM135.064 671.108a8 8 0 0 1 0.008-11.328L223.296 571.88a8 8 0 0 1 11.304 0.012l45.264 45.32a8 8 0 0 1-0.016 11.32l-88.192 87.84a8 8 0 0 1-11.3-0.012L135.064 671.108zM654.016 140.016c15.004-15.376 35.352-24.016 56.568-24.016 21.22 0 41.568 8.64 56.572 24.016 15 15.38 23.428 36.236 23.428 57.984 0 21.748-8.428 42.604-23.428 57.984-15.004 15.376-35.352 24.016-56.572 24.016-21.216 0-41.564-8.64-56.568-24.016-15-15.38-23.432-36.236-23.432-57.984 0-21.748 8.432-42.604 23.432-57.984z m79.196 33.944c-6-6.376-14.14-9.96-22.628-9.96-8.484 0-16.624 3.584-22.624 9.96-6.004 6.376-9.376 15.024-9.376 24.04s3.372 17.664 9.376 24.04c6 6.376 14.14 9.96 22.624 9.96 8.488 0 16.628-3.584 22.628-9.96 6.004-6.376 9.372-15.024 9.372-24.04s-3.368-17.664-9.372-24.04zM484.04 68.024a266.04 266.04 0 0 0-23.712 55.152c-1.092 3.624 0.636 7.448 3.848 9.452a78.8 78.8 0 0 1 25.58 25.96 79.904 79.904 0 0 1 11.552 41.384 79.824 79.824 0 0 1-11.524 41.388 78.688 78.688 0 0 1-25.576 25.988c-3.2 2.004-4.928 5.816-3.844 9.436a264.432 264.432 0 0 0 58.912 103.44c2.604 2.824 6.848 3.24 10.224 1.408a77.576 77.576 0 0 1 34.916-9.372c14.436-0.384 28.692 3.28 41.2 10.584a78.8 78.8 0 0 1 29.656 30.816 79.856 79.856 0 0 1 9.436 35.436c0.112 3.792 2.556 7.22 6.252 8.084a257.664 257.664 0 0 0 117.976-0.048c3.688-0.868 6.132-4.292 6.244-8.08 0.36-12.368 3.588-24.512 9.452-35.44a78.76 78.76 0 0 1 29.668-30.8 77.544 77.544 0 0 1 41.204-10.564 77.536 77.536 0 0 1 34.904 9.38c3.376 1.832 7.624 1.416 10.228-1.408a263.72 263.72 0 0 0 35.236-48.244 264.896 264.896 0 0 0 23.716-55.156c1.092-3.624-0.636-7.44-3.844-9.448a78.712 78.712 0 0 1-25.588-25.96 79.944 79.944 0 0 1-11.556-41.384 79.864 79.864 0 0 1 11.528-41.388 78.688 78.688 0 0 1 25.576-25.988c3.2-2.004 4.928-5.816 3.844-9.436a264.432 264.432 0 0 0-58.912-103.44c-2.604-2.824-6.848-3.24-10.224-1.408a77.576 77.576 0 0 1-34.916 9.372 77.576 77.576 0 0 1-41.2-10.584 78.8 78.8 0 0 1-29.656-30.816 79.912 79.912 0 0 1-9.44-35.436c-0.108-3.792-2.552-7.22-6.248-8.084a257.664 257.664 0 0 0-117.976 0.048c-3.688 0.868-6.132 4.292-6.244 8.08a79.944 79.944 0 0 1-9.452 35.44 78.76 78.76 0 0 1-29.668 30.8 77.544 77.544 0 0 1-41.204 10.564 77.52 77.52 0 0 1-34.9-9.38c-3.38-1.832-7.632-1.412-10.236 1.416a264.42 264.42 0 0 0-35.232 48.236z m206.192-67.132c12.212-1.172 24.472-1.2 36.684-0.024 9.384 29.224 29.004 53.876 55.092 69.236a120.012 120.012 0 0 0 86.272 14.12 199.4 199.4 0 0 1 18.304 32.444c-20.08 22.908-31.176 52.584-31.152 83.332 0 31.492 11.5 60.912 31.152 83.332a204.168 204.168 0 0 1-18.352 32.444 120 120 0 0 0-86.224 14.096c-26.08 15.36-45.688 40.016-55.068 69.236a191.484 191.484 0 0 1-36.684 0.024c-9.384-29.224-29.004-53.876-55.092-69.236a120.012 120.012 0 0 0-86.272-14.12 201.092 201.092 0 0 1-18.308-32.444c20.084-22.908 31.18-52.584 31.156-83.332 0-31.492-11.5-60.912-31.156-83.332a204.5 204.5 0 0 1 18.356-32.444 120 120 0 0 0 86.224-14.096c26.08-15.36 45.688-40.016 55.068-69.236z"  horiz-adv-x="1024" />
      
      <glyph glyph-name="quanbushuju" unicode="&#59565;" d="M869.392 649.568c0-4.08-6.584-34.7-79.652-69.672-66.392-31.78-164.484-53.94-277.74-53.94s-211.348 22.16-277.74 53.94c-73.068 34.972-79.652 65.596-79.652 69.672 0 4.08 6.584 34.7 79.652 69.672C300.652 751.02 398.74 773.18 512 773.18c113.256 0 211.348-22.16 277.74-53.94 73.068-34.972 79.652-65.596 79.652-69.672z m0-129.32C787.6 468.54 657.948 435.136 512 435.136s-275.6 33.404-357.392 85.112v-128.804c0-8.192 3.704-19.888 18.452-34.74 14.932-15.036 38.808-30.668 71.912-44.768 66.032-28.132 160.412-46.628 267.028-46.628 106.616 0 200.996 18.496 267.028 46.628 33.104 14.1 56.98 29.732 71.912 44.768 14.748 14.852 18.452 26.548 18.452 34.74V520.248z m0-263.56c-16.8-10.54-35.292-19.972-54.924-28.336-79.712-33.956-186.68-53.86-302.468-53.86-115.788 0-222.76 19.904-302.468 53.86-19.632 8.364-38.124 17.796-54.924 28.336v-135.732c0-8.196 3.704-19.888 18.452-34.744 14.932-15.036 38.808-30.664 71.912-44.768 66.032-28.128 160.412-46.624 267.028-46.624 106.616 0 200.996 18.496 267.028 46.624 33.104 14.104 56.98 29.732 71.912 44.768 14.748 14.856 18.452 26.548 18.452 34.744v135.732z"  horiz-adv-x="1024" />
      
      <glyph glyph-name="tiaozhuandaofubiao" unicode="&#59564;" d="M342.672 98.98a8.004 8.004 0 0 0 0.16 11.316L443.324 208H216a8 8 0 0 1-8-8v-204a8 8 0 0 0-8-8H144a8 8 0 0 0-8 8v276a8 8 0 0 0 8 8h299.328l-100.5 97.708a8 8 0 0 0-0.16 11.312l39.04 40.152a8 8 0 0 0 11.312 0.16l178.824-173.86a16 16 0 0 0 0-22.944l-178.824-173.856a8 8 0 0 0-11.312 0.156l-39.04 40.152zM136 768a16 16 0 0 0 16 16h720a16 16 0 0 0 16-16v-768a16 16 0 0 0-16-16h-296v64h237.156a8 8 0 0 1 8 8V712a8 8 0 0 1-8 8H210.844a8 8 0 0 1-8-8v-328H136V768zM256 632a8 8 0 0 0 8 8h496a8 8 0 0 0 8-8v-56a8 8 0 0 0-8-8H264a8 8 0 0 0-8 8V632zM552 448a8 8 0 0 0 8 8h200a8 8 0 0 0 8-8v-56a8 8 0 0 0-8-8h-200a8 8 0 0 0-8 8v56z"  horiz-adv-x="1024" />
      
      <glyph glyph-name="jinrusuozaidewenjianjia" unicode="&#59563;" d="M128 764h309.068a16 16 0 0 0 10.692-4.096c0.68-0.612 1.348-1.24 2.08-1.788L564 672h332a16 16 0 0 0 16-16v-640a16 16 0 0 0-16-16H128a16 16 0 0 0-16 16V748a16 16 0 0 0 16 16z m476-156H176v-544h672V608h-244zM537.016 145.32a8.016 8.016 0 0 1 11.336-0.02l183.848 183.848a8.016 8.016 0 0 1-0.024 11.336l-34.072 34.072-0.088 0.088-150.404 150.404a8.016 8.016 0 0 1-11.336 0.024l-33.944-33.944a8.016 8.016 0 0 1 0.024-11.336l108.74-108.736-315.472 0.584a7.98 7.98 0 0 1-8-8l0.096-48.096a8.052 8.052 0 0 1 8.028-8.032l323.356-0.6-116.184-116.18a8.012 8.012 0 0 1 0.024-11.336l34.072-34.076z"  horiz-adv-x="1024" />
      
      <glyph glyph-name="kongxinyuan" unicode="&#59562;" d="M512 184c110.456 0 200 89.544 200 200s-89.544 200-200 200-200-89.544-200-200 89.544-200 200-200z m0 60c77.32 0 140 62.68 140 140s-62.68 140-140 140-140-62.68-140-140 62.68-140 140-140z"  horiz-adv-x="1024" />
      
      <glyph glyph-name="a-gengduoyuanquan-zongxiang" unicode="&#59561;" d="M960 384c0 247.424-200.576 448-448 448S64 631.424 64 384s200.576-448 448-448 448 200.576 448 448z m-832 0c0 212.08 171.92 384 384 384 212.076 0 384-171.92 384-384 0-212.076-171.924-384-384-384-212.08 0-384 171.924-384 384z m424 168a8 8 0 0 1 8 8V640a8 8 0 0 1-8 8h-80a8 8 0 0 1-8-8v-80a8 8 0 0 1 8-8h80z m0-216a8 8 0 0 1 8 8v80a8 8 0 0 1-8 8h-80a8 8 0 0 1-8-8v-80a8 8 0 0 1 8-8h80z m8-208a8 8 0 0 0-8-8h-80a8 8 0 0 0-8 8v80a8 8 0 0 0 8 8h80a8 8 0 0 0 8-8v-80z"  horiz-adv-x="1024" />
      
      <glyph glyph-name="maohao" unicode="&#59560;" d="M560 532a8 8 0 0 0-8-8h-80a8 8 0 0 0-8 8V612a8 8 0 0 0 8 8h80a8 8 0 0 0 8-8v-80zM560 156a8 8 0 0 0-8-8h-80a8 8 0 0 0-8 8v80a8 8 0 0 0 8 8h80a8 8 0 0 0 8-8v-80z"  horiz-adv-x="1024" />
      
      <glyph glyph-name="yibeiguolv" unicode="&#59559;" d="M856 832a8 8 0 0 0 8-8v-56a8 8 0 0 0-8-8h-72l-143.864-268H553.08l134.796 256.276c2.804 5.328-1.06 11.724-7.08 11.724H247.204c-6.02 0-9.88-6.4-7.08-11.724l162.956-309.816c0.604-1.148 0.92-2.428 0.92-3.724v-480.192l-62.004-15.968A8 8 0 0 0 332-53.68V407.768c0 1.32-0.328 2.62-0.952 3.784L144 760H72a8 8 0 0 0-8 8V824a8 8 0 0 0 8 8h784zM706-64c140.28 0 254 113.72 254 254S846.28 444 706 444 452 330.28 452 190s113.72-254 254-254z m0 64c-104.936 0-190 85.064-190 190s85.064 190 190 190 190-85.064 190-190-85.064-190-190-190zM612 152a8 8 0 0 0-8 8v56a8 8 0 0 0 8 8h56a8 8 0 0 0 8-8v-56a8 8 0 0 0-8-8h-56zM748 152a8 8 0 0 0-8 8v56a8 8 0 0 0 8 8h56a8 8 0 0 0 8-8v-56a8 8 0 0 0-8-8h-56z"  horiz-adv-x="1024" />
      
      <glyph glyph-name="beizhushuoming" unicode="&#59727;" d="M824.896 839.104c47.104 0 85.312-38.208 85.312-85.312v-142.208h-56.96l0.064 142.208c0 13.952-10.048 25.6-23.296 27.968l-5.12 0.448H142.208a28.416 28.416 0 0 1-28.416-28.416V71.04c0-15.68 12.736-28.416 28.416-28.416h56.896v-56.96h-56.896A85.312 85.312 0 0 0 56.96 71.168V753.792c0 47.104 38.208 85.312 85.312 85.312zM170.688 668.416h625.792v-64H170.688zM484.928 583.104l85.12-56.896h340.16c31.424 0 56.96-25.472 56.96-56.896v-483.52c0-31.424-25.536-56.96-56.96-56.96H312.96a56.896 56.896 0 0 0-56.896 56.96V469.312c0 31.424 25.472 56.96 56.896 56.96H399.36l85.504 56.832z m176.64-241.984l-234.88-216.32v-82.112h89.344l234.944 215.936-89.344 82.496z m163.328-241.536h-170.688v-56.96h170.688v56.96z m-60.352 306.688a23.936 23.936 0 0 1-32.448-0.32l-47.104-43.392 89.344-82.048 47.168 43.328a35.456 35.456 0 0 1 0 30.272l-56.576 51.84z"  horiz-adv-x="1024" />
      
      <glyph glyph-name="xiangyou" unicode="&#59726;" d="M880.64 384a32 32 0 0 1-32 32H370.752l-0.064 116.672a25.6 25.6 0 0 1-3.2 12.416l-2.368 3.584a25.6 25.6 0 0 1-36.032 4.032L141.44 402.752a25.6 25.6 0 0 1-1.216-39.04l187.712-170.112a25.6 25.6 0 0 1 42.816 18.944L370.752 352h477.888a32 32 0 0 1 32 32z"  horiz-adv-x="1024" />
      
      <glyph glyph-name="xiangzuo" unicode="&#59724;" d="M131.776 384a32 32 0 0 0 32 32h477.888V532.608a25.6 25.6 0 0 0 3.2 12.416l2.432 3.584a25.6 25.6 0 0 0 36.032 4.032l187.712-149.952a25.6 25.6 0 0 0 1.216-39.04l-187.712-170.112a25.6 25.6 0 0 0-42.88 18.944V352H163.776a32 32 0 0 0-32 32z"  horiz-adv-x="1024" />
      
      <glyph glyph-name="fuwuqidizhi" unicode="&#59725;" d="M695.36 242.112l113.6-0.064a64 64 0 0 0 57.92-36.864l2.752-6.912 106.688-192a64 64 0 0 0-53.824-83.84l-6.912-0.384H108.416a64 64 0 0 0-62.528 77.632l1.792 6.592 106.688 192a64 64 0 0 0 53.248 43.328l7.488 0.448 113.536 0.064c14.976-20.736 31.104-42.048 48.256-64l-161.792-0.064-106.688-192h807.168l-106.624 192-161.856 0.064c17.216 21.952 33.28 43.264 48.256 64zM512 850.048a288 288 0 0 0 288-288c0-106.048-96-266.048-288-480-192 213.952-288 373.952-288 480A288 288 0 0 0 512 850.048z m0-64a224 224 0 0 1-224-224c0-73.984 68.096-197.056 205.824-361.472l18.176-21.44 2.56 3.008c142.912 167.488 216.128 293.824 221.184 371.456l0.256 8.448a224 224 0 0 1-224 224z m0-88.256a128 128 0 1 0 0-256 128 128 0 0 0 0 256z m0-64a64 64 0 1 1 0-128 64 64 0 0 1 0 128z"  horiz-adv-x="1024" />
      
      <glyph glyph-name="wangluojiance" unicode="&#59723;" d="M896 832a64 64 0 0 0 64-64v-768a64 64 0 0 0-64-64H128a64 64 0 0 0-64 64V768a64 64 0 0 0 64 64h768z m0-283.136H128V0h768V548.864z m-320.768-80a44.8 44.8 0 0 0 20.16-16.384l3.328-5.76 61.376-128.576h164.608a32 32 0 0 0 31.488-26.24l0.512-5.76a32 32 0 0 0-26.24-31.552l-5.76-0.512h-176.64a44.8 44.8 0 0 0-37.248 19.968l-3.2 5.568-48 100.416-103.296-253.184a44.8 44.8 0 0 0-15.936-19.84l-5.568-3.328a44.8 44.8 0 0 0-56.704 14.464l-3.392 5.76-64.704 130.24H192a32 32 0 0 0-31.488 26.24L160 286.08a32 32 0 0 0 26.24 31.424L192 318.08h129.92a44.8 44.8 0 0 0 36.928-19.392l3.2-5.44 51.072-102.848 103.68 253.952a44.8 44.8 0 0 0 58.432 24.512zM896 768H128v-155.136h768V768z m-576-45.568a32 32 0 1 0 0-64 32 32 0 0 0 0 64z m-96 0a32 32 0 1 0 0-64 32 32 0 0 0 0 64z m192 0a32 32 0 1 0 0-64 32 32 0 0 0 0 64z"  horiz-adv-x="1024" />
      
      <glyph glyph-name="xunhuanrongqi" unicode="&#59722;" d="M426.688 355.584c31.36 0 56.896-25.472 56.896-56.96v-312.832c0-31.424-25.472-56.96-56.96-56.96H113.856a56.896 56.896 0 0 0-56.96 56.96V298.688c0 31.36 25.536 56.896 56.96 56.896h312.896z m434.688-8.064l96-96a5.696 5.696 0 0 0-3.968-9.728h-71.68v-132.608c0-50.56-38.784-92.032-87.936-94.784l-5.312-0.192H597.312v56.96h191.168a37.12 37.12 0 0 1 36.224 34.048l0.192 3.968-0.064 132.608H753.28a5.696 5.696 0 0 0-4.032 9.728l96 96c4.48 4.48 11.712 4.48 16.128 0zM910.208 839.04c31.424 0 56.96-25.472 56.96-56.896v-312.896c0-31.36-25.536-56.896-56.96-56.896H597.312a56.896 56.896 0 0 0-56.896 56.96V782.144c0 31.424 25.472 56.96 56.96 56.96h312.832z m-455.04-85.312v-56.96H241.28c-22.4 0-40-14.72-41.984-32.64l-0.192-3.392v-134.528H270.72c0.768 0 1.472-0.192 2.176-0.512l1.856-1.216a5.696 5.696 0 0 0 0-8.064l-96-96a11.392 11.392 0 0 0-16.128 0l-96 96a5.696 5.696 0 0 0 3.968 9.728l71.616 0.064V660.8c0 50.24 41.984 90.24 93.696 92.8l5.376 0.192H455.04z"  horiz-adv-x="1024" />
      
      <glyph glyph-name="wutiaojianzhihang-suo" unicode="&#59721;" d="M512 895.99104a501.879217 501.879217 0 0 0 199.356511-39.9993 513.783009 513.783009 0 0 0 163.069147-109.566082 513.783009 513.783009 0 0 0 109.566082-163.069147c26.751532-63.038897 40.383293-130.87771 39.9993-199.356511a501.879217 501.879217 0 0 0-39.9993-199.356511 513.783009 513.783009 0 0 0-109.566082-163.069147 513.783009 513.783009 0 0 0-163.069147-109.566082A501.879217 501.879217 0 0 0 512-127.99104a501.879217 501.879217 0 0 0-199.356511 39.9993 513.783009 513.783009 0 0 0-163.069146 109.566082 513.783009 513.783009 0 0 0-109.566083 163.069147A501.879217 501.879217 0 0 0 0.00896 384a501.879217 501.879217 0 0 0 39.9993 199.356511 513.783009 513.783009 0 0 0 109.566083 163.069147A513.783009 513.783009 0 0 0 312.643489 855.99174 501.879217 501.879217 0 0 0 512 895.99104z m150.397368-255.99552h-300.794736a25.599552 25.599552 0 0 1-25.599552-25.599552v-198.396528H281.604032a25.599552 25.599552 0 0 1-25.599552-25.599552v-268.795296c0-14.079754 11.519798-25.599552 25.599552-25.599552h460.791936a25.599552 25.599552 0 0 1 25.599552 25.599552V390.399888a25.599552 25.599552 0 0 1-25.599552 25.599552H432.0014v127.99776h159.9972v-36.607359c0-14.143752 11.519798-25.599552 25.599552-25.599552h44.799216a25.599552 25.599552 0 0 1 25.599552 25.599552V614.395968a25.599552 25.599552 0 0 1-25.599552 25.599552z"  horiz-adv-x="1024" />
      
      <glyph glyph-name="zhihangpanduan" unicode="&#59720;" d="M796.8 557.888a12.8 12.8 0 0 0 9.024-3.712L967.04 392.96a12.8 12.8 0 0 0 0-18.048L805.76 213.76a12.8 12.8 0 0 0-21.824 9.088V351.104l-102.464 0.768-149.12-319.872H282.496a96 96 0 1 0 0 64H491.52l149.44 320.192 143.04-1.152V545.088c0 7.04 5.76 12.8 12.8 12.8zM192 96a32 32 0 1 1 0-64 32 32 0 0 1 0 64z m0 384a96 96 0 0 0 90.56-64H448a32 32 0 0 0 0-64H282.496A96 96 0 1 0 192 480z m0-64a32 32 0 1 1 0-64 32 32 0 0 1 0 64z m0 384a96 96 0 0 0 90.56-64h236.288l86.464-198.4a32 32 0 0 0-55.872-30.72L546.688 512l-69.76 160H282.496A96 96 0 1 0 192 800z m0-64a32 32 0 1 1 0-64 32 32 0 0 1 0 64z"  horiz-adv-x="1024" />
      
      <glyph glyph-name="yunweipingtai" unicode="&#59719;" d="M858.325333 134.762667l53.333334-30.784L512-126.784 112.32 103.978667l53.333333 30.784L512-65.194667l346.325333 199.957334zM512 731.52l300.970667-173.781333v-347.52L512 36.394667 210.986667 210.197333V557.738667L511.978667 731.52z m-0.021333-61.568L264.32 526.976v-285.973333l247.637333-142.976 247.658667 142.976V526.976l-247.68 142.976z m-42.645334 200.192v-61.568L122.965333 608.618667v-399.957334l-53.333333-30.784V639.402667L469.333333 870.144z m85.333334 0l399.722666-230.741333v-461.504l-53.376 30.805333 0.021334 399.914667-346.368 199.957333V870.144zM237.44 515.84l21.141333 37.034667 274.24-156.501334 0.554667-329.450666-317.056 144.96v211.072h42.666667v-183.637334l-14.890667 278.826667 246.08-146.56zM773.034667 565.504l26.496-46.293333-275.413334-157.632 0.597334-1.066667-45.482667-24.64-25.962667 46.570667z"  horiz-adv-x="1024" />
      
      <glyph glyph-name="jiqunjiedianguanli" unicode="&#59608;" d="M352 224a128 128 0 0 0 124.416-97.792L475.968 128 928 128a32 32 0 1 0 0-64H475.968l0.512 1.984a128 128 0 0 0-248.96 0l0.512-2.048L96 64a32 32 0 1 0 0 64l132.032 0.064-0.448-1.92A128 128 0 0 0 352 224z m0-64a64 64 0 1 1 0-128 64 64 0 0 1 0 128z m320 352a128 128 0 0 0 124.416-97.792l-0.448 1.856L928 416a32 32 0 1 0 0-64h-132.032l0.512 1.984a128 128 0 0 0-248.96 0l0.512-2.048L96 352a32 32 0 0 0 0 64l452.032 0.064-0.448-1.92A128 128 0 0 0 672 512z m0-64a64 64 0 1 1 0-128 64 64 0 0 1 0 128z m-384 352a128 128 0 0 0 124.416-97.792L411.968 704 928 704a32 32 0 1 0 0-64H411.968l0.512 1.984a128 128 0 0 0-248.96 0L164.032 640 96 640a32 32 0 0 0 0 64l68.032 0.064-0.448-1.92A128 128 0 0 0 288 800z m0-64a64 64 0 1 1 0-128 64 64 0 0 1 0 128z"  horiz-adv-x="1024" />
      
      <glyph glyph-name="rongqifuwuqijiankong" unicode="&#59683;" d="M928 384a32 32 0 0 0 32-32V0a64 64 0 0 0-64-64H128a64 64 0 0 0-64 64v160a32 32 0 0 0 26.24 31.488L96 192a32 32 0 0 0 32-32V0h768V352a32 32 0 0 0 26.24 31.488L928 384zM250.304 284.544c3.392-3.84 7.296-7.04 11.776-9.728l7.04-3.456L512 174.464l242.816 96.896a51.2 51.2 0 0 1 18.88 12.992 51.2 51.2 0 0 0-18.816-81.92L535.68 115.008a64 64 0 0 0-47.488 0l-219.072 87.424a51.2 51.2 0 0 0-18.88 82.112z m0.064 128.256c3.328-3.84 7.296-7.04 11.776-9.728l7.04-3.456L512.064 302.72l242.816 96.896a51.2 51.2 0 0 1 18.88 12.992 51.2 51.2 0 0 0-18.816-81.92L535.68 243.264a64 64 0 0 0-47.36 0L269.12 330.688a51.2 51.2 0 0 0-18.816 82.112z m285.376 228.736l219.072-87.424a51.2 51.2 0 0 0 0-95.104L535.744 371.584a64 64 0 0 0-47.488 0L269.184 459.008a51.2 51.2 0 0 0 0 95.104l219.072 87.424a64 64 0 0 0 47.488 0zM896 832a64 64 0 0 0 64-64v-160a32 32 0 0 0-26.24-31.488L928 576a32 32 0 0 0-32 32V768H128v-352a32 32 0 0 0-26.24-31.488L96 384a32 32 0 0 0-32 32V768a64 64 0 0 0 64 64h768zM512 582.08L322.688 506.624 512 431.04l189.248 75.584L512 582.144z"  horiz-adv-x="1024" />
      
      <glyph glyph-name="waijieshujukujiankong" unicode="&#59604;" d="M864 416.384a64 64 0 0 0 64-64v-192a64 64 0 0 0-64-64h-320V0l384-0.064a32 32 0 1 0 0-64h-832a32 32 0 1 0 0 64h384v96.384h-320a64 64 0 0 0-64 64v192a64 64 0 0 0 64 64h704z m0-64h-704v-192h704v192z m-472.704-64a32 32 0 0 0 0-64h-128a32 32 0 1 0 0 64h128z m280.704 0a32 32 0 1 0 0-64 32 32 0 0 0 0 64z m102.4 0a32 32 0 1 0 0-64 32 32 0 0 0 0 64z m89.6 512a64 64 0 0 0 64-64v-192a64 64 0 0 0-64-64h-704a64 64 0 0 0-64 64v192a64 64 0 0 0 64 64h704z m0-64h-704v-192h704v192z m-472.704-64a32 32 0 0 0 0-64h-128a32 32 0 1 0 0 64h128z m280.704 0a32 32 0 1 0 0-64 32 32 0 0 0 0 64z m102.4 0a32 32 0 1 0 0-64 32 32 0 0 0 0 64z"  horiz-adv-x="1024" />
      
      <glyph glyph-name="fuwuqijiankong" unicode="&#59605;" d="M896 800.384a64 64 0 0 0 64-64v-704a64 64 0 0 0-64-64H128a64 64 0 0 0-64 64v704a64 64 0 0 0 64 64h768z m0-576H128v-192h768v192z m-536.64-64a32 32 0 0 0 0-64h-128a32 32 0 1 0 0 64h128z m344.704 0a32 32 0 1 0 0-64 32 32 0 0 0 0 64z m102.4 0a32 32 0 1 0 0-64 32 32 0 0 0 0 64z m89.6 320H128v-192h768v192z m-536.704-64a32 32 0 1 0 0-64h-128a32 32 0 1 0 0 64h128z m344.704 0a32 32 0 1 0 0-64 32 32 0 0 0 0 64z m102.4 0a32 32 0 1 0 0-64 32 32 0 0 0 0 64z m89.6 320H128v-192h768v192z m-536.704-64a32 32 0 1 0 0-64h-128a32 32 0 1 0 0 64h128z m344.704 0a32 32 0 1 0 0-64 32 32 0 0 0 0 64z m102.4 0a32 32 0 1 0 0-64 32 32 0 0 0 0 64z"  horiz-adv-x="1024" />
      
      <glyph glyph-name="yingyongjiankong" unicode="&#59606;" d="M800 32a32 32 0 1 0 0-64h-576a32 32 0 1 0 0 64h576z m96 768a64 64 0 0 0 64-64v-576a64 64 0 0 0-64-64H128a64 64 0 0 0-64 64v576a64 64 0 0 0 64 64h768z m0-64H128v-576h768v576zM497.088 433.088v-104.576a104.512 104.512 0 1 0-104.576 104.576h104.576z m134.4 0a104.512 104.512 0 1 0-104.576-104.576V433.088h104.576z m-185.664-51.2h-53.312a53.312 53.312 0 1 1 52.928-60.032l0.448 6.656-0.064 53.376z m132.288 0v-53.376a53.312 53.312 0 1 1 60.032 52.928l-6.656 0.448h-53.376zM392.512 672c57.728 0 104.576-46.784 104.576-104.512v-104.576H392.512a104.512 104.512 0 0 0 0 209.088z m238.976 0a104.512 104.512 0 1 0 0-209.088H526.912V567.488c0 57.728 46.848 104.512 104.576 104.512z m-238.976-51.2a53.312 53.312 0 0 1-6.656-106.24l6.656-0.448 53.312 0.064v53.312a53.376 53.376 0 0 1-40.128 51.712l-6.464 1.216-6.72 0.384z m238.976 0a53.312 53.312 0 0 1-52.928-46.656l-0.448-6.656v-53.312h53.376a53.312 53.312 0 0 1 52.928 46.592l0.384 6.72a53.312 53.312 0 0 1-53.312 53.312z"  horiz-adv-x="1024" />
      
      <glyph glyph-name="gaojingfangshi" unicode="&#59607;" d="M928 64a32 32 0 1 0 0-64h-256a32 32 0 1 0 0 64h256zM512.576 760.192a64 64 0 0 0 17.984-15.872l4.48-6.656L744.128 384h-74.368L480 705.088 120.064 96H576v-64H120.064a64 64 0 0 0-63.552 56.512L56.064 96a64 64 0 0 0 5.12 24.96l3.84 7.616 359.872 609.088a64 64 0 0 0 87.68 22.528zM928 192a32 32 0 1 0 0-64h-256a32 32 0 1 0 0 64h256z m-448.128 55.104a44.8 44.8 0 1 0 0-89.6 44.8 44.8 0 0 0 0 89.6zM928 320a32 32 0 1 0 0-64h-256a32 32 0 1 0 0 64h256zM485.76 543.168a32 32 0 0 0 32-32v-0.832l-5.12-192a32 32 0 0 0-31.936-31.168h-1.6a32 32 0 0 0-32 31.232l-4.672 192a32 32 0 0 0 31.168 32.768h12.16z"  horiz-adv-x="1024" />
      
      <glyph glyph-name="BIjisuanyinqingjiankong" unicode="&#59609;" d="M800 32a32 32 0 1 0 0-64h-576a32 32 0 1 0 0 64h576z m96 768a64 64 0 0 0 64-64v-576a64 64 0 0 0-64-64H128a64 64 0 0 0-64 64v576a64 64 0 0 0 64 64h768z m0-64H128v-576h768v576z m-200.96-99.392c11.2 0 20.224-3.712 27.136-11.136 6.976-7.424 10.432-18.688 10.432-33.856v-288.768c0-15.168-3.456-26.496-10.432-33.92a35.2 35.2 0 0 0-27.072-11.328 34.112 34.112 0 0 0-26.368 11.392c-6.976 7.616-10.432 18.88-10.432 33.92V591.552c0 14.976 3.456 26.24 10.24 33.728a34.176 34.176 0 0 0 26.56 11.264z m-244.736-6.208c17.536 0 32.64-1.088 45.504-3.264 12.8-2.176 24.32-6.4 34.56-12.544a90.496 90.496 0 0 0 38.208-45.824c3.52-9.6 5.248-19.712 5.248-30.4 0-36.672-18.304-63.488-55.04-80.512 48.192-15.36 72.32-45.184 72.32-89.472 0-20.48-5.248-38.976-15.744-55.36a94.528 94.528 0 0 0-42.56-36.416 151.104 151.104 0 0 0-38.464-9.856 392.32 392.32 0 0 0-50.752-2.88H331.52c-16.192 0-27.712 3.648-34.624 10.88-6.912 7.232-10.368 18.816-10.368 34.56V584.96c0 16.128 3.52 27.776 10.624 34.88 7.04 7.04 18.56 10.624 34.368 10.624z m-12.224-203.776H360.832v-107.008h79.744c50.176 0 75.264 18.112 75.264 54.272 0 18.496-6.528 31.872-19.52 40.256-12.992 8.32-32.384 12.48-58.24 12.48z m-17.024 147.968h-60.224v-94.72H428.8c18.56 0 32.832 1.728 42.88 5.248a40.96 40.96 0 0 1 23.168 20.032 45.056 45.056 0 0 1 6.208 23.488c0 18.496-6.528 30.72-19.712 36.864-13.184 6.08-33.28 9.088-60.288 9.088z"  horiz-adv-x="1024" />
      
      <glyph glyph-name="huihuaguanli" unicode="&#59610;" d="M898.304 800c31.616 0 57.728-23.808 61.312-54.528l0.384-7.168V544a32 32 0 1 0-64 0v192H128v-589.696h127.744l85.12-85.184 85.248 85.12H512a32 32 0 0 0 31.488-26.24l0.512-5.696a32 32 0 0 0-32-32h-59.328L340.928-29.44 229.12 82.304H125.696a61.696 61.696 0 0 0-61.312 54.528L64 144V738.304c0 31.616 23.808 57.728 54.528 61.312l7.168 0.384h772.608z m-20.608-354.112l5.568-2.56 18.624-10.752 19.392-11.52c16.448-9.28 22.208-30.08 14.272-46.592a53.376 53.376 0 0 1-6.4-25.856c0-30.08 23.68-55.168 54.4-57.344 15.936-1.28 29.568-13.312 31.424-29.12l0.192-6.016v-45.184a36.672 36.672 0 0 0-33.728-36.608 57.408 57.408 0 0 1-53.76-57.344c0-7.68 1.536-15.168 5.12-22.976l1.088-1.664a8.512 8.512 0 0 1 1.024-1.216 35.776 35.776 0 0 0-9.408-42.432l-4.928-3.456-37.952-22.208c-16.448-10.112-36.48-4.352-47.232 10.752a58.368 58.368 0 0 1-48 25.792 56.576 56.576 0 0 1-48-25.792 35.712 35.712 0 0 0-41.6-13.376l-5.696 2.56-37.952 22.272a35.968 35.968 0 0 0-14.272 46.592 53.312 53.312 0 0 1 6.4 25.856 58.112 58.112 0 0 1-54.4 58.112 36.544 36.544 0 0 0-32.448 29.76 138.24 138.24 0 0 0-0.512 12.16v37.696c0 19.328 14.272 34.368 32.96 35.84a58.112 58.112 0 0 1 54.4 58.112 53.376 53.376 0 0 1-6.4 25.792 36.16 36.16 0 0 0 9.216 43.072l5.12 3.52 18.56 10.816 20.032 10.688a36.032 36.032 0 0 0 47.296-10.688 56.576 56.576 0 0 1 47.936-25.856 56.64 56.64 0 0 1 48 25.856 36.032 36.032 0 0 0 41.6 13.312zM788.48 361.216c-8.32 0-15.616-1.024-22.848-2.048a125.248 125.248 0 0 1-77.12-44.16 117.76 117.76 0 0 1-22.912-39.808 151.68 151.68 0 0 1-7.296-44.16c0.064-15.104 2.88-30.08 8.32-44.16 5.248-14.72 12.544-28.288 22.976-39.872a130.496 130.496 0 0 1 98.944-46.208 131.008 131.008 0 0 1 99.008 46.208c9.28 11.52 17.664 25.216 22.848 39.872 5.44 14.08 8.32 29.056 8.32 44.16 0 15.744-2.048 30.4-7.296 44.16a137.536 137.536 0 0 1-22.848 39.872 136.96 136.96 0 0 1-77.12 44.096 155.264 155.264 0 0 1-22.976 2.048zM512 384v-64H256a32 32 0 0 0 0 64h256z m64 192a32 32 0 0 0 0-64H256a32 32 0 0 0 0 64h320z"  horiz-adv-x="1024" />
      
      <glyph glyph-name="rizhixiazai" unicode="&#59611;" d="M864 320a32 32 0 0 0 32-32v-274.752l73.344 73.408 4.48 3.648a32 32 0 0 0 44.48-44.48l-3.648-4.48-128-128-4.48-3.648a32 32 0 0 0-36.352 0l-4.48 3.648-128 128-3.648 4.48a32 32 0 0 0 0 36.352l3.648 4.48 4.48 3.648a32 32 0 0 0 36.352 0l4.48-3.648L832 13.248V288a32 32 0 0 0 32 32zM704 800a32 32 0 0 0 32-32v-31.296H832a128 128 0 0 0 128-128V416a32 32 0 1 0-64 0v64H128v-383.36a64 64 0 0 1 64-64h416a32 32 0 0 0 0-64H192a128 128 0 0 0-128 128v512a128 128 0 0 0 128 128l96 0.064V768a32 32 0 0 0 64 0v-31.296h320V768a32 32 0 0 0 32 32z m-192-608.32a32 32 0 0 0 0-64H256a32 32 0 1 0 0 64h256z m192 160.064a32 32 0 0 0-32-32H256a32 32 0 0 0 0 64h416a32 32 0 0 0 32-32z m-32 320.96h-320v-32.832a32 32 0 1 0-64 0V672.64H192a64 64 0 0 1-64-64V544h768V608.64a64 64 0 0 1-64 64l-96 0.064v-32.832a32 32 0 1 0-64 0V672.64z"  horiz-adv-x="1024" />
      
      <glyph glyph-name="wenjianfuwuqijiankong" unicode="&#59646;" d="M446.976 832l118.336-128H825.6c74.24 0 134.4-60.16 134.4-134.4v-456.256a134.4 134.4 0 0 0-134.4-134.4H198.4a134.4 134.4 0 0 0-134.4 134.4V832h382.976z m-28.928-64H128v-654.656a70.4 70.4 0 0 1 70.4-70.4h627.2a70.4 70.4 0 0 1 70.4 70.4V569.6A70.4 70.4 0 0 1 825.6 640H536.32L418.112 768z m56.32-237.248l3.2-5.312 95.488-203.776h235.2a32 32 0 0 0 31.488-26.24l0.512-5.76a32 32 0 0 0-26.24-31.552l-5.76-0.512H552.768a32 32 0 0 0-26.368 13.888l-2.624 4.544L449.792 433.92 382.336 276.992a32 32 0 0 0-24-18.944l-5.44-0.448h-128a32 32 0 0 0-5.76 63.488l5.76 0.512 106.944 0.064 87.296 202.88a32 32 0 0 0 55.296 6.208z"  horiz-adv-x="1024" />
      
      <glyph glyph-name="Nginxjiankong" unicode="&#59688;" d="M896 832a64 64 0 0 0 64-64v-768a64 64 0 0 0-64-64H128a64 64 0 0 0-64 64V768a64 64 0 0 0 64 64h768z m0-283.136H128V0h768V548.864zM369.984 449.152l4.224-3.456L640 189.184V422.656a32 32 0 0 0 26.24 31.488l5.76 0.512a32 32 0 0 0 31.488-26.24l0.512-5.76v-308.8a32 32 0 0 0-49.984-26.56l-4.224 3.52L384 347.328v-233.472a32 32 0 0 0-26.24-31.488l-5.76-0.512a32 32 0 0 0-31.488 26.24L320 113.856V422.656a32 32 0 0 0 49.984 26.496zM896 768H128v-155.136h768V768z m-672-45.568a32 32 0 1 0 0-64 32 32 0 0 0 0 64z m96 0a32 32 0 1 0 0-64 32 32 0 0 0 0 64z m96 0a32 32 0 1 0 0-64 32 32 0 0 0 0 64z"  horiz-adv-x="1024" />
      
      <glyph glyph-name="gaojingguize" unicode="&#59689;" d="M695.808-64a51.2 51.2 0 0 1 37.952 16.832l180.992 199.68a51.2 51.2 0 0 1 13.248 34.368V756.992a64 64 0 0 1-64 64h-704a64 64 0 0 1-64-64V0a64 64 0 0 1 64-64h535.808z m-23.808 64h-512V756.992h704v-546.752h-102.4a89.6 89.6 0 0 1-89.6-89.6V0zM310.784 320a32 32 0 0 1 32 31.36l5.44 257.408v0.704a32 32 0 0 1-32 32h-12.352a32 32 0 0 1-31.36-32.64l4.992-257.472a32 32 0 0 1 32-31.36zM736 512a32 32 0 1 1 0 64h-256a32 32 0 1 1 0-64z m-89.6-128a32 32 0 1 1 0 64H480a32 32 0 0 1 0-64z m-38.4-128a32 32 0 0 1 0 64h-128a32 32 0 0 1 0-64z m-297.856-65.664a44.8 44.8 0 1 1 0 89.6 44.8 44.8 0 0 1 0-89.6z m425.856-140.672v64.64a32 32 0 0 0 32 32l54.016-0.064-86.016-96.576z"  horiz-adv-x="1024" />
      
      <glyph glyph-name="Redisjiankong" unicode="&#59690;" d="M896 832a64 64 0 0 0 64-64v-768a64 64 0 0 0-64-64H128a64 64 0 0 0-64 64V768a64 64 0 0 0 64 64h768z m0-283.136H128V0h768V548.864zM581.76 455.488a115.776 115.776 0 0 0 38.08-225.088l9.344-9.6c10.688-11.52 20.48-24 29.12-37.312l8.32-13.568 33.152-58.048a32 32 0 0 0-52.288-36.48l-3.264 4.736-33.152 57.984a211.84 211.84 0 0 1-92.544 86.016L419.84 224v-125.376a32 32 0 1 0-64 0V391.488a64 64 0 0 0 56.512 63.552l7.488 0.448h161.92z m-161.984-63.936V288.128l162.048-0.128a51.776 51.776 0 0 1 51.328 45.248l0.384 6.528a51.776 51.776 0 0 1-45.248 51.328l-6.464 0.384-162.048 0.064zM896 768H128v-155.136h768V768z m-672-45.568a32 32 0 1 0 0-64 32 32 0 0 0 0 64z m96 0a32 32 0 1 0 0-64 32 32 0 0 0 0 64z m96 0a32 32 0 1 0 0-64 32 32 0 0 0 0 64z"  horiz-adv-x="1024" />
      
      <glyph glyph-name="rizhichaxun" unicode="&#59600;" d="M366.933333 810.666667c9.386667 0 17.066667-7.68 17.066667-17.066667V725.333333h256V793.6c0 9.386667 7.68 17.066667 17.066667 17.066667h93.866666c9.386667 0 17.066667-7.68 17.066667-17.066667V725.333333h128a42.666667 42.666667 0 0 0 42.666667-42.666666v-640a42.666667 42.666667 0 0 0-42.666667-42.666667H128a42.666667 42.666667 0 0 0-42.666667 42.666667V682.666667a42.666667 42.666667 0 0 0 42.666667 42.666666h128V793.6c0 9.386667 7.68 17.066667 17.066667 17.066667h93.866666zM853.333333 512H170.666667v-426.666667h682.666666V512z m-315.733333-256c9.386667 0 17.066667-7.68 17.066667-17.066667v-51.2a17.066667 17.066667 0 0 0-17.066667-17.066666H273.066667a17.066667 17.066667 0 0 0-17.066667 17.066666v51.2c0 9.386667 7.68 17.066667 17.066667 17.066667h264.533333z m213.333333 170.666667c9.386667 0 17.066667-7.68 17.066667-17.066667v-51.2a17.066667 17.066667 0 0 0-17.066667-17.066667H273.066667a17.066667 17.066667 0 0 0-17.066667 17.066667v51.2c0 9.386667 7.68 17.066667 17.066667 17.066667h477.866666z"  horiz-adv-x="1024" />
      
      <glyph glyph-name="gaojingpeizhi" unicode="&#59601;" d="M836.096 332.245333c6.016 0 10.965333-4.736 11.221333-10.752 0.554667-14.549333 3.541333-33.024 14.293334-38.144 12.202667-5.802667 32.725333 5.248 41.813333 11.349334l2.304 1.706666 2.432 1.365334a11.221333 11.221333 0 0 0 10.24-0.853334l2.176-1.792 39.253333-41.386666a11.264 11.264 0 0 0 1.024-14.208c-8.618667-12.117333-17.749333-29.098667-12.245333-41.130667 6.314667-13.781333 30.506667-18.986667 38.442667-19.669333 4.821333-0.469333 8.704-3.925333 9.856-8.405334l0.341333-2.816v-54.485333c0-5.802667-4.394667-10.666667-10.197333-11.178667-7.936-0.725333-32.128-5.930667-38.442667-19.754666-4.906667-10.666667 1.749333-25.258667 9.386667-36.864l2.858666-4.224 1.450667-2.773334a11.221333 11.221333 0 0 0-0.938667-9.386666l-1.493333-2.048-39.253333-41.386667a11.221333 11.221333 0 0 0-14.890667-1.237333c-7.168 5.418667-30.72 19.370667-44.117333 13.013333-9.557333-4.565333-12.970667-19.626667-13.994667-33.152l-0.298667-4.992-0.426666-2.474667a11.264 11.264 0 0 0-7.808-7.893333l-2.986667-0.426667H774.4a11.221333 11.221333 0 0 0-11.178667 10.794667c-0.597333 14.592-3.541333 33.024-14.293333 38.144-12.202667 5.802667-32.768-5.248-41.813333-11.349333l-2.346667-1.664-2.432-1.365334a11.221333 11.221333 0 0 0-10.282667 0.853334l-2.133333 1.749333-39.253333 41.386667a11.221333 11.221333 0 0 0-1.024 14.208c8.618667 12.117333 17.749333 29.056 12.245333 41.088-5.546667 12.245333-24.874667 17.664-35.114667 19.285333l-3.328 0.426667-2.773333 0.64a11.221333 11.221333 0 0 0-7.082667 7.765333l-0.384 2.816v54.485333c0 5.802667 4.437333 10.666667 10.24 11.178667 8.533333 0.853333 32.170667 5.973333 38.442667 19.754667 4.906667 10.709333-1.792 25.301333-9.386667 36.906666l-2.858666 4.181334-1.450667 2.773333a11.264 11.264 0 0 0 0.938667 9.472l1.536 2.005333 39.253333 41.344a11.221333 11.221333 0 0 0 14.848 1.28c7.210667-5.418667 30.72-19.413333 44.16-13.056 9.557333 4.565333 12.928 19.626667 13.994667 33.152l0.298666 4.992 0.341334 2.474667a11.221333 11.221333 0 0 0 7.850666 7.893333l2.986667 0.426667h61.653333zM540.8 776.96l231.168-393.6a234.666667 234.666667 0 0 1-188.458667-346.837333l-484.394666 0.042666c-42.24 0-70.4 41.6-49.28 75.136L442.24 776.96c21.12 36.821333 77.44 36.821333 98.56 0z m264.490667-549.418667a87.381333 87.381333 0 0 1-87.296-87.296c0-48.128 39.168-87.253333 87.296-87.253333a87.338667 87.338667 0 0 1 87.253333 87.253333 87.381333 87.381333 0 0 1-87.253333 87.296z m-351.232 9.813334c-44.544-45.056 27.093333-117.333333 71.594666-72.362667 47.786667 48.170667-23.893333 120.533333-71.594666 72.362667z m-14.378667 323.242666v-205.866666c0-65.962667 101.930667-65.962667 101.930667 0V560.64c0 67.498667-101.930667 67.498667-101.930667 0z"  horiz-adv-x="1024" />
      
      <glyph glyph-name="jiankongyibiaopan" unicode="&#59602;" d="M682.666667 85.333333a42.666667 42.666667 0 0 0 0-85.333333H341.333333a42.666667 42.666667 0 0 0 0 85.333333h341.333334z m213.333333 682.666667a42.666667 42.666667 0 0 0 42.666667-42.666667v-512a42.666667 42.666667 0 0 0-42.666667-42.666666H128a42.666667 42.666667 0 0 0-42.666667 42.666666V725.333333a42.666667 42.666667 0 0 0 42.666667 42.666667h768zM445.013333 660.352l-152.234666-256h-78.933334v-85.333333H341.333333l101.504 170.666666 95.573334-170.666666h272.426666v85.333333h-222.378666l-143.445334 256z"  horiz-adv-x="1024" />
      
      <glyph glyph-name="yunweigongju" unicode="&#59603;" d="M938.666667 537.6V42.666667a42.666667 42.666667 0 0 0-42.666667-42.666667H128a42.666667 42.666667 0 0 0-42.666667 42.666667V537.6h853.333334zM619.690667 469.333333h-79.445334l-135.936-373.333333h79.445334L619.690667 469.333333z m58.965333-54.656l-52.778667-52.864 79.232-79.146666-79.232-79.189334 52.778667-52.821333L810.666667 282.666667l-132.010667 132.010666z m-333.312 0L213.333333 282.666667l132.010667-132.010667 52.778667 52.864-79.189334 79.146667 79.189334 79.189333-52.778667 52.821333zM896 768a42.666667 42.666667 0 0 0 42.666667-42.666667v-128H85.333333V725.333333a42.666667 42.666667 0 0 0 42.666667 42.666667h768zM230.4 713.770667H170.666667v-59.733334h59.733333v59.733334z m85.333333 0H256v-59.733334h59.733333v59.733334z m85.333334 0H341.333333v-59.733334h59.733334v59.733334z"  horiz-adv-x="1024" />
      
      <glyph glyph-name="jiandaoyunshuru" unicode="&#59599;" d="M303.936 601.792c7.168 0 14.336-0.256 21.632-0.896a155.2 155.2 0 0 1-10.88-23.616l-1.088-2.752c-3.2-7.296-6.208-14.72-8.832-22.08-1.024-2.944-1.856-5.888-2.752-8.896-1.92-5.504-3.712-11.008-5.184-16.512-0.896-3.328-1.536-6.912-2.368-10.368a303.36 303.36 0 0 1-3.2-15.296c-0.704-3.776-1.152-7.552-1.664-11.328-0.64-4.928-1.408-9.856-1.792-14.72-0.384-3.904-0.768-7.872-0.768-11.84-0.512-4.736-0.512-9.536-0.512-14.336 0-4.032-0.128-7.296 0-11.968a355.456 355.456 0 0 1 1.728-26.24 343.68 343.68 0 0 1 9.984-51.52c1.28-4.544 2.944-9.856 4.16-13.632 1.28-3.84 2.56-7.68 3.904-11.392 1.408-4.544 3.328-8.96 5.184-13.44 1.536-3.648 3.072-7.36 4.736-10.88 2.112-4.544 4.48-8.96 6.784-13.376 1.536-3.584 3.2-7.04 5.12-10.368 2.688-4.608 5.568-9.024 8.448-13.44l5.888-9.216c3.392-4.864 7.04-9.536 10.752-14.208 1.92-2.496 3.648-4.992 5.632-7.424 5.76-6.912 11.904-13.76 18.368-20.352l176.192-179.008H304c-151.936 0-275.52 125.44-275.52 279.552 0 154.112 123.584 279.552 275.52 279.552z m602.496-203.52a193.6 193.6 0 0 0 89.152-163.136c0-106.112-85.12-192.512-189.184-192.192H642.56l176.256 179.072c6.4 6.4 12.352 13.12 18.112 20.096l5.184 7.04c3.712 4.736 7.424 9.28 10.88 14.528 1.984 2.816 3.84 5.76 5.76 8.704a302.272 302.272 0 0 1 31.488 63.36l3.584 10.048c1.792 5.568 3.392 11.264 4.928 16.96 0.832 3.008 1.728 5.952 2.432 8.96 1.856 7.872 3.392 15.808 4.672 23.808 0.128 0.896 0.512 1.856 0.512 2.752zM364.544 594.56l6.4-1.408c3.648-1.024 7.04-1.856 11.072-3.072 4.032-1.28 8.384-2.688 11.968-3.968 3.584-1.28 6.912-2.368 10.752-3.904l11.392-4.928a229.504 229.504 0 0 0 21.12-10.688l9.856-5.696c3.648-2.176 7.232-4.544 10.368-6.656l9.216-6.528c3.2-2.304 6.592-5.12 9.536-7.488l8.64-7.232c3.072-2.624 5.952-5.888 8.704-8.576l7.936-7.808c3.008-2.944 5.76-6.272 8.192-9.088 2.432-2.816 4.608-5.184 7.232-8.384 2.56-3.2 5.248-7.04 7.424-9.92l6.464-8.96c2.368-3.2 4.736-7.232 6.656-10.368 1.92-3.072 3.584-5.632 5.632-9.344 2.112-3.648 4.288-8.128 5.888-11.328l1.472-3.072 3.328-6.592c2.048-3.968 3.584-8.064 5.184-12.16 1.344-3.2 2.752-6.464 3.968-9.792 1.472-4.288 2.752-8.64 4.096-12.992 0.96-3.2 2.048-6.464 2.944-9.792 1.28-4.672 2.176-9.408 3.2-14.08 0.64-3.2 1.408-6.336 1.92-9.536 0.96-5.248 1.536-10.88 2.176-16 0.32-3.008 1.024-5.44 1.024-8.192 0.768-8.192 1.088-16.448 1.088-24.768h0.192v-253.184l-176.256 179.072a272.832 272.832 0 0 0-16.448 18.24c-1.984 2.176-3.52 4.48-5.184 6.592-3.328 4.224-6.656 8.512-9.728 12.8-1.856 2.752-3.456 5.504-5.12 8.256-2.496 4.032-5.312 8-7.68 12.16-1.728 3.008-3.2 6.08-4.736 9.088-2.112 4.032-4.288 8.064-6.144 12.16l-4.096 9.728a125.76 125.76 0 0 0-5.12 12.16c-1.28 3.52-1.92 6.336-3.328 10.368a307.392 307.392 0 0 0-3.84 12.288c-0.896 3.328-1.536 6.272-2.496 10.368-0.896 4.16-2.048 8.832-2.688 12.416-0.64 3.584-0.96 6.72-1.6 10.88-0.64 4.16-1.344 8.768-1.664 12.416-0.32 3.648-0.448 6.784-0.704 10.944-0.256 4.16-0.64 8.832-0.64 12.544V452.48c0.192 4.16 0.256 8.768 0.512 12.48 0.256 3.648 0.64 7.04 1.088 11.072a252.16 252.16 0 0 0 8.96 46.528 310.912 310.912 0 0 0 7.488 22.72c1.472 3.968 3.2 8.256 4.736 11.712 1.472 3.456 2.944 6.528 4.736 10.368a214.4 214.4 0 0 0 11.52 21.568l3.392 5.568zM806.4 427.648c6.208 0 12.352-0.32 18.56-0.96 1.92-0.192 3.904-0.832 5.824-0.832a170.56 170.56 0 0 0 30.72-6.784l6.592-2.176c1.28-0.384 2.56-0.96 3.776-1.408-0.256-2.176-0.64-4.288-0.64-6.4a252.928 252.928 0 0 0-6.848-35.008 245.76 245.76 0 0 0-3.712-12.928c-1.088-3.456-2.176-6.976-3.456-10.368l-5.12-12.672c-1.472-3.328-2.752-6.656-4.224-9.92-1.92-4.224-4.096-8.32-6.208-12.48-1.6-3.072-3.2-6.208-4.864-9.216-2.432-4.224-4.992-8.32-7.616-12.416-1.728-2.752-3.328-5.504-5.12-8.192-3.136-4.48-6.464-8.768-9.792-13.056-1.92-2.176-3.456-4.416-5.184-6.464a441.6 441.6 0 0 0-16.192-18.24L616.64 69.12v166.08c0 106.112 85.12 192.512 189.696 192.512zM597.76 725.312c73.28 0 143.488-29.44 194.816-81.856a282.112 282.112 0 0 0 81.152-189.568 159.36 159.36 0 0 1-18.56 5.12l-4.672 0.96a227.968 227.968 0 0 1-16.704 2.688c-1.92 0.32-3.968 0.704-5.952 0.704a207.68 207.68 0 0 1-42.048 0.128l-4.736-0.512a246.912 246.912 0 0 1-19.712-3.072l-2.24-0.512c-5.888-1.28-11.712-2.816-17.472-4.544l-4.224-1.28a236.544 236.544 0 0 1-18.112-6.784l-3.2-1.408a195.072 195.072 0 0 1-15.488-7.488c-1.152-0.64-2.368-1.216-3.52-1.92-5.504-3.072-11.008-6.4-16.192-9.984l-3.392-2.368a241.856 241.856 0 0 1-13.632-10.368l-2.304-1.92a237.632 237.632 0 0 1-14.08-12.928l-3.072-3.2a217.6 217.6 0 0 1-12.224-13.632l-0.896-1.088c-4.096-4.928-7.872-10.368-11.52-15.552l-2.56-3.84-2.752-4.032c-0.512 5.12-1.408 10.048-2.176 15.232l-1.088 7.04a320.64 320.64 0 0 1-5.632 25.344l-1.408 4.544a317.76 317.76 0 0 1-6.272 19.968c-0.96 2.816-2.112 5.568-3.2 8.384a489.92 489.92 0 0 1-6.336 15.552 297.664 297.664 0 0 1-11.456 22.912c-1.856 2.944-3.456 5.824-5.12 8.704a280.448 280.448 0 0 1-8.512 13.44c-1.728 2.688-3.392 5.312-5.184 7.872a325.376 325.376 0 0 1-10.88 14.4l-4.416 5.632a307.2 307.2 0 0 1-16.704 18.624c-1.216 1.28-2.496 2.368-3.712 3.584a243.968 243.968 0 0 1-14.592 13.696c-2.24 1.984-4.544 3.84-6.848 5.696a200.832 200.832 0 0 1-12.8 10.368l-8 5.632a273.024 273.024 0 0 1-21.696 13.824c-4.672 2.496-9.408 5.248-14.272 7.68-2.752 1.408-5.504 2.88-8.32 4.224a358.528 358.528 0 0 1-17.088 7.296c-2.24 0.896-4.352 1.92-6.528 2.752-7.872 2.688-15.808 5.504-23.936 7.872A272.768 272.768 0 0 0 597.76 725.312z"  horiz-adv-x="1024" />
      
      <glyph glyph-name="guanlixitong_cunchuguanli" unicode="&#59598;" d="M856.384 317.888l5.568-2.56 18.688-10.752 19.328-11.52c16.448-9.28 22.208-30.08 14.272-46.592a53.376 53.376 0 0 1-6.4-25.856c0-30.08 23.68-55.168 54.4-57.344 15.936-1.28 29.568-13.312 31.488-29.12l0.128-6.016v-45.184a36.672 36.672 0 0 0-33.728-36.608 57.408 57.408 0 0 1-53.76-57.344c0-7.68 1.536-15.168 5.12-22.976l1.088-1.664a8.512 8.512 0 0 1 1.024-1.216 35.776 35.776 0 0 0-9.408-42.432l-4.928-3.456-37.952-22.208c-16.448-10.112-36.48-4.352-47.232 10.752a58.368 58.368 0 0 1-48 25.792 56.576 56.576 0 0 1-48-25.792 35.712 35.712 0 0 0-41.6-13.376l-5.696 2.56-37.888 22.272a35.968 35.968 0 0 0-14.336 46.592 53.312 53.312 0 0 1 6.4 25.856 58.112 58.112 0 0 1-54.4 58.112 36.544 36.544 0 0 0-32.448 29.76 138.24 138.24 0 0 0-0.512 12.16v37.696c0 19.328 14.336 34.368 32.96 35.84a58.112 58.112 0 0 1 54.4 58.112 53.376 53.376 0 0 1-6.4 25.792 36.16 36.16 0 0 0 9.216 43.072l5.12 3.52 18.56 10.816 20.032 10.688a36.032 36.032 0 0 0 47.296-10.688 56.576 56.576 0 0 1 48-25.856 56.64 56.64 0 0 1 48 25.856 36.032 36.032 0 0 0 41.6 13.312zM634.304 832a64 64 0 0 0 47.36-20.864l197.632-216.832a64 64 0 0 0 16.704-43.072V422.4a38.4 38.4 0 0 0-76.8 0V546.24L628.736 755.2H512V640a64 64 0 0 0-64-64H256a64 64 0 0 0-64 64V755.2h-51.2v-742.4h332.8a38.4 38.4 0 0 0 0-76.8H128a64 64 0 0 0-64 64V768a64 64 0 0 0 64 64h506.368z m132.928-598.784c-8.32 0-15.616-1.024-22.848-2.048a125.248 125.248 0 0 1-77.056-44.16 117.76 117.76 0 0 1-22.976-39.808 151.68 151.68 0 0 1-7.296-44.16c0.064-15.104 2.88-30.08 8.32-44.16 5.248-14.72 12.544-28.288 22.976-39.872a130.496 130.496 0 0 1 98.944-46.208 131.008 131.008 0 0 1 99.008 46.208c9.28 11.52 17.664 25.216 22.848 39.872 5.44 14.08 8.32 29.056 8.32 44.16 0 15.744-2.048 30.4-7.296 44.16a137.536 137.536 0 0 1-22.848 39.872 136.96 136.96 0 0 1-77.12 44.096 155.264 155.264 0 0 1-22.976 2.048zM473.6 256a38.4 38.4 0 0 0 0-76.8H230.4a38.4 38.4 0 0 0 0 76.8h243.2z m128 192a38.4 38.4 0 1 0 0-76.8H230.4a38.4 38.4 0 1 0 0 76.8h371.2zM435.2 755.2H268.8v-102.4h166.4V755.2z"  horiz-adv-x="1024" />
      
      <glyph glyph-name="yuanxingbeifen" unicode="&#59596;" d="M512 800c229.76 0 416-186.24 416-416s-186.24-416-416-416S96 154.24 96 384 282.24 800 512 800z m0-64a352 352 0 1 1 0-704c194.4 0 352 157.6 352 352S706.4 736 512 736z m0-256a96 96 0 1 0 0-192 96 96 0 0 0 0 192z"  horiz-adv-x="1024" />
      
      <glyph glyph-name="duobianxing" unicode="&#59594;" d="M864 784A48 48 0 0 0 912 736v-128a48 48 0 0 0-48-48h-32v-352h32a48 48 0 0 0 47.776-43.392L912 160v-128a48 48 0 0 0-48-48h-128a48 48 0 0 0-48 48v32h-352v-32a48 48 0 0 0-43.392-47.776L288-16H160A48 48 0 0 0 112 32v128A48 48 0 0 0 160 208h128c11.84 0 22.656-4.288 31.04-11.36L688.064 606.528 688 608V736A48 48 0 0 0 736 784z m-592-640h-96v-96h96v96z m576 0h-96v-96h96v96z m-115.584 416.128L343.296 128H688v32a48 48 0 0 0 43.392 47.776L736 208h32v352h-32c-1.216 0-2.4 0.032-3.584 0.128zM848 720h-96v-96h96v96z"  horiz-adv-x="1024" />
      
      <glyph glyph-name="juxing" unicode="&#59595;" d="M288 784A48 48 0 0 0 336 736v-32h352V736a48 48 0 0 0 43.392 47.776L736 784h128A48 48 0 0 0 912 736v-128a48 48 0 0 0-48-48h-32v-352h32a48 48 0 0 0 47.776-43.392L912 160v-128a48 48 0 0 0-48-48h-128a48 48 0 0 0-48 48v32h-352v-32a48 48 0 0 0-43.392-47.776L288-16H160A48 48 0 0 0 112 32v128A48 48 0 0 0 160 208h32v352H160a48 48 0 0 0-47.776 43.392L112 608V736A48 48 0 0 0 160 784z m-16-640h-96v-96h96v96z m576 0h-96v-96h96v96zM336 608A48 48 0 0 0 288 560H256v-352h32a48 48 0 0 0 47.776-43.392L336 160v-32h352v32a48 48 0 0 0 43.392 47.776L736 208h32v352h-32a48 48 0 0 0-47.776 43.392L688 608V640h-352z m512 112h-96v-96h96v96z m-576 0h-96v-96h96v96z"  horiz-adv-x="1024" />
      
      <glyph glyph-name="hebing" unicode="&#59597;" d="M325.404444 197.404444A320.113778 320.113778 0 0 0 384 831.943111a320.113778 320.113778 0 0 0 314.595556-261.347555 320.113778 320.113778 0 0 0-58.595556-634.652445 320.113778 320.113778 0 0 0-314.595556 261.347556z m-5.006222 74.808889a320.056889 320.056889 0 0 0 303.388445 303.388445A248.092444 248.092444 0 0 1 135.964444 512a248.092444 248.092444 0 0 1 184.376889-239.786667z m79.815111-79.815111a248.092444 248.092444 0 0 1 487.765334 63.601778 248.092444 248.092444 0 0 1-184.376889 239.786667 320.056889 320.056889 0 0 0-303.388445-303.388445z m-8.078222 71.68a248.035556 248.035556 0 0 1 239.729778 239.786667 248.035556 248.035556 0 0 1-239.729778-239.729778z"  horiz-adv-x="1024" />
      
      <glyph glyph-name="wenjianjia-guanbi" unicode="&#59593;" d="M430.272 768a44.8 44.8 0 0 0 27.392-9.344L579.456 664.32H864a96 96 0 0 0 95.552-86.784L960 568.32v-472.32a96 96 0 0 0-96-96h-704A96 96 0 0 0 64 96v576A96 96 0 0 0 160 768zM576 600.32H128v-504.32a32 32 0 0 1 26.24-31.488L160 64h704a32 32 0 0 1 32 32V568.32a32 32 0 0 1-32 32L576 600.384v-0.064z"  horiz-adv-x="1024" />
      
      <glyph glyph-name="wenjianjia-dakai" unicode="&#59592;" d="M128 0a64 64 0 0 0-64 64V704a64 64 0 0 0 64 64h270.272a12.8 12.8 0 0 0 7.808-2.688l130.56-100.992H768a64 64 0 0 0 64-64V480h95.808a32 32 0 0 0 30.912-40.32l-105.728-392.32a64 64 0 0 0-61.824-47.36H128z m758.016 416H242.368L147.52 64h643.648l94.848 352z"  horiz-adv-x="1024" />
      
      <glyph glyph-name="renwu1" unicode="&#59589;" d="M832 832a96 96 0 0 0 95.552-86.784l0.448-9.216v-704a96 96 0 0 0-86.784-95.552L832-64H192a96 96 0 0 0-95.552 86.784L96 32v704a96 96 0 0 0 86.784 95.552L192 832h640z m0-64h-64v-64a64 64 0 0 0-64-64H320a64 64 0 0 0-64 64V768H192a32 32 0 0 1-31.488-26.24L160 736v-704a32 32 0 0 1 26.24-31.488L192 0h640a32 32 0 0 1 31.488 26.24l0.512 5.76v704A32 32 0 0 1 832 768z m-410.56-533.312a33.28 33.28 0 0 0 23.488-10.112 33.728 33.728 0 0 0-0.64-47.552c-11.52-11.392-21.248-19.2-30.464-23.872a130.56 130.56 0 0 0-23.04-8.32 143.744 143.744 0 0 0-29.248-5.12l-9.856-0.32H263.808a33.472 33.472 0 0 0-33.408 33.6c0 17.152 12.736 31.296 29.184 33.28l4.224 0.32h87.872c7.04 0 14.144 1.024 21.056 2.944l6.208 1.856 3.84 1.344a12.48 12.48 0 0 1 1.024 0.448l2.304 1.536 3.712 3.008 4.992 4.608 2.944 2.752a33.28 33.28 0 0 0 23.68 9.6z m-35.84 261.312c75.52 0 138.432-56.128 146.624-129.472l0.64-7.424 4.48-72.128c2.56-39.36 33.92-70.72 73.344-73.472l5.952-0.192h139.712c18.816 0 34.048-15.04 34.048-33.6a33.728 33.728 0 0 0-29.76-33.28l-4.288-0.32H616.64c-75.52 0-138.432 56.128-146.688 129.472l-0.64 7.36-4.352 72.192a78.912 78.912 0 0 1-73.408 73.472L385.6 428.8H264.448a33.792 33.792 0 0 0-34.048 33.6c0 17.152 12.992 31.232 29.824 33.28l4.224 0.32h121.152z m-2.112-149.312a33.6 33.6 0 1 0 0-67.2H264a33.6 33.6 0 1 0 0 67.2h119.488z m373.568 149.312c18.432 0 33.344-15.04 33.344-33.6a33.536 33.536 0 0 0-29.184-33.28l-4.16-0.32h-87.936c-7.04 0-14.144-0.96-21.056-2.944l-6.144-1.856-3.968-1.28a12.48 12.48 0 0 1-0.96-0.512l-2.24-1.472-3.776-3.072-4.992-4.608-2.88-2.752a33.28 33.28 0 0 0-47.232 0.576 33.728 33.728 0 0 0 0.64 47.488c11.52 11.392 21.248 19.2 30.464 23.872 5.824 2.944 13.248 5.568 23.04 8.32 9.6 2.752 19.328 4.48 29.248 5.12l9.856 0.32h87.936zM704 768H320v-64h384V768z"  horiz-adv-x="1024" />
      
      <glyph glyph-name="renwuyunwei1" unicode="&#59591;" d="M298.666667 768a85.333333 85.333333 0 0 1 78.933333-85.12L384 682.666667h256a85.333333 85.333333 0 0 1 85.12 78.933333L725.333333 768h85.333334a85.333333 85.333333 0 0 0 85.333333-85.333333v-640a85.333333 85.333333 0 0 0-85.333333-85.333334H213.333333a85.333333 85.333333 0 0 0-85.333333 85.333334V682.666667a85.333333 85.333333 0 0 0 85.333333 85.333333h85.333334z m356.224-288l-3.584-3.413333-169.813334-175.274667L382.72 399.36a35.2 35.2 0 0 1-50.688-0.768 37.461333 37.461333 0 0 1-2.474667-48.298667l3.242667-3.712 124.16-123.392a35.413333 35.413333 0 0 1 46.890667-2.730666l3.541333 3.242666 194.730667 201.045334a37.376 37.376 0 0 1 10.154666 36.010666 36.266667 36.266667 0 0 1-25.898666 26.453334 35.157333 35.157333 0 0 1-31.488-7.253334zM640 810.666667a42.666667 42.666667 0 0 0 0-85.333334H384a42.666667 42.666667 0 1 0 0 85.333334h256z"  horiz-adv-x="1024" />
      
      <glyph glyph-name="shujukaifa1" unicode="&#59590;" d="M85.632 198.272c38.698667-25.386667 91.818667-44.288 159.146667-57.173333 67.285333-12.714667 139.690667-19.328 217.088-19.328l27.605333 0.341333c5.973333-41.856 22.357333-80.384 46.336-112.896-23.893333-1.408-48.469333-2.090667-73.770667-2.090667-67.968 0-130.944 5.290667-188.714666 15.488-57.898667 10.24-103.552 24.362667-137.173334 41.984-33.792 17.664-50.517333 36.736-50.517333 57.429334v76.245333z m0 170.666667c38.698667-25.386667 91.818667-44.288 159.146667-57.173334 67.285333-12.714667 139.690667-19.328 217.088-19.328 22.101333 0 43.818667 0.512 65.066666 1.578667a248.405333 248.405333 0 0 1-39.253333-115.968c-8.448-0.170667-17.024-0.256-25.642667-0.256-67.968 0-130.944 5.290667-188.714666 15.488-57.898667 10.24-103.552 24.362667-137.173334 41.984-33.792 17.664-50.517333 36.736-50.517333 57.429333v76.245334z m0 173.696c38.698667-25.386667 91.818667-44.288 159.146667-57.130667 67.285333-12.757333 139.690667-19.370667 217.088-19.370667 77.354667 0 149.76 6.485333 217.088 19.456 67.285333 12.8 120.448 31.829333 159.317333 57.002667v-76.288c0-20.693333-16.768-39.808-50.474667-57.514667l-6.826666-3.413333a252.586667 252.586667 0 0 1-43.093334 3.712c-57.173333 0-109.952-19.114667-152.149333-51.370667-39.125333-4.181333-80.384-6.229333-123.690667-6.229333-67.968 0-130.944 5.290667-188.714666 15.488-57.898667 10.282667-103.552 24.405333-137.173334 41.984-33.792 17.664-50.517333 36.778667-50.517333 57.472V542.634667zM461.738667 810.666667c67.882667 0 130.858667-5.290667 188.672-15.445334 57.856-10.325333 103.594667-24.405333 137.173333-41.941333 33.621333-17.664 50.517333-36.778667 50.517333-57.514667v-57.514666c0-20.650667-16.768-39.850667-50.517333-57.514667-33.706667-17.706667-79.317333-31.616-137.216-41.941333-57.941333-10.154667-120.746667-15.317333-188.672-15.317334a1091.413333 1091.413333 0 0 0-188.672 15.402667c-57.770667 10.24-103.594667 24.405333-137.173333 42.112C102.016 598.656 85.333333 617.813333 85.333333 638.506667V695.978667c0 20.693333 16.725333 39.893333 50.517334 57.514666 33.749333 17.365333 79.232 31.36 137.173333 41.728a1078.186667 1078.186667 0 0 0 161.621333 15.274667L461.738667 810.666667zM737.877333 358.912a200.789333 200.789333 0 1 0 0-401.578667 200.789333 200.789333 0 0 0 0 401.578667z m-23.125333-79.488l-41.813333-41.813333 81.621333-81.664-81.621333-81.536 41.813333-41.898667 81.664 81.621333 41.856 41.642667-123.52 123.648z"  horiz-adv-x="1024" />
      
      <glyph glyph-name="icontuozhuai" unicode="&#59588;" d="M192 576m-64 0a64 64 0 1 1 128 0 64 64 0 1 1-128 0ZM192 192m-64 0a64 64 0 1 1 128 0 64 64 0 1 1-128 0ZM512 576m-64 0a64 64 0 1 1 128 0 64 64 0 1 1-128 0ZM512 192m-64 0a64 64 0 1 1 128 0 64 64 0 1 1-128 0ZM832 576m-64 0a64 64 0 1 1 128 0 64 64 0 1 1-128 0ZM832 192m-64 0a64 64 0 1 1 128 0 64 64 0 1 1-128 0Z"  horiz-adv-x="1024" />
      
      <glyph glyph-name="xiazaimoban" unicode="&#59581;" d="M896 294.4a38.4 38.4 0 0 0 38.4-38.4v-256a38.4 38.4 0 0 0-38.4-38.4H128a38.4 38.4 0 0 0-38.4 38.4v256a38.4 38.4 0 1 0 76.8 0v-217.6h691.2V256a38.4 38.4 0 0 0 38.4 38.4zM512 768a38.4 38.4 0 0 0 38.4-38.4v-472.32l115.52 115.456a38.4 38.4 0 0 0 54.4-54.272l-181.12-181.056a38.4 38.4 0 0 0-54.4 0l-181.12 181.056a38.4 38.4 0 1 0 54.4 54.272L473.6 257.28V729.6A38.4 38.4 0 0 0 512 768z"  horiz-adv-x="1024" />
      
      <glyph glyph-name="xuqiufankui" unicode="&#59582;" d="M879.552 405.504l52.416-36.672a64 64 0 0 0 15.68-89.152l-208-297.088a64 64 0 0 0-32.512-24.064l-91.2-29.888a32 32 0 0 0-41.984 29.376l-3.136 95.936a64 64 0 0 0 11.52 38.784l208 297.088a64 64 0 0 0 89.216 15.68zM864 832a64 64 0 0 0 64-64v-288a32 32 0 1 0-64 0V768h-704v-768H512a32 32 0 1 0 0-64H160a64 64 0 0 0-64 64V768a64 64 0 0 0 64 64h704z m-21.184-478.912l-208-297.088 1.728-53.248 50.688 16.576 208 297.088-52.416 36.672zM416 256a32 32 0 1 0 0-64h-128a32 32 0 1 0 0 64h128z m128 192a32 32 0 0 0 0-64h-256a32 32 0 0 0 0 64h256z m192 192a32 32 0 1 0 0-64h-448a32 32 0 0 0 0 64h448z"  horiz-adv-x="1024" />
      
      <glyph glyph-name="guanlianneirong" unicode="&#59583;" d="M896 576a64 64 0 0 0 64-64v-512a64 64 0 0 0-64-64H384a64 64 0 0 0-64 64v96a32 32 0 1 0 64 0V0h512V512H384v-160a32 32 0 0 0-64 0V512a64 64 0 0 0 64 64h512zM128 192a64 64 0 0 0-64 64V768a64 64 0 0 0 64 64h512a64 64 0 0 0 64-64v-96a32 32 0 1 0-64 0V768H128v-512h512V416a32 32 0 1 0 64 0V256a64 64 0 0 0-64-64H128z"  horiz-adv-x="1024" />
      
      <glyph glyph-name="quxiaoshoucang" unicode="&#59584;" d="M340.736 1.792a96 96 0 0 0-139.328 101.184l32.768 190.72L95.552 428.8a96 96 0 0 0 53.248 163.84l191.488 27.776 85.632 173.504a96 96 0 0 0 172.16 0l85.632-173.44 191.488-27.904a96 96 0 0 0 53.248-163.712L789.76 293.76l32.768-190.72a96 96 0 0 0-139.328-101.248L512 91.84l-171.264-90.048z"  horiz-adv-x="1024" />
      
      <glyph glyph-name="shoucang1" unicode="&#59585;" d="M512 164.16l201.024-105.728a32 32 0 0 1 46.464 33.728l-38.4 223.872 162.624 158.592a32 32 0 0 1-17.728 54.592l-224.768 32.64-100.48 203.712a32 32 0 0 1-57.408 0L382.72 561.856l-224.768-32.64a32 32 0 0 1-17.728-54.592l162.624-158.592-38.4-223.872a32 32 0 0 1 46.464-33.728L512 164.16z m-171.264-162.368a96 96 0 0 0-139.328 101.184l32.768 190.72L95.552 428.8a96 96 0 0 0 53.248 163.84l191.488 27.776 85.632 173.504a96 96 0 0 0 172.16 0l85.632-173.44 191.488-27.904a96 96 0 0 0 53.248-163.712L789.76 293.76l32.768-190.72a96 96 0 0 0-139.328-101.248L512 91.84l-171.264-90.048z"  horiz-adv-x="1024" />
      
      <glyph glyph-name="shuaxin2" unicode="&#59586;" d="M196.352 355.52a320 320 0 0 1 521.472-217.92l-29.44 36.352a32 32 0 0 0 19.712 51.776l144.96 23.616a32 32 0 0 0 34.944-43.2l-53.248-136.896a32 32 0 0 0-54.656-8.512l-22.08 27.2-5.12-4.352a384 384 0 0 0-620.224 266.112 32 32 0 1 0 63.68 5.824zM509.888 768a384 384 0 0 0 375.68-348.544 32 32 0 1 0-63.744-5.76 320 320 0 0 1-521.472 217.92l29.44-36.48a32 32 0 0 0-19.712-51.648l-144.96-23.68a32 32 0 0 0-34.944 43.2l53.248 136.896a32 32 0 0 0 54.656 8.512l22.08-27.136 5.12 4.288a382.528 382.528 0 0 0 244.608 82.432z"  horiz-adv-x="1024" />
      
      <glyph glyph-name="ruhezhizuo" unicode="&#59587;" d="M512 832a448 448 0 1 0 0-896A448 448 0 0 0 512 832z m0-64a384 384 0 1 1 0-768A384 384 0 0 1 512 768z m-0.384-576c18.112 0 33.856-5.952 46.208-17.792 11.52-11.904 18.176-27.136 18.176-45.76A62.784 62.784 0 0 0 511.616 64a63.488 63.488 0 0 0-45.44 18.624C453.76 94.528 448 109.76 448 128.448c0 18.624 5.76 33.92 18.176 45.76a62.72 62.72 0 0 0 45.44 17.792z m8.064 448c45.44 0 82.432-12.352 110.4-38.528 27.968-25.472 41.92-60.352 41.92-104.768 0-36.352-9.088-66.176-25.856-89.408a142.08 142.08 0 0 0-5.44-5.888l-8.768-8.704c-10.432-10.176-25.728-24.576-45.888-42.88-12.544-10.88-21.632-23.296-27.904-36.352a106.24 106.24 0 0 1-10.496-47.296V256H467.2v10.24c0 27.52 4.224 51.584 14.016 71.232 9.088 19.648 36.288 50.176 81.728 92.352l8.32 10.176c12.608 16 18.944 33.472 18.944 51.648 0 24-7.04 42.88-19.584 56.704-13.248 13.824-32.128 20.352-55.872 20.352-30.72 0-52.48-9.408-65.728-29.824-11.84-16.64-17.408-40.704-17.408-71.232H352c0 53.76 14.72 96 45.44 126.528C427.456 624.704 467.968 640 519.68 640z"  horiz-adv-x="1024" />
      
      <glyph glyph-name="binghangqushu" unicode="&#59580;" d="M576 832a64 64 0 0 0 64-64v-96a32 32 0 0 0-64 0V768H128v-768h448v96a32 32 0 1 0 64 0V0a64 64 0 0 0-64-64H128a64 64 0 0 0-64 64V768a64 64 0 0 0 64 64h448z m221.12-472.32a12.8 12.8 0 0 0 6.592-1.792l154.24-92.16a12.8 12.8 0 0 0 0-22.016l-154.24-92.16a12.8 12.8 0 0 0-19.392 10.88v60.288h-384.64a32 32 0 1 0 0 64h384.64v60.16c0 7.04 5.76 12.8 12.8 12.8z m0 258.56a12.8 12.8 0 0 0 6.592-1.792l154.24-92.16a12.8 12.8 0 0 0 0-22.016l-154.24-92.16a12.8 12.8 0 0 0-19.392 10.944v60.288h-384.64a32 32 0 0 0 0 64h384.64v60.16c0 7.04 5.76 12.8 12.8 12.8z"  horiz-adv-x="1024" />
      
      <glyph glyph-name="xiayi" unicode="&#59569;" d="M864 832A96 96 0 0 0 960 736v-704a96 96 0 0 0-96-96h-704A96 96 0 0 0 64 32v704A96 96 0 0 0 160 832z m0-64h-704a32 32 0 0 1-32-32v-704a32 32 0 0 1 32-32h704a32 32 0 0 1 32 32v704a32 32 0 0 1-32 32zM512 640.32a32 32 0 0 0 32-32v-394.688l169.92 161.536 4.544 3.584a32 32 0 0 0 39.616-49.92l-190.08-180.672-3.2-2.56c-32.832-25.344-81.92-23.104-111.872 5.312l-187.008 177.92-3.84 4.352a32 32 0 0 0 48 41.984L480 213.44v394.88a32 32 0 0 0 32 32z"  horiz-adv-x="1024" />
      
      <glyph glyph-name="shangyi" unicode="&#59568;" d="M864 832A96 96 0 0 0 960 736v-704a96 96 0 0 0-96-96h-704A96 96 0 0 0 64 32v704A96 96 0 0 0 160 832z m0-64h-704a32 32 0 0 1-32-32v-704a32 32 0 0 1 32-32h704a32 32 0 0 1 32 32v704a32 32 0 0 1-32 32zM564.8 622.72l3.2-2.56 190.08-180.672a32 32 0 0 0-39.616-49.92l-4.48 3.584L544 554.688V160a32 32 0 1 0-64 0V554.88L310.08 393.152a32 32 0 0 0-48 42.048l3.84 4.288 187.008 177.92c29.888 28.416 79.04 30.656 111.872 5.312z"  horiz-adv-x="1024" />
      
      <glyph glyph-name="ziduanshezhi1" unicode="&#59567;" d="M618.816 839.168a269.632 269.632 0 0 1-30.976-56.96H113.792v-284.416h528.256c21.76-23.232 47.616-42.56 76.416-56.96l-92.8 0.064v-113.792h227.648v85.76c19.648 0.96 38.72 4.096 56.96 9.024v-436.096c0-31.424-25.536-56.96-56.96-56.96H113.792a56.896 56.896 0 0 0-56.96 56.96V782.208c0 31.424 25.536 56.96 56.96 56.96h505.024zM341.312 99.584H113.792v-113.792h227.52v113.792z m512 0H625.728v-113.792h227.584v113.792z m-512 170.688H113.792v-113.856l227.52 0.064V270.272z m284.416 0v-113.792h227.584V270.144l-227.584 0.064zM341.312 440.96H113.728v-113.792h227.584V440.96z m538.88 397.184l1.28-0.576c2.752-1.088 9.6-4.16 21.632-10.944 15.936-9.088 21.632-13.824 21.632-13.824a24.32 24.32 0 0 0 7.04-23.68l-1.92-5.632a58.368 58.368 0 0 1 6.336-43.392 59.776 59.776 0 0 1 34.688-27.072l5.952-1.28a24.448 24.448 0 0 0 17.28-17.856h0.128s1.28-7.104 1.28-25.408c0-18.176-1.28-25.28-1.28-25.28a24.448 24.448 0 0 0-17.28-17.792l-5.568-1.408a59.712 59.712 0 0 1-35.008-27.136 58.176 58.176 0 0 1-6.4-43.2l1.792-5.76a24.32 24.32 0 0 0-7.04-23.68s-5.568-4.672-21.568-13.76c-15.872-9.024-22.912-11.52-22.912-11.52a24.768 24.768 0 0 0-24.256 5.76l-3.904 4.224a60.544 60.544 0 0 1-82.688 0l-4.032-4.096a24.896 24.896 0 0 0-24.256-5.888s-6.848 2.496-22.848 11.584a153.6 153.6 0 0 0-21.568 13.824 24.128 24.128 0 0 0-7.04 23.68l1.664 5.44a58.368 58.368 0 0 1-6.4 43.456 59.456 59.456 0 0 1-34.88 27.2l-5.76 1.28A24.32 24.32 0 0 0 627.2 643.2s-1.024 5.44-1.28 19.008l-0.064 6.272c0 18.24 1.28 25.344 1.28 25.344a24.448 24.448 0 0 0 17.28 17.792l5.76 1.344a58.624 58.624 0 0 1 41.28 70.4l-1.728 5.76a23.872 23.872 0 0 0 7.04 23.552s5.568 4.736 21.504 13.888c16 8.96 22.912 11.52 22.912 11.52a24.768 24.768 0 0 0 24.32-5.76l4.032-4.352a60.16 60.16 0 0 1 41.216-16.192 59.904 59.904 0 0 1 41.088 16l4.16 4.48a24.768 24.768 0 0 0 24.256 5.76zM810.688 741.12c-40.768 0-73.728-32.512-73.728-72.704 0-40.192 33.024-72.704 73.728-72.704 40.64 0 73.6 32.512 73.6 72.704 0 40.192-32.96 72.704-73.6 72.704z"  horiz-adv-x="1024" />
      
      <glyph glyph-name="a-typeguanlixitongstatefocused" unicode="&#59557;" d="M890.744 464.116c-16.572 1.484-66.916 12.288-80.116 41.04-11.484 25.04 7.544 60.424 25.544 85.632l7.34 10.356a8 8 0 0 1-0.728 10.132l-99.94 105.252a8 8 0 0 1-10.6 0.896l-10.928-8.192c-14.972-11.264-64-40.416-91.944-27.096-22.4 10.632-28.572 49.104-29.772 79.4l-0.6 14.788A8 8 0 0 1 591.004 784h-157.988a8 8 0 0 1-7.996-7.696l-0.564-14.768c-1.2-30.296-7.372-68.768-29.772-79.4-27.884-13.32-76.968 15.832-92 27.096l-10.928 8.188a8 8 0 0 1-10.6-0.892L181.268 611.276a8 8 0 0 1-0.72-10.132l7.336-10.356c17.944-25.152 36.972-60.48 25.544-85.572-13.084-28.756-62.344-39.444-80.172-41.16l-13.984-1.276A8 8 0 0 1 112 454.812v-141.624a8 8 0 0 1 7.272-7.968l13.984-1.276c17.828-1.716 67.088-12.404 80.172-41.16 11.428-25.036-7.6-60.364-25.544-85.572l-7.324-10.296a8 8 0 0 1 0.716-10.144l99.868-105.284a8 8 0 0 1 10.616-0.888l10.924 8.228c15.032 11.26 64.116 40.356 92 27.096 22.4-10.692 28.572-49.104 29.772-79.46l0.564-14.768a8 8 0 0 1 7.996-7.696H512v218.18c-100.212 0.028-181.792 81.556-181.792 181.816 0 100.22 81.612 181.82 181.848 181.82 83.624 0 154.244-56.8 175.356-133.816H912v22.832a8 8 0 0 1-7.252 7.964l-14.004 1.32zM576 336a8 8 0 0 0 8 8h240a8 8 0 0 0 8-8v-112a8 8 0 0 0-8-8h-240a8 8 0 0 0-8 8v112zM576 104a8 8 0 0 0 8 8h320a8 8 0 0 0 8-8v-112a8 8 0 0 0-8-8h-320a8 8 0 0 0-8 8v112z"  horiz-adv-x="1024" />
      
      <glyph glyph-name="a-typegonggongshujustatefocused" unicode="&#59558;" d="M112 600a8 8 0 0 0 8 8h264v-268H120a8 8 0 0 0-8 8V600zM112 244a8 8 0 0 0 8 8h264v-268H120a8 8 0 0 0-8 8v252zM912 600a8 8 0 0 1-8 8H384v-268h520a8 8 0 0 1 8 8V600zM912 244a8 8 0 0 1-8 8H384v-268h520a8 8 0 0 1 8 8v252zM112 776a8 8 0 0 0 8 8h784a8 8 0 0 0 8-8v-72a8 8 0 0 0-8-8H120a8 8 0 0 0-8 8V776zM468 512a8 8 0 0 0 8 8h340a8 8 0 0 0 8-8v-76a8 8 0 0 0-8-8h-340a8 8 0 0 0-8 8V512zM468 156a8 8 0 0 0 8 8h340a8 8 0 0 0 8-8v-76a8 8 0 0 0-8-8h-340a8 8 0 0 0-8 8v76z"  horiz-adv-x="1024" />
      
      <glyph glyph-name="a-typemulustatefocused" unicode="&#59555;" d="M200 648v-88h88V648H200zM152 736c-24.5 0-40-15.5-40-40v-184c0-24.5 15.5-40 40-40h184c24.5 0 40 15.664 40 40.164V696c0 24.5-15.5 40-40 40H152zM424.028 728a8 8 0 0 0 8 8H904a8 8 0 0 0 8-8v-72a8 8 0 0 0-8-8H432.028a8 8 0 0 0-8 8V728zM424.028 288.388a8 8 0 0 0 8 8H904a8 8 0 0 0 8-8v-72a8 8 0 0 0-8-8H432.028a8 8 0 0 0-8 8v72zM200 208v-88h88v88H200z m-48 88c-24.5 0-40-15.5-40-40v-184c0-24.5 15.5-40 40-40h184c24.5 0 40 15.668 40 40.168V256c0 24.5-15.5 40-40 40H152zM424 552a8 8 0 0 0 8 8h296a8 8 0 0 0 8-8v-72a8 8 0 0 0-8-8h-296a8 8 0 0 0-8 8V552zM424 112a8 8 0 0 0 8 8h296a8 8 0 0 0 8-8v-72a8 8 0 0 0-8-8h-296a8 8 0 0 0-8 8v72z"  horiz-adv-x="1024" />
      
      <glyph glyph-name="a-typewodefenxistatefocused" unicode="&#59556;" d="M795.66 628.5l-273.364-182.244-275.796 91.932 26.984 80.956 236.204-78.736 238.636 159.092 47.336-71zM112 412a8 8 0 0 0 8 8h152a8 8 0 0 0 8-8v-288a8 8 0 0 0-8-8H120a8 8 0 0 0-8 8v288zM744 496a8 8 0 0 0 8 8h152a8 8 0 0 0 8-8v-372a8 8 0 0 0-8-8h-152a8 8 0 0 0-8 8v372zM112 60a8 8 0 0 0 8 8h784a8 8 0 0 0 8-8v-68a8 8 0 0 0-8-8H120a8 8 0 0 0-8 8v68zM428 324a8 8 0 0 0 8 8h152a8 8 0 0 0 8-8v-200a8 8 0 0 0-8-8h-152a8 8 0 0 0-8 8v200zM280 592c0-46.392-37.608-84-84-84s-84 37.608-84 84 37.608 84 84 84 84-37.608 84-84zM594.668 504c0-46.392-37.612-84-84-84-46.392 0-84 37.608-84 84s37.608 84 84 84c46.388 0 84-37.608 84-84zM912 700c0-46.392-37.608-84-84-84s-84 37.608-84 84 37.608 84 84 84 84-37.608 84-84z"  horiz-adv-x="1024" />
      
      <glyph glyph-name="jinyongshoushi1" unicode="&#59554;" d="M341.12-60.16l-4.48 4.224a120.96 120.96 0 0 0-3.52 3.84l-3.392 3.84-6.336 8.32-183.552 262.144a128 128 0 0 0 172.928 181.888l7.168-4.928L320 736A128 128 0 0 0 438.4 863.68L448 864a128 128 0 0 0 128-128L575.936 559.36l225.664-12.096a96 96 0 0 0 90.88-91.712l-0.064-9.28-3.328-60.672c-1.216-21.76-26.368-34.112-46.144-24.96a29.76 29.76 0 0 0-17.856 28.16l3.392 60.8a32 32 0 0 1-30.272 33.792l-225.664 12.032A64 64 0 0 0 512 559.36V736a64 64 0 1 1-128 0v-527.872l-86.848 124.16a64 64 0 1 1-104.896-73.344l183.552-262.144a62.72 62.72 0 0 1 10.24-11.392l8.448-9.152c5.824-5.248 13.44-8.256 21.504-8.256l109.184-0.064c6.976 0 13.504-3.2 18.112-8.448 15.616-17.856 3.648-55.552-20.096-55.552L416-96c-29.44 0-56.768 13.44-74.88 35.84zM928 128a192 192 0 1 1-384 0 192 192 0 0 1 384 0z m-226.24-123.392l123.968 214.72a128 128 0 0 0-123.968-214.656zM608 128a128 128 0 0 0 162.24 123.392l-123.968-214.72A127.616 127.616 0 0 0 608 128z"  horiz-adv-x="1024" />
      
      <glyph glyph-name="kaiqishoushi1" unicode="&#59553;" d="M878.592-5.312l25.088 450.88a96.192 96.192 0 0 1-90.752 101.76L587.264 559.36V736a128 128 0 0 1-128 128l-9.536-0.32A128 128 0 0 1 331.328 736l-0.064-336.832-7.232 4.928a128 128 0 0 1-172.864-181.888l183.552-262.144 6.272-8.32 6.976-7.68 4.864-4.544-1.92 2.304c18.048-23.68 46.08-37.824 76.416-37.824h355.456a96 96 0 0 1 95.808 90.688z m-38.784 455.104l-25.088-451.584a32 32 0 0 0-32-30.208H427.392a31.808 31.808 0 0 0-21.504 8.32l-8.448 9.088a62.848 62.848 0 0 0-10.24 11.392L203.52 258.944a64 64 0 0 0 104.832 73.408l86.848-124.16V736a64 64 0 1 0 128 0v-176.64a64 64 0 0 1 60.608-63.936l225.664-11.968a32 32 0 0 0 30.272-33.664z"  horiz-adv-x="1024" />
      
      <glyph glyph-name="guding1" unicode="&#59545;" d="M571.391963 213.312427l-22.271986-307.263808A36.991977 36.991977 0 0 0 512-127.99936a36.991977 36.991977 0 0 0-37.119977 34.047979l-22.399986 307.263808H130.752238a34.431978 34.431978 0 0 0-34.687978 34.175978V315.712363c0 18.879988 15.55199 34.175979 34.687978 34.175978h54.399966c22.975986 76.799952 64.76796 143.103911 118.911926 191.167881V759.488085h-34.687978a34.431978 34.431978 0 0 0-34.623979 34.111979V861.888021c0 18.815988 15.48799 34.111979 34.623979 34.111979h485.375696c19.135988 0 34.623978-15.29599 34.623979-34.111979V793.600064a34.431978 34.431978 0 0 0-34.623979-34.111979h-34.687978v-218.495863c54.143966-47.99997 95.99994-114.303929 118.975926-191.167881h54.399966c19.071988 0 34.623978-15.23199 34.623978-34.111978v-68.223958a34.431978 34.431978 0 0 0-34.687978-34.175978h-321.919799z"  horiz-adv-x="1024" />
      
      <glyph glyph-name="quxiaoguding" unicode="&#59552;" d="M632.768 853.568l348.8-348.8c13.76-13.76 13.952-35.904 0.384-49.472l-19.904-19.84L781.056 582.4l-0.064-148.096-0.768-0.128a448 448 0 0 1-105.856-23.936C575.36 373.76 512 300.8 512 190.528c0-104.512 70.528-192.704 171.584-232.96l-43.52-43.52a34.944 34.944 0 0 0-49.472 0.384l-231.36 231.36-236.864-204.8a37.632 37.632 0 0 0-51.2 2.176 37.632 37.632 0 0 0-2.176 51.2l204.8 236.864L42.368 462.592A34.944 34.944 0 0 0 42.048 512l49.088 49.088a34.944 34.944 0 0 0 49.408-0.384l39.104-39.04c71.744 38.656 149.504 56.256 222.912 51.84l156.992 156.992-24.96 24.96a34.944 34.944 0 0 0-0.384 49.408l49.088 49.088a34.944 34.944 0 0 0 49.472-0.384zM775.616 0l-14.72 2.048a270.08 270.08 0 0 0-15.168 3.072l10.24-2.176a268.672 268.672 0 0 0-14.912 3.2l4.672-1.024a264.704 264.704 0 0 0-18.368 4.864l13.696-3.84a263.296 263.296 0 0 0-17.152 4.928l3.456-1.088a259.136 259.136 0 0 0-12.608 4.224l9.152-3.2a257.088 257.088 0 0 0-15.872 5.76l6.72-2.56a253.568 253.568 0 0 0-14.784 5.888l8.064-3.392a241.28 241.28 0 0 0-39.168 19.584l-11.904 7.936-2.048 1.536C606.592 80.896 576 132.48 576 190.528c0 124.224 108.48 164.224 188.928 177.024l18.048 2.56 16.448 1.728h0.448l13.632 0.96 2.048 0.128 16.768 0.64h1.472l11.264 0.064V448l63.808-51.84H908.8l37.056-30.016 78.144-63.36-178.944-144.128v87.296c-10.56 0-24.32 0-39.616-0.96l-1.152-0.064-2.816-0.192-9.856-0.832-3.584-0.384-2.304-0.256a329.088 329.088 0 0 1-10.112-1.28l-4.48-0.64a278.592 278.592 0 0 1-26.752-5.76 205.184 205.184 0 0 1-22.784-7.68 152.512 152.512 0 0 1-20.288-10.432l-0.832-0.512c-27.712-17.6-47.616-45.696-47.616-90.88 0-30.336 12.608-58.24 33.6-80.32l1.408-1.344a122.368 122.368 0 0 1 13.44-12.096 171.712 171.712 0 0 1 17.792-12.032 172.48 172.48 0 0 1 28.16-12.992 171.84 171.84 0 0 1 11.072-3.456l5.568-1.408 0.832-0.192c3.584-0.896 7.232-1.6 10.88-2.24z"  horiz-adv-x="1024" />
      
      <glyph glyph-name="chajianxinxi" unicode="&#59551;" d="M452.650667 853.333333a163.242667 163.242667 0 0 0 162.986666-154.88l0.256-8.362666-0.384-10.453334-0.213333-3.413333-0.426667-4.181333-0.768-6.101334a162.773333 162.773333 0 0 0-8.106666-32l-0.426667-1.024h112.725333a85.333333 85.333333 0 0 0 85.333334-85.333333v-112.64a163.242667 163.242667 0 1 0 0-305.92V0a85.333333 85.333333 0 0 0-85.333334-85.333333H170.666667a85.333333 85.333333 0 0 0-85.333334 85.333333L85.333333 140.58666700000003a163.242667 163.242667 0 1 1 0 282.752L85.333333 547.626667a85.333333 85.333333 0 0 0 85.333334 85.333333h129.024l-0.426667 0.981333-1.536 4.437334 1.578667-4.394667-2.56 7.594667-1.109334 3.626666a162.090667 162.090667 0 0 0-2.602666 10.496l-1.024 5.12-0.981334 6.101334-0.170666 1.024a163.541333 163.541333 0 0 0-0.853334 8.234666l-0.298666 3.413334A163.242667 163.242667 0 0 0 452.608 853.333333z"  horiz-adv-x="1024" />
      
      <glyph glyph-name="gongnengdian" unicode="&#59550;" d="M659.797333-0.0426670000000513A170.581333 170.581333 0 0 0 512-85.33333300000004a170.581333 170.581333 0 0 0-147.797333 85.290666h295.594666zM512 725.333333a298.666667 298.666667 0 0 0 170.709333-543.744L682.666667 128a85.333333 85.333333 0 0 0-85.333334-85.333333h-170.666666a85.333333 85.333333 0 0 0-85.333334 85.333333v53.546667A298.666667 298.666667 0 0 0 512 725.333333z m15.146667-79.573333a29.866667 29.866667 0 1 1 0-59.733333 140.8 140.8 0 0 0 140.8-140.8 29.866667 29.866667 0 1 1 59.733333 0 200.533333 200.533333 0 0 1-200.533333 200.533333z m433.194666-140.032a29.866667 29.866667 0 0 0-20.266666-33.621333l-3.968-0.981334-59.050667-10.410666a29.866667 29.866667 0 0 0-14.336 57.856l3.968 0.981333 59.050667 10.410667a29.866667 29.866667 0 0 0 34.602666-24.234667z m-866.133333 24.661333l4.053333-0.426666 59.050667-10.410667a29.866667 29.866667 0 0 0-6.314667-59.306667l-4.053333 0.426667-59.050667 10.453333a29.866667 29.866667 0 0 0 6.314667 59.264z m164.437333 244.266667l2.816-2.944 38.528-45.909333a29.866667 29.866667 0 0 0-42.922666-41.344l-2.816 2.944-38.570667 45.952a29.866667 29.866667 0 0 0 42.965333 41.301333z m546.005334 0.768a29.866667 29.866667 0 0 0 6.058666-38.826667l-2.389333-3.242666-38.570667-45.952a29.866667 29.866667 0 0 0-48.128 35.114666l2.389334 3.285334 38.528 45.909333a29.866667 29.866667 0 0 0 42.112 3.712zM512 881.92a29.866667 29.866667 0 0 0 29.610667-25.813333l0.256-4.053334v-59.989333a29.866667 29.866667 0 0 0-59.477334-4.053333l-0.256 4.053333V852.053333a29.866667 29.866667 0 0 0 29.866667 29.866667z"  horiz-adv-x="1024" />
      
      <glyph glyph-name="gongchengxinxi" unicode="&#59549;" d="M938.666667 768a42.666667 42.666667 0 0 0 42.666666-42.666667v-597.333333a42.666667 42.666667 0 0 0-42.666666-42.666667H85.333333a42.666667 42.666667 0 0 0-42.666666 42.666667V725.333333a42.666667 42.666667 0 0 0 42.666666 42.666667h853.333334z m0-42.666667H85.333333v-554.666666h853.333334V725.333333z m-42.666667-42.666666v-469.333334H128V682.666667h768zM328.533333 0h366.933334a29.866667 29.866667 0 0 0 0-59.733333H328.533333a29.866667 29.866667 0 0 0 0 59.733333zM512 170.66666699999996a42.666667 42.666667 0 0 0 42.666667-42.666667v-128a42.666667 42.666667 0 0 0-85.333334 0v128a42.666667 42.666667 0 0 0 42.666667 42.666667z"  horiz-adv-x="1024" />
      
      <glyph glyph-name="shangwuxinxi" unicode="&#59548;" d="M298.666667 354.133333v-25.6a29.866667 29.866667 0 0 1 59.733333 0v25.6h307.285333v-25.6a29.866667 29.866667 0 0 1 25.813334-29.610666l4.053333-0.298667a29.866667 29.866667 0 0 1 29.866667 29.866667V354.133333H981.333333V42.66666699999996a85.333333 85.333333 0 0 0-85.333333-85.333334H128a85.333333 85.333333 0 0 0-85.333333 85.333334v311.466666h256z m341.333333 443.733334a115.2 115.2 0 0 0 114.986667-107.946667L755.2 682.666667v-42.666667H896a85.333333 85.333333 0 0 0 85.333333-85.333333v-140.8h-255.914666v25.6a29.866667 29.866667 0 0 1-25.813334 29.568l-4.053333 0.256a29.866667 29.866667 0 0 1-29.866667-29.866667v-25.557333H358.4v25.6a29.866667 29.866667 0 0 1-25.813333 29.610666L328.533333 469.333333a29.866667 29.866667 0 0 1-29.866666-29.866666v-25.6H42.666667V554.666667a85.333333 85.333333 0 0 0 85.333333 85.333333h140.8V682.666667a115.2 115.2 0 0 0 107.946667 114.986666L384 797.866667h256z m0-59.733334H384a55.466667 55.466667 0 0 1-55.168-49.792L328.533333 682.666667v-42.666667h366.933334V682.666667A55.466667 55.466667 0 0 1 640 738.133333z"  horiz-adv-x="1024" />
      
      <glyph glyph-name="kehuxinxi" unicode="&#59547;" d="M636.714667 389.632c24.746667-4.266667 53.162667-9.301333 84.992-15.146667a256 256 0 0 0 205.738666-205.994666l26.453334-145.578667A128 128 0 0 0 827.946667-128H196.053333a128 128 0 0 0-125.952 150.912l26.453334 145.578667a256 256 0 0 0 205.738666 205.994666c31.829333 5.845333 60.16 10.88 85.077334 15.104A340.053333 340.053333 0 0 1 384 341.33333300000004c0-92.885333 35.626667-171.904 85.333333-201.173333V256h85.333334v-115.882667c49.706667 29.269333 85.333333 108.288 85.333333 201.216 0 16.64-1.152 32.768-3.285333 48.298667zM512 401.664l60.330667-42.496L512 281.002667l-60.330667 78.165333L512 401.664zM512 896a234.666667 234.666667 0 1 0 0-469.333333 234.666667 234.666667 0 0 0 0 469.333333z"  horiz-adv-x="1024" />
      
      <glyph glyph-name="zhucexinxi1" unicode="&#59546;" d="M810.666667 264.53333299999997a34.133333 34.133333 0 0 0 34.133333-34.133333v-102.357333l102.4-0.042667a34.133333 34.133333 0 1 0 0-68.266667l-102.4 0.042667V-42.66666699999996a34.133333 34.133333 0 1 0-68.266667 0v102.442667l-102.4-0.042667a34.133333 34.133333 0 1 0 0 68.266667l102.4 0.042667V230.39999999999998a34.133333 34.133333 0 0 0 34.133334 34.133333zM896 725.333333a85.333333 85.333333 0 0 0 85.333333-85.333333v-393.642667A234.666667 234.666667 0 0 1 613.973333-42.66666699999996L128-42.66666699999996a85.333333 85.333333 0 0 0-85.333333 85.333334V640a85.333333 85.333333 0 0 0 85.333333 85.333333h768zM396.8 213.33333300000004H200.533333a29.866667 29.866667 0 0 1-4.053333-59.477333l4.053333-0.256h196.266667a29.866667 29.866667 0 0 1 0 59.733333z m170.666667 170.666667H200.533333a29.866667 29.866667 0 0 1-4.053333-59.477333l4.053333-0.256h366.933334a29.866667 29.866667 0 0 1 0 59.733333z m170.666666 170.666667H200.533333a29.866667 29.866667 0 0 1-4.053333-59.477334L200.533333 494.933333h537.6a29.866667 29.866667 0 0 1 0 59.733334z"  horiz-adv-x="1024" />
      
      <glyph glyph-name="tuichuxiezuo" unicode="&#59544;" d="M512.816 333.404a8 8 0 0 1 0-11.312l133.504-133.504-133.504-133.5a8 8 0 0 1 0-11.316l49.78-49.78a8 8 0 0 1 11.316 0l133.5 133.504 133.5-133.504a8 8 0 0 1 11.316 0l49.78 49.784a8 8 0 0 1 0 11.312l-133.5 133.5 133.5 133.5a8 8 0 0 1 0 11.316l-49.78 49.78a8 8 0 0 1-11.316 0l-133.5-133.5-133.5 133.5a8 8 0 0 1-11.316 0l-49.78-49.78zM908 616c0-88.364-71.636-160-160-160-48.192 0-91.408 21.308-120.744 55.016l-158.636-91.844A179.936 179.936 0 0 0 476 368a179.6 179.6 0 0 0-11.828-64.308c-9.832-25.692-16.172-35.536-33.304-54.904C397.888 211.50800000000004 349.688 188 296 188c-99.412 0-180 80.588-180 180s80.588 180 180 180c58.712 0 110.86-28.112 143.72-71.608l156.012 90.324A159.912 159.912 0 0 0 588 616c0 88.364 71.636 160 160 160s160-71.636 160-160z m-160-88c48.6 0 88 39.4 88 88s-39.4 88-88 88-88-39.4-88-88 39.4-88 88-88zM296 260c59.648 0 108 48.352 108 108s-48.352 108-108 108-108-48.352-108-108 48.352-108 108-108z"  horiz-adv-x="1024" />
      
      <glyph glyph-name="tishi" unicode="&#59718;" d="M468 120a16 16 0 0 1 16-16h56a16 16 0 0 1 16 16v304a16 16 0 0 1-16 16h-56a16 16 0 0 1-16-16v-304zM448 600c0-35.348 28.652-64 64-64s64 28.652 64 64-28.652 64-64 64-64-28.652-64-64zM960 384c0 247.424-200.576 448-448 448S64 631.424 64 384s200.576-448 448-448 448 200.576 448 448z m-64 0c0-212.076-171.924-384-384-384-212.08 0-384 171.924-384 384 0 212.08 171.92 384 384 384 212.076 0 384-171.92 384-384z"  horiz-adv-x="1024" />
      
      <glyph glyph-name="tupian" unicode="&#59717;" d="M572 456c37.556 0 68 30.444 68 68s-30.444 68-68 68-68-30.444-68-68 30.444-68 68-68zM911.984 768a16 16 0 0 1-16 16H128a16 16 0 0 1-16-16v-768a16 16 0 0 1 16-16h768a16 16 0 0 1 16 16l-0.016 768z m-293.416-554L848 443.432V48h-63.432l-166 166zM176 286.06399999999996l136 137.368L687.432 48H176v238.064zM176 720l672-0.02v-183.412l-276-276-237.372 237.372-0.808 0.78a32 32 0 0 1-44.448-0.78L176 384.568V720z"  horiz-adv-x="1024" />
      
      <glyph glyph-name="a-60-jinyongyonghu" unicode="&#59716;" d="M260 348a8 8 0 0 1 8-8h496a8 8 0 0 1 8 8v72a8 8 0 0 1-8 8H268a8 8 0 0 1-8-8v-72zM516 832c247.424 0 448-200.576 448-448S763.424-64 516-64 68 136.576 68 384 268.576 832 516 832z m0-72c-207.66 0-376-168.34-376-376s168.34-376 376-376 376 168.34 376 376-168.34 376-376 376z"  horiz-adv-x="1024" />
      
      <glyph glyph-name="a-fabuquxiaofabuon" unicode="&#59714;" d="M71.108 492.984c-8.468 8.464-4.976 22.888 6.424 26.548l813.072 260.956c12.396 3.976 24.104-7.728 20.124-20.124L649.8-52.736c-3.66-11.4-18.084-14.892-26.548-6.424l-241.856 241.856 105.98 176.632-180.272-102.34-235.996 235.996z m100.128-9.62l146.656-146.656 296.704 168.44c14.304 8.12 30.08-8.04 21.62-22.148l-174.232-290.384 151.648-151.648 205.872 648.292-648.268-205.896z"  horiz-adv-x="1024" />
      
      <glyph glyph-name="a-fabuquxiaofabuoff" unicode="&#59715;" d="M316.504 596.228L77.532 519.532c-11.4-3.66-14.888-18.084-6.424-26.548l235.996-235.996 180.272 102.34-105.98-176.632 241.856-241.856c8.464-8.468 22.888-4.976 26.548 6.424l76.688 238.98-50.64 50.64-62.216-195.916-151.648 151.648 96.8 161.332-76.236 76.236-164.656-93.476-146.656 146.656 195.908 62.224-50.64 50.64zM757.652 494.492l61.852 194.768-194.764-61.856-51.292 51.292 317.156 101.792c12.396 3.976 24.104-7.728 20.124-20.124l-101.78-317.168-51.296 51.296zM306.32 730.86a8 8 0 0 0 0 11.316l33.944 33.94a8 8 0 0 0 11.316 0l554.368-554.372a7.992 7.992 0 0 0 0-11.312l-33.94-33.944a8 8 0 0 0-11.312 0L306.324 730.86z"  horiz-adv-x="1024" />
      
      <glyph glyph-name="a-guachuzhuangtaiguachu" unicode="&#59713;" d="M287.744 448.037852a7.968872 7.968872 0 0 0 0 11.267985l39.445914 39.445914a7.968872 7.968872 0 0 0 11.267985 0l126.234895-126.234895 236.372669 236.372669a7.968872 7.968872 0 0 0 11.267984 0l39.445915-39.445914a7.968872 7.968872 0 0 0 0-11.267985l-239.58014-239.58014a7.968872 7.968872 0 0 0-1.880654-2.976373l-39.44193-39.445915c-2.275113-2.271128-5.57821-2.884732-8.407159-1.836824a7.944965 7.944965 0 0 0-3.701541 2.095813l-39.445915 39.445914a7.925043 7.925043 0 0 0-1.498148 2.079876l-130.079875 130.079875zM176.311284 781.818023h669.38123a15.937743 15.937743 0 0 0 15.937743-15.937743V-47.713618999999994c0-12.160498-13.068949-19.84249-23.691455-13.925603l-319.862537 178.096311a15.937743 15.937743 0 0 1-15.531331-0.011953L184.084918-61.57945500000005c-10.622506-5.936809-23.715362 1.741198-23.715362 13.91365V765.88028a15.937743 15.937743 0 0 0 15.937744 15.937743z m55.782101-71.719844v-653.447471l278.906522 148.715082 278.910505-148.715082v653.447471h-557.821011z"  horiz-adv-x="1024" />
      
      <glyph glyph-name="a-quedingon" unicode="&#59712;" d="M911.236 640L385.332 114.096 115.432 384 172 440.568l213.332-213.332L854.668 696.568 911.236 640z"  horiz-adv-x="1024" />
      
      <glyph glyph-name="dilijiaose" unicode="&#59710;" d="M512 680c70.692 0 128-57.308 128-128 0-70.692-57.308-128-128-128-70.692 0-128 57.308-128 128 0 70.692 57.308 128 128 128z m0-64c-35.348 0-64-28.652-64-64s28.652-64 64-64 64 28.652 64 64-28.652 64-64 64zM719.068 335.384a291.236 291.236 0 0 1 79.36 148.956 291.78 291.78 0 0 1-16.504 168.08 290.72 290.72 0 0 1-106.812 130.552A289.34 289.34 0 0 1 514 832a289.348 289.348 0 0 1-161.112-49.028 290.72 290.72 0 0 1-106.812-130.556 291.76 291.76 0 0 1-16.504-168.076 291.212 291.212 0 0 1 79.36-148.956l199.404-200.028a7.996 7.996 0 0 1 11.328 0l199.404 200.028z m-48.076 48.336L514 224.644 357.008 383.72c-31.04 31.484-52.18 71.596-60.744 115.264a228.048 228.048 0 0 0 12.64 130.056c16.8 41.132 45.256 76.288 81.76 101.024A219.828 219.828 0 0 0 514 768c43.904 0 86.824-13.2 123.332-37.936 36.508-24.732 64.96-59.888 81.764-101.024a228.04 228.04 0 0 0 12.64-130.056c-8.56-43.668-29.7-83.78-60.744-115.264zM192 48a8 8 0 0 0 8 8h623.748a8 8 0 0 0 8-8v-56a8 8 0 0 0-8-8H200a8 8 0 0 0-8 8v56z"  horiz-adv-x="1024" />
      
      <glyph glyph-name="qingkongsuoxuanshuju" unicode="&#59711;" d="M682.724 455.432a8 8 0 0 1 0 11.312l-39.596 39.6a8 8 0 0 1-11.316 0l-121.62-121.624-121.624 121.624a8 8 0 0 1-11.312 0l-39.6-39.6a8 8 0 0 1 0-11.312l121.624-121.624-121.624-121.62a8 8 0 0 1 0-11.316l39.6-39.596a8 8 0 0 1 11.312 0l121.624 121.62 121.624-121.62a8 8 0 0 1 11.312 0l39.596 39.596a7.996 7.996 0 0 1 0 11.316l-121.62 121.62 121.62 121.624zM438.46 752c4.52 0 8.832-1.916 11.868-5.272L488.956 704h228.196a16 16 0 0 0 11.576-4.952l71.752-75.172h94.472a16 16 0 0 0 16-16V16a16 16 0 0 0-16-16H128a16 16 0 0 0-16 16V736a16 16 0 0 0 16 16h310.46z m-17.312-72.408H176.564v-607.184h669.82V555.656h-308.828l-116.408 123.936z"  horiz-adv-x="1024" />
      
      <glyph glyph-name="a-danxuanonqianseonstatecheck" unicode="&#59705;" d="M512 160c123.712 0 224 100.288 224 224s-100.288 224-224 224-224-100.288-224-224 100.288-224 224-224zM960 384c0-247.424-200.576-448-448-448S64 136.576 64 384 264.576 832 512 832s448-200.576 448-448z m-64 0c0 212.08-171.924 384-384 384-212.08 0-384-171.92-384-384 0-212.076 171.92-384 384-384 212.076 0 384 171.924 384 384z"  horiz-adv-x="1024" />
      
      <glyph glyph-name="a-danxuanoffqianseonstatebanxuanze" unicode="&#59706;" d="M96 832a32 32 0 0 1-32-32v-832a32 32 0 0 1 32-32h832a32 32 0 0 1 32 32V800a32 32 0 0 1-32 32H96z m64-64h704a32 32 0 0 0 32-32v-704a32 32 0 0 0-32-32H160a32 32 0 0 0-32 32V736a32 32 0 0 0 32 32zM288 589.332A18.668 18.668 0 0 0 306.668 608h410.664A18.668 18.668 0 0 0 736 589.332v-410.664a18.664 18.664 0 0 0-18.668-18.668H306.668A18.668 18.668 0 0 0 288 178.668V589.332z"  horiz-adv-x="1024" />
      
      <glyph glyph-name="a-danxuanoffqianseonstatecheck" unicode="&#59707;" d="M96 832a32 32 0 0 1-32-32v-832a32 32 0 0 1 32-32h832a32 32 0 0 1 32 32V800a32 32 0 0 1-32 32H96z m661.692-228l56.568-56.568-383.1-383.1-56.568 56.568 0.024 0.028L208 387.544l56.568 56.568 166.616-166.616L757.692 604z"  horiz-adv-x="1024" />
      
      <glyph glyph-name="a-danxuanoffqianseonstatenormal" unicode="&#59708;" d="M96 832a32 32 0 0 1-32-32v-832a32 32 0 0 1 32-32h832a32 32 0 0 1 32 32V800a32 32 0 0 1-32 32H96z m64-64h704a32 32 0 0 0 32-32v-704a32 32 0 0 0-32-32H160a32 32 0 0 0-32 32V736a32 32 0 0 0 32 32z"  horiz-adv-x="1024" />
      
      <glyph glyph-name="a-danxuanonqianseonstatenormal" unicode="&#59709;" d="M512-64c247.424 0 448 200.576 448 448S759.424 832 512 832 64 631.424 64 384s200.576-448 448-448z m0 64c-212.08 0-384 171.924-384 384 0 212.08 171.92 384 384 384 212.076 0 384-171.92 384-384 0-212.076-171.924-384-384-384z"  horiz-adv-x="1024" />
      
      <glyph glyph-name="a-leixingyouxiu3-1" unicode="&#59649;" d="M512 832C264.576 832 64 631.424 64 384s200.576-448 448-448 448 200.576 448 448h-72c0-207.66-168.34-376-376-376s-376 168.34-376 376 168.34 376 376 376V832zM958.836 662.492a8 8 0 0 0 0-11.336L510.784 205a8 8 0 0 0-11.292 0L242.356 461.04a8 8 0 0 0 0 11.336l55.48 55.176a8 8 0 0 0 11.296 0l190.36-189.608a7.996 7.996 0 0 1 11.292 0l381.276 379.724a8 8 0 0 0 11.292 0l55.484-55.176z"  horiz-adv-x="1024" />
      
      <glyph glyph-name="a-leixingzhaixingfangxiangup" unicode="&#59697;" d="M452.08-19.416a8 8 0 0 0-8 8V540.332l-199.912-199.912a8 8 0 0 0-11.312 0l-79.2 79.196a8 8 0 0 0 0 11.312l271.448 271.448 0.084 0.08 79.196 79.2a8 8 0 0 0 11.312 0l350.728-350.724a8 8 0 0 0 0-11.316l-79.196-79.196a8 8 0 0 0-11.316 0L572.08 544.256v-555.672a8 8 0 0 0-8-8h-112z"  horiz-adv-x="1024" />
      
      <glyph glyph-name="a-leixingkuanxingfangxiangmiddle" unicode="&#59698;" d="M882.98 411.84a16.008 16.008 0 0 0 0-23.68l-312.216-283.832c-10.28-9.344-26.764-2.048-26.764 11.84V272H144a16 16 0 0 0-16 16V512a16 16 0 0 0 16 16h400V683.832c0 13.892 16.484 21.184 26.764 11.84l312.216-283.832z"  horiz-adv-x="1024" />
      
      <glyph glyph-name="a-leixingruilifangxiangmiddle" unicode="&#59699;" d="M508 80.776c0-6.732 7.804-10.452 13.036-6.216l371.616 301.008a16 16 0 0 1 0 24.864L521.036 701.44c-5.232 4.24-13.036 0.516-13.036-6.216v-185.724c-220.92 0-400-181.32-400-405 0-11.056 0.4-21.992 1.28-32.804 60.32 115.828 165.056 194.804 318.72 194.804h80v-185.724z"  horiz-adv-x="1024" />
      
      <glyph glyph-name="a-leixingxianxingfangxiangmiddle" unicode="&#59700;" d="M668.632 573.352a8 8 0 0 0 0.06 11.312l45.488 45.02a8 8 0 0 0 11.316-0.056l232.148-234.612a8 8 0 0 0-0.004-11.256l-239.156-241.624a8 8 0 0 0-11.312-0.06l-45.492 45.02a8 8 0 0 0-0.056 11.316L801.772 340H72a8 8 0 0 0-8 8v84a8 8 0 0 0 8 8h728.576l-131.944 133.352z"  horiz-adv-x="1024" />
      
      <glyph glyph-name="a-leixingzhaixingfangxiangmiddle" unicode="&#59701;" d="M108.336 440.252a8 8 0 0 0 8 8h551.748l-199.912 199.912a8 8 0 0 0 0 11.316l79.196 79.196a8 8 0 0 0 11.312 0l271.448-271.448 0.084-0.084 79.192-79.196h0.004a8 8 0 0 0 0-11.312l-350.724-350.724a8 8 0 0 0-11.316 0l-79.196 79.196a8 8 0 0 0 0 11.312l203.832 203.832H116.336a8 8 0 0 0-8 8v112z"  horiz-adv-x="1024" />
      
      <glyph glyph-name="a-leixingzhaixingfangxiangdown" unicode="&#59702;" d="M568 784a8 8 0 0 0 8-8v-551.748l199.912 199.912a8 8 0 0 0 11.312 0l79.196-79.196a8 8 0 0 0 0-11.312l-271.448-271.448-0.08-0.084-79.196-79.192v-0.004a8 8 0 0 0-11.316 0l-350.724 350.724a8 8 0 0 0 0 11.316l79.196 79.196a8 8 0 0 0 11.312 0L448 220.332V776a8 8 0 0 0 8 8h112z"  horiz-adv-x="1024" />
      
      <glyph glyph-name="a-leixingkuanxingfangxiangdown" unicode="&#59703;" d="M523.844 13.3a16 16 0 0 0-23.68 0l-283.832 312.212c-9.344 10.28-2.052 26.764 11.84 26.764h155.832V752a16 16 0 0 0 16 16h224a16 16 0 0 0 16-16v-399.724h155.828c13.892 0 21.184-16.484 11.84-26.764l-283.828-312.212z"  horiz-adv-x="1024" />
      
      <glyph glyph-name="a-leixingkuanxingfangxiangup" unicode="&#59704;" d="M500.164 754.976a16 16 0 0 0 23.68 0l283.832-312.212c9.344-10.276 2.048-26.764-11.84-26.764h-155.832v-400a16 16 0 0 0-16-16h-224a16 16 0 0 0-16 16V416H228.172c-13.888 0-21.184 16.488-11.84 26.764l283.832 312.212z"  horiz-adv-x="1024" />
      
      <glyph glyph-name="a-fabuzhuangtaiyifabu" unicode="&#59694;" d="M512-64c247.424 0 448 200.576 448 448S759.424 832 512 832 64 631.424 64 384s200.576-448 448-448z m162.904 572.992a8 8 0 0 0 11.312 0l38.444-38.44a8 8 0 0 0 0-11.316l-236.992-236.988a8 8 0 0 0-10.368-0.812 8.048 8.048 0 0 0-1.608 1.248l-147 146.996a8 8 0 0 0 0 11.316l38.44 38.44a8 8 0 0 0 11.32 0l103.444-103.448 193.008 193.004z"  horiz-adv-x="1024" />
      
      <glyph glyph-name="a-fabuzhuangtaishenqingfabu" unicode="&#59695;" d="M512-64c247.424 0 448 200.576 448 448S759.424 832 512 832 64 631.424 64 384s200.576-448 448-448z m152.012 619.944c6.24 2.06 12.164-3.864 10.104-10.104l-131.884-399.68c-1.868-5.656-9.044-7.36-13.256-3.148L428 243.988l62.408 127.912-127.912-62.408-101.312 101.312c-4.212 4.212-2.508 11.388 3.148 13.256l399.68 131.88z"  horiz-adv-x="1024" />
      
      <glyph glyph-name="a-fabuzhuangtaishenqingquxiaofabu" unicode="&#59696;" d="M512-64c247.424 0 448 200.576 448 448S759.424 832 512 832 64 631.424 64 384s200.576-448 448-448z m-152.276 253.404c-6.24-2.06-12.16 3.864-10.104 10.104l131.884 399.68c1.868 5.656 9.044 7.36 13.256 3.148l100.976-100.976-62.408-127.912 127.912 62.404 101.312-101.308c4.212-4.212 2.508-11.388-3.148-13.256l-399.68-131.884z"  horiz-adv-x="1024" />
      
      <glyph glyph-name="a-leixingtianjiamulu" unicode="&#59680;" d="M112 768a16 16 0 0 0 16 16h768a16 16 0 0 0 16-16v-384h-64V720H176v-672h336v-64H128a16 16 0 0 0-16 16V768zM392 228h120v-72H392a8 8 0 0 0-8 8v56a8 8 0 0 0 8 8zM384 604a8 8 0 0 0 8 8h368a8 8 0 0 0 8-8v-56a8 8 0 0 0-8-8H392a8 8 0 0 0-8 8V604zM392 420a8 8 0 0 1-8-8v-56a8 8 0 0 1 8-8h264a8 8 0 0 1 8 8v56a8 8 0 0 1-8 8H392zM256 612a8 8 0 0 1-8-8v-56a8 8 0 0 1 8-8h56a8 8 0 0 1 8 8V604a8 8 0 0 1-8 8H256zM248 412a8 8 0 0 0 8 8h56a8 8 0 0 0 8-8v-56a8 8 0 0 0-8-8H256a8 8 0 0 0-8 8v56zM256 228a8 8 0 0 1-8-8v-56a8 8 0 0 1 8-8h56a8 8 0 0 1 8 8v56a8 8 0 0 1-8 8H256zM724 328a8 8 0 0 0 8 8h56a8 8 0 0 0 8-8v-156h156a8 8 0 0 0 8-8v-56a8 8 0 0 0-8-8h-156v-156a8 8 0 0 0-8-8h-56a8 8 0 0 0-8 8v156h-156a8 8 0 0 0-8 8v56a8 8 0 0 0 8 8h156v156z"  horiz-adv-x="1024" />
      
      <glyph glyph-name="a-leixingtianjiashouye" unicode="&#59681;" d="M128 784a16 16 0 0 1-16-16v-768a16 16 0 0 1 16-16h384v64H176V720h672v-336h64V768a16 16 0 0 1-16 16H128zM732 336a8 8 0 0 1-8-8v-156h-156a8 8 0 0 1-8-8v-56a8 8 0 0 1 8-8h156v-156a8 8 0 0 1 8-8h56a8 8 0 0 1 8 8v156h156a8 8 0 0 1 8 8v56a8 8 0 0 1-8 8h-156v156a8 8 0 0 1-8 8h-56zM291.948 436.796v-205.852a16 16 0 0 1 16-16h330.68a16 16 0 0 1 16 16v210.728l34.228-34.228a8 8 0 0 1 11.316 0l30.068 30.068a8 8 0 0 1 0 11.316l-232.544 232.544a32 32 0 0 1-45.256 0l-234.784-234.784a8 8 0 0 1 0-11.312l30.896-30.892a8 8 0 0 1 11.34 0.028l32.056 32.384z m60.096 60.72l122.736 124.004 119.752-119.752v-226.728H352.044V497.516z"  horiz-adv-x="1024" />
      
      <glyph glyph-name="a-leixingtianjiaBImoban" unicode="&#59691;" d="M112 768a16 16 0 0 0 16 16h768a16 16 0 0 0 16-16v-384h-64V720H176v-672h336v-64H128a16 16 0 0 0-16 16V768zM488 164v-56H248a8 8 0 0 0-8 8v40a8 8 0 0 0 8 8h240zM600 668a8 8 0 0 1-8 8h-32a8 8 0 0 1-8-8v-320a8 8 0 0 1 8-8h32a8 8 0 0 1 8 8V668zM640 232a8 8 0 0 0-8-8H248a8 8 0 0 0-8 8v40a8 8 0 0 0 8 8h384a8 8 0 0 0 8-8v-40zM240 664a8 8 0 0 0 8 8h128c50.812 0 92-41.188 92-92a91.644 91.644 0 0 0-23.336-61.232C472.992 502.08 492 471.26 492 436c0-53.02-42.98-96-96-96H248a8 8 0 0 0-8 8V664z m134.064-132C399.44 532.036 420 552.616 420 578c0 25.404-20.596 46-46 46H288v-92h86.064zM288 488v-100h106c27.616 0 50 22.384 50 50S421.616 488 394 488H288zM724 328a8 8 0 0 0 8 8h56a8 8 0 0 0 8-8v-156h156a8 8 0 0 0 8-8v-56a8 8 0 0 0-8-8h-156v-156a8 8 0 0 0-8-8h-56a8 8 0 0 0-8 8v156h-156a8 8 0 0 0-8 8v56a8 8 0 0 0 8 8h156v156z"  horiz-adv-x="1024" />
      
      <glyph glyph-name="a-leixingshangbaobiaoqian" unicode="&#59692;" d="M128 784a16 16 0 0 1-16-16v-768a16 16 0 0 1 16-16h384v64H176V720h672v-336h64V768a16 16 0 0 1-16 16H128zM516.696 613.656a8 8 0 0 0 0-11.312L348.832 434.48a8 8 0 0 0-11.312 0L229.656 542.344a8 8 0 0 0 0 11.312L263.6 587.6a8 8 0 0 0 11.316 0L337.52 524.984a8 8 0 0 1 11.312 0L471.44 647.6a8 8 0 0 0 11.316 0l33.94-33.94zM364.168 128a112 112 0 1 0 0 224 112 112 0 0 0 0-224z m0 64a47.992 47.992 0 0 1 48 48 48 48 0 1 1-48-48zM776 484a8 8 0 0 1 8 8V548a8 8 0 0 1-8 8h-208a8 8 0 0 1-8-8v-56a8 8 0 0 1 8-8h208zM724 328a8 8 0 0 0 8 8h56a8 8 0 0 0 8-8v-156h156a8 8 0 0 0 8-8v-56a8 8 0 0 0-8-8h-156v-156a8 8 0 0 0-8-8h-56a8 8 0 0 0-8 8v156h-156a8 8 0 0 0-8 8v56a8 8 0 0 0 8 8h156v156z"  horiz-adv-x="1024" />
      
      <glyph glyph-name="a-leixingtianjialianjie" unicode="&#59693;" d="M128 784a16 16 0 0 1-16-16v-768a16 16 0 0 1 16-16h384v64H176V720h672v-336h64V768a16 16 0 0 1-16 16H128zM512 184h8.98l38.02 37.488a165.76 165.76 0 0 1-0.208 237.056l-31.264 30.72-51.272-50.552 31.268-30.72a95.128 95.128 0 0 0 0.12-136.044l-45.188-44.552c-38.136-37.6-100.024-37.656-138.228-0.12a95.128 95.128 0 0 0-0.12 136.044l49.96 49.256-51.36 50.46-49.96-49.256a165.76 165.76 0 0 1 0.212-237.056c65.964-64.812 172.452-65.304 239.04-1.552V184zM712 384h1.308l0.084 0.084a165.756 165.756 0 0 1-0.208 237.056c-66.568 65.4-174.4 65.308-240.856-0.212l-45.184-44.552a165.756 165.756 0 0 1 0.208-237.056l31.264-30.72 51.272 50.552-31.268 30.72a95.124 95.124 0 0 0-0.12 136.04l45.188 44.556c38.136 37.6 100.024 37.656 138.228 0.12a95.132 95.132 0 0 0 0.12-136.044l-48.008-47.332 51.36-50.46L712 382.708V384zM724 328a8 8 0 0 0 8 8h56a8 8 0 0 0 8-8v-156h156a8 8 0 0 0 8-8v-56a8 8 0 0 0-8-8h-156v-156a8 8 0 0 0-8-8h-56a8 8 0 0 0-8 8v156h-156a8 8 0 0 0-8 8v56a8 8 0 0 0 8 8h156v156z"  horiz-adv-x="1024" />
      
      </font>
</defs>
</svg>
