<?xml version="1.0" standalone="no"?>
<!DOCTYPE svg PUBLIC "-//W3C//DTD SVG 1.1//EN" "http://www.w3.org/Graphics/SVG/1.1/DTD/svg11.dtd" >
<svg xmlns="http://www.w3.org/2000/svg">
  <metadata>Created by iconfont</metadata>
  <defs>
  <font id="iconfont" horiz-adv-x="1024">
    <font-face
      font-family="iconfont"
      font-weight="400"
      font-stretch="normal"
      units-per-em="1024"
      ascent="896"
      descent="-128"
    />
      <missing-glyph />
      
      <glyph glyph-name="a-fabuquxiaofabuon" unicode="&#59714;" d="M71.108 492.984c-8.468 8.464-4.976 22.888 6.424 26.548l813.072 260.956c12.396 3.976 24.104-7.728 20.124-20.124L649.8-52.736c-3.66-11.4-18.084-14.892-26.548-6.424l-241.856 241.856 105.98 176.632-180.272-102.34-235.996 235.996z m100.128-9.62l146.656-146.656 296.704 168.44c14.304 8.12 30.08-8.04 21.62-22.148l-174.232-290.384 151.648-151.648 205.872 648.292-648.268-205.896z"  horiz-adv-x="1024" />
      
      <glyph glyph-name="a-fabuquxiaofabuoff" unicode="&#59715;" d="M316.504 596.228L77.532 519.532c-11.4-3.66-14.888-18.084-6.424-26.548l235.996-235.996 180.272 102.34-105.98-176.632 241.856-241.856c8.464-8.468 22.888-4.976 26.548 6.424l76.688 238.98-50.64 50.64-62.216-195.916-151.648 151.648 96.8 161.332-76.236 76.236-164.656-93.476-146.656 146.656 195.908 62.224-50.64 50.64zM757.652 494.492l61.852 194.768-194.764-61.856-51.292 51.292 317.156 101.792c12.396 3.976 24.104-7.728 20.124-20.124l-101.78-317.168-51.296 51.296zM306.32 730.86a8 8 0 0 0 0 11.316l33.944 33.94a8 8 0 0 0 11.316 0l554.368-554.372a7.992 7.992 0 0 0 0-11.312l-33.94-33.944a8 8 0 0 0-11.312 0L306.324 730.86z"  horiz-adv-x="1024" />
      
      <glyph glyph-name="a-guachuzhuangtaiguachu" unicode="&#59713;" d="M288.744093 448.037852a7.968872 7.968872 0 0 0 0 11.271969l39.44193 39.445914a7.968872 7.968872 0 0 0 11.267985 0l126.238879-126.238879 236.372669 236.372669a7.968872 7.968872 0 0 0 11.267985 0l39.445914-39.445914a7.968872 7.968872 0 0 0 0-11.267985l-239.58014-239.58014a8.004732 8.004732 0 0 0-1.880654-2.976373l-39.445914-39.44193a7.968872 7.968872 0 0 0-8.403175-1.840809 7.901136 7.901136 0 0 0-3.701541 2.099797l-39.445914 39.44193a7.988794 7.988794 0 0 0-1.498148 2.079876l-130.079876 130.079875zM177.307393 781.822008h669.385214a15.937743 15.937743 0 0 0 15.937743-15.937743v-813.601868c0-12.156514-13.068949-19.838506-23.691455-13.925603l-319.862537 178.100295a15.945712 15.945712 0 0 1-15.531331-0.011953l-318.460015-178.020607c-10.622506-5.940794-23.715362 1.741198-23.715362 13.909666V765.884265a15.937743 15.937743 0 0 0 15.937743 15.937743z m63.750973-71.719845a7.968872 7.968872 0 0 1-7.968872-7.968871v-632.198475c0-6.016498 6.410957-9.861479 11.718226-7.032529l263.442926 140.4673a7.980825 7.980825 0 0 0 7.498708 0l263.442926-140.4673c5.307268-2.828949 11.718226 1.016031 11.718226 7.032529V702.133292a7.968872 7.968872 0 0 1-7.968872 7.968871H241.058366z"  horiz-adv-x="1024" />
      
      <glyph glyph-name="a-quedingon" unicode="&#59712;" d="M911.236 640L385.332 114.096 115.432 384 172 440.568l213.332-213.332L854.668 696.568 911.236 640z"  horiz-adv-x="1024" />
      
      <glyph glyph-name="dilijiaose" unicode="&#59710;" d="M512 680c70.692 0 128-57.308 128-128 0-70.692-57.308-128-128-128-70.692 0-128 57.308-128 128 0 70.692 57.308 128 128 128z m0-64c-35.348 0-64-28.652-64-64s28.652-64 64-64 64 28.652 64 64-28.652 64-64 64zM719.068 335.384a291.236 291.236 0 0 1 79.36 148.956 291.78 291.78 0 0 1-16.504 168.08 290.72 290.72 0 0 1-106.812 130.552A289.34 289.34 0 0 1 514 832a289.348 289.348 0 0 1-161.112-49.028 290.72 290.72 0 0 1-106.812-130.556 291.76 291.76 0 0 1-16.504-168.076 291.212 291.212 0 0 1 79.36-148.956l199.404-200.028a7.996 7.996 0 0 1 11.328 0l199.404 200.028z m-48.076 48.336l-151.208-153.292a8.104 8.104 0 0 0-11.568 0L357.008 383.72c-31.04 31.484-52.18 71.596-60.744 115.264a228.048 228.048 0 0 0 12.64 130.056c16.8 41.132 45.256 76.288 81.76 101.024A219.828 219.828 0 0 0 514 768c43.904 0 86.824-13.2 123.332-37.936 36.508-24.732 64.96-59.888 81.764-101.024a228.04 228.04 0 0 0 12.64-130.056c-8.56-43.668-29.7-83.78-60.744-115.264zM192 48a8 8 0 0 0 8 8h623.748a8 8 0 0 0 8-8v-56a8 8 0 0 0-8-8H200a8 8 0 0 0-8 8v56z"  horiz-adv-x="1024" />
      
      <glyph glyph-name="qingkongsuoxuanshuju" unicode="&#59711;" d="M682.724 455.432a8 8 0 0 1 0 11.312l-39.596 39.6a8 8 0 0 1-11.316 0l-121.62-121.624-121.624 121.624a8 8 0 0 1-11.312 0l-39.6-39.6a8 8 0 0 1 0-11.312l121.624-121.624-121.624-121.62a8 8 0 0 1 0-11.316l39.6-39.596a8 8 0 0 1 11.312 0l121.624 121.62 121.624-121.62a8 8 0 0 1 11.312 0l39.596 39.596a7.996 7.996 0 0 1 0 11.316l-121.62 121.62 121.62 121.624zM438.46 752c4.52 0 8.832-1.916 11.868-5.272L488.956 704h228.196a16 16 0 0 0 11.576-4.952l71.752-75.172h94.472a16 16 0 0 0 16-16V16a16 16 0 0 0-16-16H128a16 16 0 0 0-16 16V736a16 16 0 0 0 16 16h310.46z m-17.312-72.408H176.564v-607.184h669.82V555.656h-308.828l-116.408 123.936z"  horiz-adv-x="1024" />
      
      <glyph glyph-name="a-danxuanonqianseonstatecheck" unicode="&#59705;" d="M512 160c123.712 0 224 100.288 224 224s-100.288 224-224 224-224-100.288-224-224 100.288-224 224-224zM960 384c0-247.424-200.576-448-448-448S64 136.576 64 384 264.576 832 512 832s448-200.576 448-448z m-64 0c0 212.08-171.924 384-384 384-212.08 0-384-171.92-384-384 0-212.076 171.92-384 384-384 212.076 0 384 171.924 384 384z"  horiz-adv-x="1024" />
      
      <glyph glyph-name="a-danxuanoffqianseonstatebanxuanze" unicode="&#59706;" d="M96 832a32 32 0 0 1-32-32v-832a32 32 0 0 1 32-32h832a32 32 0 0 1 32 32V800a32 32 0 0 1-32 32H96z m64-64h704a32 32 0 0 0 32-32v-704a32 32 0 0 0-32-32H160a32 32 0 0 0-32 32V736a32 32 0 0 0 32 32zM288 589.332A18.668 18.668 0 0 0 306.668 608h410.664A18.668 18.668 0 0 0 736 589.332v-410.664a18.664 18.664 0 0 0-18.668-18.668H306.668A18.668 18.668 0 0 0 288 178.668V589.332z"  horiz-adv-x="1024" />
      
      <glyph glyph-name="a-danxuanoffqianseonstatecheck" unicode="&#59707;" d="M96 832a32 32 0 0 1-32-32v-832a32 32 0 0 1 32-32h832a32 32 0 0 1 32 32V800a32 32 0 0 1-32 32H96z m661.692-228l56.568-56.568-383.1-383.1-56.568 56.568 0.024 0.028L208 387.544l56.568 56.568 166.616-166.616L757.692 604z"  horiz-adv-x="1024" />
      
      <glyph glyph-name="a-danxuanoffqianseonstatenormal" unicode="&#59708;" d="M96 832a32 32 0 0 1-32-32v-832a32 32 0 0 1 32-32h832a32 32 0 0 1 32 32V800a32 32 0 0 1-32 32H96z m64-64h704a32 32 0 0 0 32-32v-704a32 32 0 0 0-32-32H160a32 32 0 0 0-32 32V736a32 32 0 0 0 32 32z"  horiz-adv-x="1024" />
      
      <glyph glyph-name="a-danxuanonqianseonstatenormal" unicode="&#59709;" d="M512-64c247.424 0 448 200.576 448 448S759.424 832 512 832 64 631.424 64 384s200.576-448 448-448z m0 64c-212.08 0-384 171.924-384 384 0 212.08 171.92 384 384 384 212.076 0 384-171.92 384-384 0-212.076-171.924-384-384-384z"  horiz-adv-x="1024" />
      
      <glyph glyph-name="a-leixingyouxiu3-1" unicode="&#59649;" d="M512 832C264.576 832 64 631.424 64 384s200.576-448 448-448 448 200.576 448 448h-72c0-207.66-168.34-376-376-376s-376 168.34-376 376 168.34 376 376 376V832zM958.836 662.492a8 8 0 0 0 0-11.336L510.784 205a8 8 0 0 0-11.292 0L242.356 461.04a8 8 0 0 0 0 11.336l55.48 55.176a8 8 0 0 0 11.296 0l190.36-189.608a7.996 7.996 0 0 1 11.292 0l381.276 379.724a8 8 0 0 0 11.292 0l55.484-55.176z"  horiz-adv-x="1024" />
      
      <glyph glyph-name="a-leixingzhaixingfangxiangup" unicode="&#59697;" d="M452.08-19.416a8 8 0 0 0-8 8V540.332l-199.912-199.912a8 8 0 0 0-11.312 0l-79.2 79.196a8 8 0 0 0 0 11.312l271.448 271.448 0.084 0.08 79.196 79.2a8 8 0 0 0 11.312 0l350.728-350.724a8 8 0 0 0 0-11.316l-79.196-79.196a8 8 0 0 0-11.316 0L572.08 544.256v-555.672a8 8 0 0 0-8-8h-112z"  horiz-adv-x="1024" />
      
      <glyph glyph-name="a-leixingkuanxingfangxiangmiddle" unicode="&#59698;" d="M882.98 411.84a16.008 16.008 0 0 0 0-23.68l-312.216-283.832c-10.28-9.344-26.764-2.048-26.764 11.84V272H144a16 16 0 0 0-16 16V512a16 16 0 0 0 16 16h400V683.832c0 13.892 16.484 21.184 26.764 11.84l312.216-283.832z"  horiz-adv-x="1024" />
      
      <glyph glyph-name="a-leixingruilifangxiangmiddle" unicode="&#59699;" d="M508 80.776c0-6.732 7.804-10.452 13.036-6.216l371.616 301.008a16 16 0 0 1 0 24.864L521.036 701.44c-5.232 4.24-13.036 0.516-13.036-6.216v-185.724c-220.92 0-400-181.32-400-405 0-11.056 0.4-21.992 1.28-32.804 60.32 115.828 165.056 194.804 318.72 194.804h80v-185.724z"  horiz-adv-x="1024" />
      
      <glyph glyph-name="a-leixingxianxingfangxiangmiddle" unicode="&#59700;" d="M668.632 573.352a8 8 0 0 0 0.06 11.312l45.488 45.02a8 8 0 0 0 11.316-0.056l232.148-234.612a8 8 0 0 0-0.004-11.256l-239.156-241.624a8 8 0 0 0-11.312-0.06l-45.492 45.02a8 8 0 0 0-0.056 11.316L801.772 340H72a8 8 0 0 0-8 8v84a8 8 0 0 0 8 8h728.576l-131.944 133.352z"  horiz-adv-x="1024" />
      
      <glyph glyph-name="a-leixingzhaixingfangxiangmiddle" unicode="&#59701;" d="M108.336 440.252a8 8 0 0 0 8 8h551.748l-199.912 199.912a8 8 0 0 0 0 11.316l79.196 79.196a8 8 0 0 0 11.312 0l271.448-271.448 0.084-0.084 79.192-79.196h0.004a8 8 0 0 0 0-11.312l-350.724-350.724a8 8 0 0 0-11.316 0l-79.196 79.196a8 8 0 0 0 0 11.312l203.832 203.832H116.336a8 8 0 0 0-8 8v112z"  horiz-adv-x="1024" />
      
      <glyph glyph-name="a-leixingzhaixingfangxiangdown" unicode="&#59702;" d="M568 784a8 8 0 0 0 8-8v-551.748l199.912 199.912a8 8 0 0 0 11.312 0l79.196-79.196a8 8 0 0 0 0-11.312l-271.448-271.448-0.08-0.084-79.196-79.192v-0.004a8 8 0 0 0-11.316 0l-350.724 350.724a8 8 0 0 0 0 11.316l79.196 79.196a8 8 0 0 0 11.312 0L448 220.332V776a8 8 0 0 0 8 8h112z"  horiz-adv-x="1024" />
      
      <glyph glyph-name="a-leixingkuanxingfangxiangdown" unicode="&#59703;" d="M523.844 13.3a16 16 0 0 0-23.68 0l-283.832 312.212c-9.344 10.28-2.052 26.764 11.84 26.764h155.832V752a16 16 0 0 0 16 16h224a16 16 0 0 0 16-16v-399.724h155.828c13.892 0 21.184-16.484 11.84-26.764l-283.828-312.212z"  horiz-adv-x="1024" />
      
      <glyph glyph-name="a-leixingkuanxingfangxiangup" unicode="&#59704;" d="M500.164 754.976a16 16 0 0 0 23.68 0l283.832-312.212c9.344-10.276 2.048-26.764-11.84-26.764h-155.832v-400a16 16 0 0 0-16-16h-224a16 16 0 0 0-16 16V416H228.172c-13.888 0-21.184 16.488-11.84 26.764l283.832 312.212z"  horiz-adv-x="1024" />
      
      <glyph glyph-name="a-fabuzhuangtaiyifabu" unicode="&#59694;" d="M512-64c247.424 0 448 200.576 448 448S759.424 832 512 832 64 631.424 64 384s200.576-448 448-448z m162.904 572.992a8 8 0 0 0 11.312 0l38.444-38.44a8 8 0 0 0 0-11.316l-236.992-236.988a8 8 0 0 0-10.368-0.812 8.048 8.048 0 0 0-1.608 1.248l-147 146.996a8 8 0 0 0 0 11.316l38.44 38.44a8 8 0 0 0 11.32 0l103.444-103.448 193.008 193.004z"  horiz-adv-x="1024" />
      
      <glyph glyph-name="a-fabuzhuangtaishenqingfabu" unicode="&#59695;" d="M512-64c247.424 0 448 200.576 448 448S759.424 832 512 832 64 631.424 64 384s200.576-448 448-448z m152.012 619.944c6.24 2.06 12.164-3.864 10.104-10.104l-131.884-399.68c-1.868-5.656-9.044-7.36-13.256-3.148L428 243.988l62.408 127.912-127.912-62.408-101.312 101.312c-4.212 4.212-2.508 11.388 3.148 13.256l399.68 131.88z"  horiz-adv-x="1024" />
      
      <glyph glyph-name="a-fabuzhuangtaishenqingquxiaofabu" unicode="&#59696;" d="M512-64c247.424 0 448 200.576 448 448S759.424 832 512 832 64 631.424 64 384s200.576-448 448-448z m-152.276 253.404c-6.24-2.06-12.16 3.864-10.104 10.104l131.884 399.68c1.868 5.656 9.044 7.36 13.256 3.148l100.976-100.976-62.408-127.912 127.912 62.404 101.312-101.308c4.212-4.212 2.508-11.388-3.148-13.256l-399.68-131.884z"  horiz-adv-x="1024" />
      
      <glyph glyph-name="a-leixingtianjiamulu" unicode="&#59680;" d="M112 768a16 16 0 0 0 16 16h768a16 16 0 0 0 16-16v-384h-64V720H176v-672h336v-64H128a16 16 0 0 0-16 16V768zM392 228h120v-72H392a8 8 0 0 0-8 8v56a8 8 0 0 0 8 8zM384 604a8 8 0 0 0 8 8h368a8 8 0 0 0 8-8v-56a8 8 0 0 0-8-8H392a8 8 0 0 0-8 8V604zM392 420a8 8 0 0 1-8-8v-56a8 8 0 0 1 8-8h264a8 8 0 0 1 8 8v56a8 8 0 0 1-8 8H392zM256 612a8 8 0 0 1-8-8v-56a8 8 0 0 1 8-8h56a8 8 0 0 1 8 8V604a8 8 0 0 1-8 8H256zM248 412a8 8 0 0 0 8 8h56a8 8 0 0 0 8-8v-56a8 8 0 0 0-8-8H256a8 8 0 0 0-8 8v56zM256 228a8 8 0 0 1-8-8v-56a8 8 0 0 1 8-8h56a8 8 0 0 1 8 8v56a8 8 0 0 1-8 8H256zM724 328a8 8 0 0 0 8 8h56a8 8 0 0 0 8-8v-156h156a8 8 0 0 0 8-8v-56a8 8 0 0 0-8-8h-156v-156a8 8 0 0 0-8-8h-56a8 8 0 0 0-8 8v156h-156a8 8 0 0 0-8 8v56a8 8 0 0 0 8 8h156v156z"  horiz-adv-x="1024" />
      
      <glyph glyph-name="a-leixingtianjiashouye" unicode="&#59681;" d="M128 784a16 16 0 0 1-16-16v-768a16 16 0 0 1 16-16h384v64H176V720h672v-336h64V768a16 16 0 0 1-16 16H128zM732 336a8 8 0 0 1-8-8v-156h-156a8 8 0 0 1-8-8v-56a8 8 0 0 1 8-8h156v-156a8 8 0 0 1 8-8h56a8 8 0 0 1 8 8v156h156a8 8 0 0 1 8 8v56a8 8 0 0 1-8 8h-156v156a8 8 0 0 1-8 8h-56zM291.948 436.796v-205.852a16 16 0 0 1 16-16h330.68a16 16 0 0 1 16 16v210.728l34.228-34.228a8 8 0 0 1 11.316 0l30.068 30.068a8 8 0 0 1 0 11.316l-232.544 232.544a32 32 0 0 1-45.256 0l-234.784-234.784a8 8 0 0 1 0-11.312l30.896-30.892a8 8 0 0 1 11.34 0.028l32.056 32.384z m60.096 60.72l122.736 124.004 119.752-119.752v-226.728H352.044V497.516z"  horiz-adv-x="1024" />
      
      <glyph glyph-name="a-leixingtianjiaBImoban" unicode="&#59691;" d="M112 768a16 16 0 0 0 16 16h768a16 16 0 0 0 16-16v-384h-64V720H176v-672h336v-64H128a16 16 0 0 0-16 16V768zM488 164v-56H248a8 8 0 0 0-8 8v40a8 8 0 0 0 8 8h240zM600 668a8 8 0 0 1-8 8h-32a8 8 0 0 1-8-8v-320a8 8 0 0 1 8-8h32a8 8 0 0 1 8 8V668zM640 232a8 8 0 0 0-8-8H248a8 8 0 0 0-8 8v40a8 8 0 0 0 8 8h384a8 8 0 0 0 8-8v-40zM240 664a8 8 0 0 0 8 8h128c50.812 0 92-41.188 92-92a91.644 91.644 0 0 0-23.336-61.232C472.992 502.08 492 471.26 492 436c0-53.02-42.98-96-96-96H248a8 8 0 0 0-8 8V664z m134.064-132C399.44 532.036 420 552.616 420 578c0 25.404-20.596 46-46 46H288v-92h86.064zM288 488v-100h106c27.616 0 50 22.384 50 50S421.616 488 394 488H288zM724 328a8 8 0 0 0 8 8h56a8 8 0 0 0 8-8v-156h156a8 8 0 0 0 8-8v-56a8 8 0 0 0-8-8h-156v-156a8 8 0 0 0-8-8h-56a8 8 0 0 0-8 8v156h-156a8 8 0 0 0-8 8v56a8 8 0 0 0 8 8h156v156z"  horiz-adv-x="1024" />
      
      <glyph glyph-name="a-leixingshangbaobiaoqian" unicode="&#59692;" d="M128 784a16 16 0 0 1-16-16v-768a16 16 0 0 1 16-16h384v64H176V720h672v-336h64V768a16 16 0 0 1-16 16H128zM516.696 613.656a8 8 0 0 0 0-11.312L348.832 434.48a8 8 0 0 0-11.312 0L229.656 542.344a8 8 0 0 0 0 11.312L263.6 587.6a8 8 0 0 0 11.316 0L337.52 524.984a8 8 0 0 1 11.312 0L471.44 647.6a8 8 0 0 0 11.316 0l33.94-33.94zM364.168 128a112 112 0 1 0 0 224 112 112 0 0 0 0-224z m0 64a47.992 47.992 0 0 1 48 48 48 48 0 1 1-48-48zM776 484a8 8 0 0 1 8 8V548a8 8 0 0 1-8 8h-208a8 8 0 0 1-8-8v-56a8 8 0 0 1 8-8h208zM724 328a8 8 0 0 0 8 8h56a8 8 0 0 0 8-8v-156h156a8 8 0 0 0 8-8v-56a8 8 0 0 0-8-8h-156v-156a8 8 0 0 0-8-8h-56a8 8 0 0 0-8 8v156h-156a8 8 0 0 0-8 8v56a8 8 0 0 0 8 8h156v156z"  horiz-adv-x="1024" />
      
      <glyph glyph-name="a-leixingtianjialianjie" unicode="&#59693;" d="M128 784a16 16 0 0 1-16-16v-768a16 16 0 0 1 16-16h384v64H176V720h672v-336h64V768a16 16 0 0 1-16 16H128zM512 184h8.98l38.02 37.488a165.76 165.76 0 0 1-0.208 237.056l-31.264 30.72-51.272-50.552 31.268-30.72a95.128 95.128 0 0 0 0.12-136.044l-45.188-44.552c-38.136-37.6-100.024-37.656-138.228-0.12a95.128 95.128 0 0 0-0.12 136.044l49.96 49.256-51.36 50.46-49.96-49.256a165.76 165.76 0 0 1 0.212-237.056c65.964-64.812 172.452-65.304 239.04-1.552V184zM712 384h1.308l0.084 0.084a165.756 165.756 0 0 1-0.208 237.056c-66.568 65.4-174.4 65.308-240.856-0.212l-45.184-44.552a165.756 165.756 0 0 1 0.208-237.056l31.264-30.72 51.272 50.552-31.268 30.72a95.124 95.124 0 0 0-0.12 136.04l45.188 44.556c38.136 37.6 100.024 37.656 138.228 0.12a95.132 95.132 0 0 0 0.12-136.044l-48.008-47.332 51.36-50.46L712 382.708V384zM724 328a8 8 0 0 0 8 8h56a8 8 0 0 0 8-8v-156h156a8 8 0 0 0 8-8v-56a8 8 0 0 0-8-8h-156v-156a8 8 0 0 0-8-8h-56a8 8 0 0 0-8 8v156h-156a8 8 0 0 0-8 8v56a8 8 0 0 0 8 8h156v156z"  horiz-adv-x="1024" />
      
      <glyph glyph-name="a-qitazujianleixingtupianzujian" unicode="&#59666;" d="M72 832a8 8 0 0 1-8-8v-48a8 8 0 0 1 8-8h48a8 8 0 0 1 8 8V824a8 8 0 0 1-8 8H72zM64-8a8 8 0 0 0 8 8h48a8 8 0 0 0 8-8v-48a8 8 0 0 0-8-8H72a8 8 0 0 0-8 8v48zM904-64a8 8 0 0 0-8 8v48a8 8 0 0 0 8 8h48a8 8 0 0 0 8-8v-48a8 8 0 0 0-8-8h-48zM960 776a8 8 0 0 0-8-8h-48a8 8 0 0 0-8 8V824a8 8 0 0 0 8 8h48a8 8 0 0 0 8-8v-48zM187.2 824a8 8 0 0 0 8 8h96a8 8 0 0 0 8-8v-48a8 8 0 0 0-8-8h-96a8 8 0 0 0-8 8V824zM366.4 824a8 8 0 0 0 8 8h96a8 8 0 0 0 8-8v-48a8 8 0 0 0-8-8h-96a8 8 0 0 0-8 8V824zM545.6 824a8 8 0 0 0 8 8h96a8 8 0 0 0 8-8v-48a8 8 0 0 0-8-8h-96a8 8 0 0 0-8 8V824zM724.8 824a8 8 0 0 0 8 8h96a8 8 0 0 0 8-8v-48a8 8 0 0 0-8-8h-96a8 8 0 0 0-8 8V824zM952 708.8a8 8 0 0 0 8-8v-96a8 8 0 0 0-8-8h-48a8 8 0 0 0-8 8v96a8 8 0 0 0 8 8h48zM952 529.6a8 8 0 0 0 8-8v-96a8 8 0 0 0-8-8h-48a8 8 0 0 0-8 8v96a8 8 0 0 0 8 8h48zM952 350.4a8 8 0 0 0 8-8v-96a8 8 0 0 0-8-8h-48a8 8 0 0 0-8 8v96a8 8 0 0 0 8 8h48zM952 171.2a8 8 0 0 0 8-8v-96a8 8 0 0 0-8-8h-48a8 8 0 0 0-8 8v96a8 8 0 0 0 8 8h48zM836.8-56a8 8 0 0 0-8-8h-96a8 8 0 0 0-8 8v48a8 8 0 0 0 8 8h96a8 8 0 0 0 8-8v-48zM657.6-56a8 8 0 0 0-8-8h-96a8 8 0 0 0-8 8v48a8 8 0 0 0 8 8h96a8 8 0 0 0 8-8v-48zM478.4-56a8 8 0 0 0-8-8h-96a8 8 0 0 0-8 8v48a8 8 0 0 0 8 8h96a8 8 0 0 0 8-8v-48zM299.2-56a8 8 0 0 0-8-8h-96a8 8 0 0 0-8 8v48a8 8 0 0 0 8 8h96a8 8 0 0 0 8-8v-48zM72 59.2a8 8 0 0 0-8 8v96a8 8 0 0 0 8 8h48a8 8 0 0 0 8-8v-96a8 8 0 0 0-8-8H72zM72 238.4a8 8 0 0 0-8 8v96a8 8 0 0 0 8 8h48a8 8 0 0 0 8-8v-96a8 8 0 0 0-8-8H72zM72 417.6a8 8 0 0 0-8 8v96a8 8 0 0 0 8 8h48a8 8 0 0 0 8-8v-96a8 8 0 0 0-8-8H72zM72 596.8a8 8 0 0 0-8 8v96a8 8 0 0 0 8 8h48a8 8 0 0 0 8-8v-96a8 8 0 0 0-8-8H72zM258.68 555.432A80 80 0 1 1 371.816 668.56 80 80 0 0 1 258.68 555.432zM652.216 80a8 8 0 0 0-7.192 4.496l-145.68 299.124a8 8 0 0 0 0.14 7.28l108.832 203.152c3.096 5.784 11.452 5.584 14.272-0.34l239.18-502.272a8 8 0 0 0-7.224-11.44h-202.328zM388.596 452.432c2.92 5.996 11.464 5.996 14.384 0l175.776-360.928a8 8 0 0 0-7.192-11.504H220.012a8 8 0 0 0-7.196 11.504l175.78 360.928z"  horiz-adv-x="1024" />
      
      <glyph glyph-name="a-leixingliebiaozhanshi" unicode="&#59688;" d="M112 696a8 8 0 0 0 8 8h784a8 8 0 0 0 8-8v-256a8 8 0 0 0-8-8H120a8 8 0 0 0-8 8V696z m288-64H192c-6.592 0-10.356-7.528-6.4-12.8l104-138.668a8 8 0 0 1 12.8 0l104 138.668c3.956 5.276 0.192 12.8-6.4 12.8zM112 328a8 8 0 0 0 8 8h784a8 8 0 0 0 8-8v-256a8 8 0 0 0-8-8H120a8 8 0 0 0-8 8v256z m288-64H192c-6.592 0-10.356-7.528-6.4-12.8l104-138.668a8 8 0 0 1 12.8 0l104 138.668c3.956 5.272 0.192 12.8-6.4 12.8z"  horiz-adv-x="1024" />
      
      <glyph glyph-name="a-leixingduoliezhanshi" unicode="&#59689;" d="M112 72a8 8 0 0 1 8-8h192a8 8 0 0 1 8 8V696a8 8 0 0 1-8 8H120a8 8 0 0 1-8-8v-624zM408 312a8 8 0 0 1 8-8h192a8 8 0 0 1 8 8V696a8 8 0 0 1-8 8h-192a8 8 0 0 1-8-8v-384zM712 224a8 8 0 0 1-8-8v-144a8 8 0 0 1 8-8h192a8 8 0 0 1 8 8v144a8 8 0 0 1-8 8h-192zM408 216a8 8 0 0 0 8 8h192a8 8 0 0 0 8-8v-144a8 8 0 0 0-8-8h-192a8 8 0 0 0-8 8v144zM712 464a8 8 0 0 1-8-8v-144a8 8 0 0 1 8-8h192a8 8 0 0 1 8 8v144a8 8 0 0 1-8 8h-192zM704 696a8 8 0 0 0 8 8h192a8 8 0 0 0 8-8v-144a8 8 0 0 0-8-8h-192a8 8 0 0 0-8 8V696z"  horiz-adv-x="1024" />
      
      <glyph glyph-name="a-leixingshuzhuangzhanshi" unicode="&#59690;" d="M64 696a8 8 0 0 0 8 8h256a8 8 0 0 0 8-8v-140a8 8 0 0 0-8-8H228v-136h188v44a8 8 0 0 0 8 8h480a8 8 0 0 0 8-8v-140a8 8 0 0 0-8-8H424a8 8 0 0 0-8 8v40H228v-188h188v44a8 8 0 0 0 8 8h480a8 8 0 0 0 8-8v-140a8 8 0 0 0-8-8H424a8 8 0 0 0-8 8v40H180a8 8 0 0 0-8 8V548H72a8 8 0 0 0-8 8V696zM424 704a8 8 0 0 1-8-8v-140a8 8 0 0 1 8-8h480a8 8 0 0 1 8 8V696a8 8 0 0 1-8 8H424z"  horiz-adv-x="1024" />
      
      <glyph glyph-name="yindao1" unicode="&#59687;" d="M460 824a8 8 0 0 0 8 8h88a8 8 0 0 0 8-8v-88h201.256a8 8 0 0 0 4.912-1.684l133.712-104a8 8 0 0 0 0-12.632l-133.712-104a8 8 0 0 0-4.912-1.684H564v-128h292a8 8 0 0 0 8-8v-208a8 8 0 0 0-8-8h-292v-216a8 8 0 0 0-8-8h-88a8 8 0 0 0-8 8v216H258.744a8 8 0 0 0-4.912 1.684l-133.712 104a8 8 0 0 0 0 12.632l133.712 104a8 8 0 0 0 4.912 1.684H460V512H168a8 8 0 0 0-8 8V728a8 8 0 0 0 8 8h292V824z"  horiz-adv-x="1024" />
      
      <glyph glyph-name="a-kejianoff" unicode="&#59685;" d="M442.892 236.98l-27.048-101.24a8.004 8.004 0 0 0-9.808-5.66l-55.912 15.044a8 8 0 0 0-5.652 9.792l27.024 101.228a405.736 405.736 0 0 0-119.62 69.388l-73.9-74.156a8 8 0 0 0-11.332-0.004l-40.992 41.12a8 8 0 0 0 0 11.296l73.968 74.16a406.66 406.66 0 0 0-86.128 180.1 7.88 7.88 0 0 0 6.352 9.28l22.052 4.052a8.064 8.064 0 0 0 6.14-1.38A624.096 624.096 0 0 1 512 453.528c135.66 0 261.264 43.144 363.968 116.48a8.06 8.06 0 0 0 6.128 1.376l22.052-4.028a7.88 7.88 0 0 0 6.36-9.28 406.684 406.684 0 0 0-86.092-180.128l73.932-74.16c3.116-3.12 3.116-8.172 0-11.296l-40.992-41.12a8 8 0 0 0-11.332 0.004l-73.9 74.156a405.736 405.736 0 0 0-119.62-69.388l27.024-101.264a8 8 0 0 0-5.656-9.788l-55.912-15.016a7.996 7.996 0 0 0-9.8 5.66l-27.056 101.244a407.8 407.8 0 0 0-138.212 0z"  horiz-adv-x="1024" />
      
      <glyph glyph-name="a-kejianon" unicode="&#59686;" d="M392 384c0 66.276 53.724 120 120 120 66.276 0 120-53.724 120-120 0-66.276-53.724-120-120-120-66.276 0-120 53.724-120 120zM960.512 384l-8.12 17.152-0.02 0.04-0.044 0.1-0.132 0.268-0.148 0.304-0.088 0.184a330.524 330.524 0 0 1-6.448 12.292 484.84 484.84 0 0 1-19.188 31.636 573.448 573.448 0 0 1-78.096 94.664C777.412 609.68 666.916 680 512.256 680c-154.66 0-265.156-70.32-335.972-139.36a573.212 573.212 0 0 1-78.092-94.664 483.944 483.944 0 0 1-19.188-31.636c-2.16-3.904-3.8-7.04-4.948-9.284-0.572-1.124-1.02-2.024-1.344-2.684l-0.4-0.812-0.124-0.268-0.048-0.1-0.02-0.04L64 384l8.12-17.152 0.02-0.04 0.048-0.1 0.128-0.268 0.396-0.812c0.324-0.66 0.772-1.56 1.344-2.684 1.148-2.244 2.792-5.38 4.948-9.284a483.944 483.944 0 0 1 19.188-31.636A573.208 573.208 0 0 1 176.28 227.36C247.1 158.32 357.6 88 512.256 88c154.66 0 265.156 70.32 335.972 139.36a573.444 573.444 0 0 1 78.096 94.664 484.84 484.84 0 0 1 19.188 31.636c2.152 3.904 3.8 7.04 4.944 9.284 0.572 1.124 1.02 2.024 1.348 2.684l0.212 0.44 0.18 0.372 0.132 0.268 0.044 0.1 0.02 0.04 8.12 17.152zM316 384c0 108.248 87.752 196 196 196s196-87.752 196-196-87.752-196-196-196-196 87.752-196 196z"  horiz-adv-x="1024" />
      
      <glyph glyph-name="danyonghuxianzhi1" unicode="&#59684;" d="M459.916 384c110.456 0 200 89.544 200 200s-89.544 200-200 200-200-89.544-200-200 89.544-200 200-200zM119.916-16A7.888 7.888 0 0 0 112-7.976c4.108 189.38 153.22 343.576 339.888 347.884a7.832 7.832 0 0 0 8.028-7.844v-340.036a8.024 8.024 0 0 0-8-8.028h-332zM512 244a8 8 0 0 0 8 8h56v38c0 76.216 61.784 138 138 138 76.216 0 138-61.784 138-138v-38h52a8 8 0 0 0 8-8v-252a8 8 0 0 0-8-8h-384a8 8 0 0 0-8 8v252z m56-48v-156h288v156h-288z m228 56v38c0 45.288-36.712 82-82 82s-82-36.712-82-82v-38h164z"  horiz-adv-x="1024" />
      
      <glyph glyph-name="welinkguanli" unicode="&#59504;" d="M488 768c-201.212 0-360-150.344-360-330.668 0-85.8 35.584-164.28 94.648-223.428l11.08-11.092-17.092-134.58 145.408 59.06 10.92-3.384a383.296 383.296 0 0 1 41.836-10.404l70.832-70.832c-41.816 0.212-82.256 6.068-120.46 16.812L190.04-11.648c-22.668-9.208-46.868 9.404-43.784 33.68l20.08 158.132C102.792 248.972 64 338.796 64 437.332 64 657.6 256.22 832 488 832s424-174.4 424-394.668c0-26.58-2.8-52.488-8.128-77.508l-56.588 56.588a305 305 0 0 1 0.716 20.92C848 617.656 689.212 768 488 768zM863.416 32.588c-64.136-64.14-168.128-64.14-232.268 0l-54.372 54.372a8 8 0 0 0 0 11.316l33.94 33.94a8 8 0 0 0 11.316 0l54.372-54.376c39.144-39.144 102.612-39.144 141.76 0 39.144 39.148 39.14 102.616-0.004 141.764l-54.372 54.368a8 8 0 0 0 0 11.316l33.944 33.94a8 8 0 0 0 11.312 0l54.372-54.372c64.14-64.14 64.14-168.128 0-232.268zM775.776 154.168a8 8 0 0 1 0 11.312l-198.748 198.748a8 8 0 0 1-11.312 0l-33.944-33.94a8 8 0 0 1 0-11.316l198.748-198.744a8 8 0 0 1 11.312 0l33.944 33.94zM444.132 451.864c64.14 64.14 168.132 64.14 232.268 0l54.376-54.372a8 8 0 0 0 0-11.312l-33.944-33.944a8 8 0 0 0-11.312 0l-54.372 54.376c-39.148 39.144-102.616 39.144-141.76 0-39.144-39.148-39.144-102.616 0.004-141.76l54.368-54.372a8 8 0 0 0 0-11.316l-33.94-33.94a8 8 0 0 0-11.312 0l-54.376 54.372c-64.136 64.14-64.136 168.132 0 232.268z"  horiz-adv-x="1024" />
      
      <glyph glyph-name="huifuquanxianjicheng" unicode="&#59499;" d="M856 784a16 16 0 0 0 16-16v-768a16 16 0 0 0-16-16h-264v64h216V720H216v-336H152V768a16 16 0 0 0 16 16h688zM744 620a8 8 0 0 0 8-8v-56a8 8 0 0 0-8-8H280a8 8 0 0 0-8 8V612a8 8 0 0 0 8 8h464zM280.36 421.38a8 8 0 0 0 0.084 11.312l34.188 33.692a8 8 0 0 0 11.312-0.08l169.452-171.944a8 8 0 0 0 0-11.228l-175.064-177.64-39.888 39.308a8 8 0 0 0-0.08 11.316l97.2 98.628H280c-57.44 0-104-46.56-104-104 0-57.436 46.56-104 104-104h224a8 8 0 0 0 8-8v-48a8 8 0 0 0-8-8H280c-92.784 0-168 75.216-168 168s75.216 168 168 168h101.508L280.36 421.38zM752 448a8 8 0 0 1-8 8h-192a8 8 0 0 1-8-8v-56a8 8 0 0 1 8-8h192a8 8 0 0 1 8 8v56zM744 292a8 8 0 0 0 8-8v-56a8 8 0 0 0-8-8h-192a8 8 0 0 0-8 8v56a8 8 0 0 0 8 8h192z"  horiz-adv-x="1024" />
      
      <glyph glyph-name="a-liandongon" unicode="&#59683;" d="M841.984 713.984c-98.932 98.932-259.332 98.932-358.264 0h-0.004l-0.008-0.012h-0.004l-0.004-0.008-0.008-0.008-0.008-0.004-0.004-0.008-0.008-0.004-0.004-0.008-0.008-0.008-0.008-0.008-0.008-0.008-0.036-0.036-0.012-0.008-0.012-0.012-0.008-0.012-0.012-0.012-0.08-0.08-0.016-0.016-0.396-0.396-76.664-76.664a16 16 0 0 1 0-22.624l33.94-33.944a16 16 0 0 1 22.628 0l76.824 76.824 0.02 0.02 0.216 0.216 0.096 0.096 0.012 0.012 0.012 0.012 0.008 0.008 0.048 0.048 0.008 0.008 0.008 0.008 0.008 0.008 0.004 0.008 0.008 0.004 0.004 0.008h0.008l0.008 0.012 0.004 0.004 0.012 0.012h0.004c67.688 67.692 177.44 67.696 245.128 0 67.692-67.688 67.692-177.436 0-245.128l-0.004-0.004-0.004-0.004-0.004-0.004-0.004-0.004-0.004-0.004-0.024-0.024-0.008-0.008-0.004-0.004-0.008-0.008-0.008-0.008-0.012-0.012-0.008-0.008-0.008-0.008-0.012-0.012-0.008-0.008-0.012-0.012-0.012-0.012-0.012-0.012-0.012-0.012-0.012-0.012-0.012-0.012-0.016-0.016-0.012-0.012-0.016-0.016-0.028-0.028-0.084-0.084-0.02-0.02-0.016-0.016-0.02-0.02-0.04-0.04-0.132-0.132-0.02-0.02-0.176-0.176-0.056-0.056-0.084-0.084-0.028-0.028-0.032-0.032-0.028-0.028-0.74-0.74-0.04-0.04-75.528-75.528a16 16 0 0 1 0-22.628l33.94-33.94a15.996 15.996 0 0 1 22.628 0l75.528 75.528 0.04 0.04 0.828 0.828 0.084 0.084 0.056 0.056 0.176 0.172 0.024 0.024 0.128 0.132 0.04 0.04 0.02 0.016 0.016 0.02 0.02 0.02 0.052 0.052 0.016 0.016 0.016 0.016 0.028 0.028 0.016 0.016 0.016 0.012 0.012 0.016 0.012 0.012 0.012 0.012 0.016 0.012 0.008 0.012 0.012 0.012 0.012 0.012 0.012 0.008 0.008 0.012 0.008 0.008 0.012 0.008 0.008 0.008 0.008 0.012 0.008 0.004 0.004 0.008 0.008 0.008 0.024 0.02 0.004 0.004 0.004 0.004 0.004 0.004v0.004l0.004 0.004 0.004 0.004c98.936 98.932 98.936 259.336 0 358.268zM333.812 239.752a15.996 15.996 0 0 0 0 22.624l299.812 299.816a16 16 0 0 0 22.628 0l33.94-33.944a16 16 0 0 0 0-22.624l-299.812-299.816a16 16 0 0 0-22.628 0l-33.944 33.944zM540.284 54.016c-98.936-98.932-259.336-98.932-358.268 0-98.932 98.932-98.932 259.336 0 358.268v0.004l0.012 0.012 0.004 0.004 0.008 0.004v0.004l0.008 0.004 0.008 0.008 0.004 0.004 0.008 0.008 0.048 0.048 0.18 0.184 0.016 0.016 77.012 77.012a16 16 0 0 0 22.628 0l33.944-33.944a16 16 0 0 0 0-22.628l-77.18-77.176-0.012-0.012-0.06-0.06-0.008-0.008-0.008-0.008-0.02-0.02-0.004-0.004-0.004-0.004-0.004-0.004-0.008-0.008-0.004-0.004c-67.692-67.692-67.692-177.44 0-245.132 67.692-67.688 177.44-67.688 245.128 0l56.572-56.568zM483.712 110.584l0.004 0.004 0.008 0.004v0.004l0.008 0.008 0.004 0.004 0.024 0.024 0.004 0.004 0.008 0.008 0.008 0.008 0.016 0.016 0.012 0.008 0.008 0.012 0.064 0.064 0.016 0.012 0.012 0.016 0.012 0.012 0.016 0.016 0.012 0.012 0.032 0.032 0.016 0.016 0.016 0.016 0.016 0.016 0.152 0.152 0.02 0.02 0.024 0.02 0.02 0.024 0.024 0.02 0.168 0.172 0.024 0.024 0.028 0.028 0.028 0.028 0.028 0.024 0.028 0.028 0.028 0.028 1.02 1.024 0.044 0.04 0.172 0.176 0.044 0.044 0.932 0.932 0.052 0.052 0.056 0.056 0.052 0.052 74.052 74.052a16 16 0 0 0 22.628 0l33.94-33.94a16 16 0 0 0 0-22.628l-74.048-74.052-0.056-0.056-0.056-0.052-0.052-0.056-0.932-0.928-0.044-0.044-0.088-0.088-0.044-0.044-0.04-0.044-0.044-0.04-1.02-1.024-0.028-0.028-0.028-0.028-0.028-0.028-0.028-0.024-0.024-0.028-0.028-0.024-0.1-0.1-0.068-0.072-0.024-0.02-0.02-0.024-0.024-0.02-0.02-0.02-0.152-0.152-0.016-0.016-0.016-0.016-0.016-0.016-0.028-0.032-0.016-0.016-0.016-0.012-0.012-0.012-0.012-0.016-0.012-0.012-0.068-0.064-0.008-0.012-0.012-0.008-0.016-0.016-0.008-0.008-0.004-0.008-0.008-0.008-0.024-0.02-0.004-0.004-0.008-0.008v-0.004l-0.004-0.004-0.004-0.004-56.572 56.568z"  horiz-adv-x="1024" />
      
      <glyph glyph-name="a-fangxiangxiangxia-1" unicode="&#59673;" d="M165.936 342.656a8 8 0 0 1 0-11.316l295.492-295.492 0.076-0.08 45.256-45.252a7.988 7.988 0 0 1 11.316 0l45.252 45.256 0.064 0.06 295.508 295.508a8 8 0 0 1 0 11.316l-45.256 45.252a8 8 0 0 1-11.312 0l-289.916-289.912-289.912 289.912a8 8 0 0 1-11.312 0l-45.256-45.252z m636.396 387.684a8 8 0 0 0 11.312 0l45.256-45.256a8 8 0 0 0 0-11.312l-295.508-295.508-0.06-0.064-45.256-45.252a7.988 7.988 0 0 0-11.316 0l-45.256 45.252-0.076 0.08-295.492 295.492a8 8 0 0 0 0 11.316l45.256 45.252a8 8 0 0 0 11.312 0l289.912-289.912 289.916 289.912z"  horiz-adv-x="1028" />
      
      <glyph glyph-name="a-fangxiangxiangyou-1" unicode="&#59674;" d="M530.192 13.944a8 8 0 0 1 11.316 0l295.492 295.492 0.076 0.08 45.256 45.252a8.004 8.004 0 0 1 0 11.316l-45.256 45.256-0.06 0.06-295.508 295.508a8 8 0 0 1-11.316 0l-45.256-45.256a8 8 0 0 1 0-11.312l289.916-289.912-289.916-289.916a8 8 0 0 1 0-11.312l45.256-45.256zM142.504 650.34a8 8 0 0 0 0 11.312L187.76 706.908a8 8 0 0 0 11.316 0l295.508-295.508 0.06-0.06 45.256-45.256a8 8 0 0 0 0-11.316l-45.256-45.252-0.076-0.08-295.492-295.492a8 8 0 0 0-11.316 0L142.508 59.2a8 8 0 0 0 0 11.312l289.912 289.916-289.916 289.912z"  horiz-adv-x="1028" />
      
      <glyph glyph-name="a-fangxiangxiangshang-1" unicode="&#59675;" d="M858.784 378.2a8 8 0 0 1 0 11.316l-295.492 295.492-0.076 0.08-45.256 45.252a7.996 7.996 0 0 1-11.316 0l-45.252-45.256-0.06-0.06-295.512-295.508a8 8 0 0 1 0-11.316l45.256-45.252a8 8 0 0 1 11.312 0l289.916 289.912 289.912-289.912a8 8 0 0 1 11.312 0l45.256 45.252zM222.388-9.484a8 8 0 0 0-11.312 0l-45.256 45.252a8 8 0 0 0 0 11.316l295.512 295.508 0.06 0.06 45.252 45.256c0.784 0.78 1.684 1.368 2.648 1.76a8.032 8.032 0 0 0 8.668-1.76l45.256-45.252 0.076-0.08 295.492-295.492a8 8 0 0 0 0-11.316l-45.256-45.252a8 8 0 0 0-11.312 0l-289.912 289.912-289.916-289.912z"  horiz-adv-x="1028" />
      
      <glyph glyph-name="a-fangxiangxiangzuo-1" unicode="&#59682;" d="M495.212 706.908a8 8 0 0 1-11.312 0l-295.492-295.492-0.08-0.08-45.252-45.252a8 8 0 0 1 0-11.316l45.252-45.256 0.064-0.06 295.508-295.508a8 8 0 0 1 11.312 0l45.256 45.252a8 8 0 0 1 0 11.316l-289.912 289.912 289.912 289.916a8 8 0 0 1 0 11.312l-45.256 45.256z m387.688-636.396a8 8 0 0 0 0-11.316l-45.256-45.252a8 8 0 0 0-11.312 0l-295.508 295.508-0.064 0.06-45.252 45.256a7.948 7.948 0 0 0-2.344 5.74c0.02 2.02 0.8 4.032 2.344 5.576l45.252 45.252 0.08 0.08 295.492 295.492a8 8 0 0 0 11.312 0l45.256-45.256a8 8 0 0 0 0-11.312l-289.912-289.916 289.912-289.912z"  horiz-adv-x="1028" />
      
      <glyph glyph-name="qita-6" unicode="&#59679;" d="M946.236 320c4.868 0 8.612-4.332 7.824-9.136-31.008-188.836-180.088-337.916-368.924-368.924-4.808-0.788-9.136 2.956-9.136 7.824V6.68c0 3.896 2.82 7.22 6.648 7.948 151.004 28.708 270.016 147.72 298.724 298.724A8.136 8.136 0 0 0 889.32 320h56.916zM448-50.236c0-4.868-4.332-8.612-9.136-7.824-188.836 31.008-337.92 180.088-368.924 368.924-0.788 4.804 2.952 9.136 7.824 9.136H134.68c3.896 0 7.22-2.82 7.944-6.648 28.712-151.004 147.72-270.016 298.728-298.724A8.136 8.136 0 0 0 448 6.68v-56.916zM954.06 457.14C919.144 669.772 734.516 832 512 832 289.48 832 104.856 669.772 69.94 457.14A7.888 7.888 0 0 1 77.76 448H134.68c3.896 0 7.22 2.824 7.948 6.652C175.68 628.536 328.492 760 512 760s336.312-131.464 369.372-305.348A8.136 8.136 0 0 1 889.32 448h56.916a7.892 7.892 0 0 1 7.824 9.14zM768 352c0-4.42-3.596-7.984-8.012-8.148-112.768-4.128-203.504-95.08-207.828-207.856-0.168-4.408-3.732-7.996-8.144-7.996h-64.024c-4.416 0-7.98 3.592-8.144 8.004-4.204 112.864-94.98 203.728-207.84 207.848C259.6 344.016 256 347.58 256 352v64a8 8 0 0 0 8 8h496a8 8 0 0 0 8-8v-64z"  horiz-adv-x="1024" />
      
      <glyph glyph-name="qita-7" unicode="&#59678;" d="M584 424h112a8 8 0 0 0 8-8v-56a8 8 0 0 0-8-8h-112a8 8 0 0 0-8 8v56a8 8 0 0 0 8 8zM896 584h56a8 8 0 0 0 8-8v-384a8 8 0 0 0-8-8h-56v-168a16 16 0 0 0-16-16H128a16 16 0 0 0-16 16V752a16 16 0 0 0 16 16h752a16 16 0 0 0 16-16v-168z m-72-400h-232a199.988 199.988 0 0 0-200 200 199.992 199.992 0 0 0 200 200h232V696H184v-624h640v112z m64 328h-299.296c-33.072 0-64.792-13.484-88.18-37.492C477.14 450.504 464 417.948 464 384c0-33.948 13.14-66.504 36.524-90.508 23.388-24.008 55.108-37.492 88.18-37.492H888V512z"  horiz-adv-x="1024" />
      
      <glyph glyph-name="gonggongshujuyewubao" unicode="&#59676;" d="M316 720h392v-48H316V720zM252 768v-96H128a16 16 0 0 1-16-16v-656a16 16 0 0 1 16-16h768a16 16 0 0 1 16 16V656a16 16 0 0 1-16 16h-124V768a16 16 0 0 1-16 16H268a16 16 0 0 1-16-16z m16-160h580v-152H176V608h92z m-92-208h672v-144H176v144z m0-200h672v-152H176v152z m412 356a8 8 0 0 1-8-8v-40a8 8 0 0 1 8-8h176a8 8 0 0 1 8 8V548a8 8 0 0 1-8 8h-176z m-8-212a8 8 0 0 0 8 8h176a8 8 0 0 0 8-8v-40a8 8 0 0 0-8-8h-176a8 8 0 0 0-8 8v40z m8-192a8 8 0 0 1-8-8v-40a8 8 0 0 1 8-8h176a8 8 0 0 1 8 8v40a8 8 0 0 1-8 8h-176z"  horiz-adv-x="1024" />
      
      <glyph glyph-name="jinrugonggongshujuyewubao" unicode="&#59677;" d="M316 672h392V720H316v-48z m456 96v-96h124a16 16 0 0 0 16-16v-656a16 16 0 0 0-16-16H128a16 16 0 0 0-16 16v196a8 8 0 0 0 8 8h48a8 8 0 0 0 8-8v-148h672v152h-260a8 8 0 0 0-8 8v40a8 8 0 0 0 8 8h260v144h-260a8 8 0 0 0-8 8v40a8 8 0 0 0 8 8h260V608H176v-156a8 8 0 0 0-8-8H120a8 8 0 0 0-8 8V656a16 16 0 0 0 16 16h124V768a16 16 0 0 0 16 16h488a16 16 0 0 0 16-16z m-184-212a8 8 0 0 1-8-8v-40a8 8 0 0 1 8-8h176a8 8 0 0 1 8 8V548a8 8 0 0 1-8 8h-176z m-8-212a8 8 0 0 0 8 8h176a8 8 0 0 0 8-8v-40a8 8 0 0 0-8-8h-176a8 8 0 0 0-8 8v40z m8-192a8 8 0 0 1-8-8v-40a8 8 0 0 1 8-8h176a8 8 0 0 1 8 8v40a8 8 0 0 1-8 8h-176z m-74.744 182.06a16 16 0 0 0 0-22.628l-215.6-215.6a8 8 0 0 0-11.312 0l-45.256 45.256a8 8 0 0 0 0 11.316L372.688 284H120a8 8 0 0 0-8 8v64a8 8 0 0 0 8 8h250.176l-129.088 129.088a8 8 0 0 0 0 11.312l45.256 45.256a8 8 0 0 0 11.312 0l215.6-215.596z"  horiz-adv-x="1024" />
      
      <glyph glyph-name="a-jiahaoonzujianleixingqitazujianxianxingon" unicode="&#59667;" d="M160 768a16 16 0 0 0 16 16h672a16 16 0 0 0 16-16v-336h-64V712a8 8 0 0 1-8 8H232a8 8 0 0 1-8-8v-656a8 8 0 0 1 8-8h232v-64H176a16 16 0 0 0-16 16V768zM664 624a8 8 0 0 0 8-8v-48a8 8 0 0 0-8-8H284a8 8 0 0 0-8 8V616a8 8 0 0 0 8 8h380zM536 424a8 8 0 0 0 8-8v-48a8 8 0 0 0-8-8H284a8 8 0 0 0-8 8v48a8 8 0 0 0 8 8h252zM452.128 216a8 8 0 0 0 8-8v-48a8 8 0 0 0-8-8H284a8 8 0 0 0-8 8v48a8 8 0 0 0 8 8h168.128zM676 376a8 8 0 0 0 8 8h56a8 8 0 0 0 8-8v-156h156a8 8 0 0 0 8-8v-56a8 8 0 0 0-8-8h-156v-156a8 8 0 0 0-8-8h-56a8 8 0 0 0-8 8v156h-156a8 8 0 0 0-8 8v56a8 8 0 0 0 8 8h156v156z"  horiz-adv-x="1024" />
      
      <glyph glyph-name="a-jiahaoonzujianleixingguolvzujianxianxingon" unicode="&#59668;" d="M863.728 599.456A16 16 0 0 0 872 585.448V384h-64V506.916c0 6.112-6.58 9.968-11.916 6.976l-268-150.34a8.008 8.008 0 0 1-4.084-6.98V278h-64v78.572c0 2.892-1.564 5.56-4.084 6.976l-268 150.344C182.576 516.88 176 513.028 176 506.912v-291.296a8 8 0 0 1 4.136-7.008l268-147.86c1.256-0.692 2.576-1.008 3.864-1.008v-74.22l-331.728 183.024A16 16 0 0 0 112 182.552V585.448a16 16 0 0 0 8.272 14.008l364 200.828a15.996 15.996 0 0 0 15.456 0l364-200.828zM495.864 729.32a8 8 0 0 1-7.728 0L221.708 582.328c-5.492-3.032-5.52-10.916-0.048-13.984l266.424-149.456a8 8 0 0 1 7.828 0l266.428 149.456c5.472 3.068 5.444 10.952-0.048 13.984L495.864 729.32zM676 376a8 8 0 0 0 8 8h56a8 8 0 0 0 8-8v-156h156a8 8 0 0 0 8-8v-56a8 8 0 0 0-8-8h-156v-156a8 8 0 0 0-8-8h-56a8 8 0 0 0-8 8v156h-156a8 8 0 0 0-8 8v56a8 8 0 0 0 8 8h156v156z"  horiz-adv-x="1024" />
      
      <glyph glyph-name="a-jiahaoonzujianleixingguolvzujianxianxingoff" unicode="&#59669;" d="M871.156 619.736L517.888 815a8 8 0 0 1-7.74 0L156.884 619.736c-5.48-3.032-5.512-10.904-0.048-13.976l353.264-198.536a8 8 0 0 1 7.84 0l353.264 198.536c5.464 3.072 5.436 10.944-0.048 13.976zM112 544.78v-389.348a8 8 0 0 1 4.084-6.976l351.676-197.356c5.336-2.992 11.916 0.86 11.916 6.976v386.036a8 8 0 0 1-4.036 6.948L123.964 551.728c-5.332 3.04-11.964-0.808-11.964-6.948zM548.364 37.608a225.216 225.216 0 0 1 58.324-60.536l-46.416-25.992c-5.332-2.984-11.908 0.872-11.908 6.984v79.544zM912 298.58V536.712c0 6.14-6.624 9.992-11.96 6.952l-347.636-197.924a8.004 8.004 0 0 1-4.04-6.952v-56.396C588.352 343.572 657.456 384 736 384c71.392 0 134.98-33.396 176-85.42zM696 328a8 8 0 0 0 8 8h56a8 8 0 0 0 8-8v-128h136a8 8 0 0 0 8-8v-56a8 8 0 0 0-8-8h-136v-136a8 8 0 0 0-8-8h-56a8 8 0 0 0-8 8v136h-128a8 8 0 0 0-8 8v56a8 8 0 0 0 8 8h128v128z"  horiz-adv-x="1024" />
      
      <glyph glyph-name="a-jiahaooffzujianleixingzujianxianxingon" unicode="&#59670;" d="M176 584h672V720H176v-136z m0-64v-472h672V520H176zM112 752a32 32 0 0 0 32 32h736a32 32 0 0 0 32-32v-736a32 32 0 0 0-32-32H144a32 32 0 0 0-32 32V752z m164-496a12 12 0 0 1-12-12v-120a12 12 0 0 1 12-12h40a12 12 0 0 1 12 12v120a12 12 0 0 1-12 12H276z m132 80a12 12 0 0 0 12 12h40a12 12 0 0 0 12-12v-212a12 12 0 0 0-12-12h-40a12 12 0 0 0-12 12v212z m156 120a12 12 0 0 1-12-12v-320a12 12 0 0 1 12-12h40a12 12 0 0 1 12 12v320a12 12 0 0 1-12 12h-40z m132-116a8 8 0 0 0 8 8h48a8 8 0 0 0 8-8v-220a8 8 0 0 0-8-8h-48a8 8 0 0 0-8 8v220z"  horiz-adv-x="1024" />
      
      <glyph glyph-name="a-jiahaooffzujianleixingqitazujianxianxingon" unicode="&#59671;" d="M176 784a16 16 0 0 1-16-16v-768a16 16 0 0 1 16-16h672a16 16 0 0 1 16 16V768a16 16 0 0 1-16 16H176z m48-72a8 8 0 0 0 8 8h560a8 8 0 0 0 8-8v-656a8 8 0 0 0-8-8H232a8 8 0 0 0-8 8V712z m496-100a8 8 0 0 1-8 8H312a8 8 0 0 1-8-8v-48a8 8 0 0 1 8-8h400a8 8 0 0 1 8 8V612z m-96-200a8 8 0 0 1-8 8H312a8 8 0 0 1-8-8v-48a8 8 0 0 1 8-8h304a8 8 0 0 1 8 8v48z m-81.044-208a8 8 0 0 1-8 8H312a8 8 0 0 1-8-8v-48a8 8 0 0 1 8-8h222.956a8 8 0 0 1 8 8v48z"  horiz-adv-x="1024" />
      
      <glyph glyph-name="a-jiahaooffzujianleixingguolvzujianxianxingon" unicode="&#59672;" d="M863.728 599.456A16 16 0 0 0 872 585.448V384h-64V506.916c0 6.112-6.58 9.968-11.916 6.976l-268-150.34a8.008 8.008 0 0 1-4.084-6.98v-302.368l52 28.688v-73.096l-76.272-42.08a16.008 16.008 0 0 0-15.456 0l-364 200.828A16 16 0 0 0 112 182.552V585.448a16 16 0 0 0 8.272 14.008l364 200.828a15.996 15.996 0 0 0 15.456 0l364-200.828zM495.864 729.32a8 8 0 0 1-7.728 0L221.708 582.328c-5.492-3.032-5.52-10.916-0.048-13.984l266.424-149.456a8 8 0 0 1 7.828 0l266.428 149.456c5.472 3.068 5.444 10.952-0.048 13.984L495.864 729.32zM176 506.912v-291.296a8 8 0 0 1 4.136-7.008l268-147.86c5.332-2.944 11.864 0.916 11.864 7.004v288.82c0 2.892-1.564 5.56-4.084 6.976l-268 150.344C182.576 516.88 176 513.028 176 506.912zM952 320a8 8 0 0 0 8-8v-56a8 8 0 0 0-8-8h-304a8 8 0 0 0-8 8v56a8 8 0 0 0 8 8h304zM870.956 104a8 8 0 0 0 8-8v-56a8 8 0 0 0-8-8H648a8 8 0 0 0-8 8v56a8 8 0 0 0 8 8h222.956z"  horiz-adv-x="1024" />
      
      <glyph glyph-name="a-fangxiangsanjiao-zuochicunzhengchang" unicode="&#59665;" d="M612.392 620.464c10.476 8.38 25.996 0.92 25.996-12.492v-445.424c0-13.416-15.52-20.872-25.996-12.492l-278.388 222.712a15.996 15.996 0 0 0 0 24.984l278.388 222.712z"  horiz-adv-x="1024" />
      
      <glyph glyph-name="a-paixudaoxu" unicode="&#59663;" d="M788.208-12.504a8 8 0 0 1 12.916 0l154.904 211.78c3.864 5.288 0.092 12.724-6.456 12.724h-112.24V728a8 8 0 0 1-8 8H760a8 8 0 0 1-8-8v-516h-112.236c-6.548 0-10.324-7.436-6.46-12.724l154.904-211.78zM573.332 650.668a8 8 0 0 1 8 8V728a8 8 0 0 1-8 8H120a8 8 0 0 1-8-8v-69.332a8 8 0 0 1 8-8h453.332z m0-310.668a8 8 0 0 1 8 8v69.332a8 8 0 0 1-8 8H120a8 8 0 0 1-8-8V348a8 8 0 0 1 8-8h453.332zM488 29.332a8 8 0 0 1 8 8v69.336a8 8 0 0 1-8 8H120a8 8 0 0 1-8-8v-69.336a8 8 0 0 1 8-8h368z"  horiz-adv-x="1024" />
      
      <glyph glyph-name="a-paixushunxu" unicode="&#59664;" d="M788.208 779.172a8 8 0 0 0 12.916 0l154.904-211.784c3.864-5.28 0.092-12.72-6.456-12.72h-112.24v-516a8 8 0 0 0-8-8H760a8 8 0 0 0-8 8v516h-112.236c-6.548 0-10.324 7.44-6.46 12.72l154.904 211.784zM573.332 116a8 8 0 0 0 8-8v-69.332a8 8 0 0 0-8-8H120a8 8 0 0 0-8 8V108a8 8 0 0 0 8 8h453.332z m0 310.668a8 8 0 0 0 8-8v-69.336a8 8 0 0 0-8-8H120a8 8 0 0 0-8 8v69.336a8 8 0 0 0 8 8h453.332zM488 737.332a8 8 0 0 0 8-8V660a8 8 0 0 0-8-8H120a8 8 0 0 0-8 8V729.332a8 8 0 0 0 8 8h368z"  horiz-adv-x="1024" />
      
      <glyph glyph-name="a-fangxiangcujiantou-shang-2" unicode="&#59661;" d="M753.104 57.26a8 8 0 0 0-11.312 0l-390.144 390.144v-282.716a8 8 0 0 0-8-8h-112a8 8 0 0 0-8 8v383.88 112.12a8 8 0 0 0 8 8h496a8 8 0 0 0 8-8v-112a8 8 0 0 0-8-8h-288.264l392.916-392.916a8 8 0 0 0 0-11.316l-79.196-79.196z"  horiz-adv-x="1024" />
      
      <glyph glyph-name="a-fangxiangcujiantou-zuo" unicode="&#59662;" d="M911.748 324.328a8 8 0 0 0-8-8H352l199.912-199.912a8 8 0 0 0 0-11.312l-79.196-79.196a8 8 0 0 0-11.316 0l-271.444 271.448-0.084 0.08-79.196 79.196a8 8 0 0 0 0 11.316l350.724 350.724a8 8 0 0 0 11.312 0l79.196-79.196a8 8 0 0 0 0-11.312l-203.832-203.836h555.672a8 8 0 0 0 8-8v-112z"  horiz-adv-x="1024" />
      
      <glyph glyph-name="ziyuanqianyi1" unicode="&#59660;" d="M591.356 493.656a8 8 0 0 1-11.316 0l-33.94-33.94a8 8 0 0 1 0-11.312l104.4-104.404H264a8 8 0 0 1-8-8v-48a8 8 0 0 1 8-8h384.416l-102.444-102.444a8 8 0 0 1 0-11.316l33.94-33.94a8 8 0 0 1 11.316 0l140.064 140.064c0.416 0.284 0.812 0.608 1.18 0.976l33.944 33.944a8 8 0 0 1 0 11.312l-175.06 175.06zM438.46 752c4.52 0 8.832-1.916 11.868-5.272l106.296-117.58a15.996 15.996 0 0 1 11.868-5.272h326.46a16 16 0 0 0 16-16V16a16 16 0 0 0-16-16H128a16 16 0 0 0-16 16V736a16 16 0 0 0 16 16h310.46z m-17.312-72.408H176.564v-607.184h669.82V555.656h-308.828l-116.408 123.936z"  horiz-adv-x="1024" />
      
      <glyph glyph-name="a-shouyeweiyeweiye" unicode="&#59658;" d="M122.908 713.368a8 8 0 0 0-2.012 11.132l36.472 52.588a8 8 0 0 0 11.132 2.016l550.732-381.956c9.176-6.364 9.176-19.932 0-26.296l-550.732-381.96a8 8 0 0 0-11.132 2.016l-36.472 52.588a8.004 8.004 0 0 0 2.012 11.136l465.424 322.792a8 8 0 0 1 0 13.148L122.908 713.368zM832 728a8 8 0 0 0 8 8h64a8 8 0 0 0 8-8v-688a8 8 0 0 0-8-8h-64a8 8 0 0 0-8 8V728z"  horiz-adv-x="1024" />
      
      <glyph glyph-name="a-shouyeweiyeshouye" unicode="&#59659;" d="M901.092 713.368a8 8 0 0 1 2.012 11.132l-36.472 52.588a8 8 0 0 1-11.132 2.016L304.768 397.148c-9.176-6.364-9.176-19.932 0-26.296l550.732-381.96a8 8 0 0 1 11.132 2.016l36.472 52.588a8 8 0 0 1-2.012 11.136l-465.424 322.792a8 8 0 0 0 0 13.148l465.424 322.796zM192 728a8 8 0 0 1-8 8H120a8 8 0 0 1-8-8v-688a8 8 0 0 1 8-8h64a8 8 0 0 1 8 8V728z"  horiz-adv-x="1024" />
      
      <glyph glyph-name="a-dakaioff1" unicode="&#59656;" d="M266.668 464V575.2C266.668 715.42 374.948 832 512 832s245.336-116.576 245.336-256.8V464H856a8 8 0 0 0 8-8v-464a8 8 0 0 0-8-8H168a8 8 0 0 0-8 8V456a8 8 0 0 0 8 8h98.668z m64 111.2V464h362.668V575.2c0 108.08-82.744 192.8-181.336 192.8-98.588 0-181.332-84.72-181.332-192.8zM548 190.4c39.696 14.648 68 52.816 68 97.6 0 57.436-46.564 104-104 104s-104-46.564-104-104c0-44.784 28.304-82.952 68-97.6V40h72v150.4z"  horiz-adv-x="1024" />
      
      <glyph glyph-name="a-dakaion1" unicode="&#59657;" d="M330.668 575.2C330.668 683.28 413.412 768 512 768c49.156 0 93.976-20.788 126.912-55.108l16.616-17.32a8 8 0 0 1 11.312-0.228l34.632 33.232a8 8 0 0 1 0.236 11.312l-16.62 17.32C640.952 803.2 579.804 832 512 832c-137.052 0-245.332-116.576-245.332-256.8V464H168a8 8 0 0 1-8-8v-464a8 8 0 0 1 8-8h688a8 8 0 0 1 8 8V456a8 8 0 0 1-8 8H330.668V575.2zM548 190.4V40h-72v150.4c-39.696 14.648-68 52.816-68 97.6 0 57.436 46.564 104 104 104s104-46.564 104-104c0-44.784-28.304-82.952-68-97.6z"  horiz-adv-x="1024" />
      
      <glyph glyph-name="a-hengxiangoff" unicode="&#59655;" d="M680 776a8 8 0 0 1-8 8h-80a8 8 0 0 1-8-8v-80a8 8 0 0 1 8-8h80a8 8 0 0 1 8 8V776zM440 776a8 8 0 0 1-8 8H352a8 8 0 0 1-8-8v-80a8 8 0 0 1 8-8h80a8 8 0 0 1 8 8V776zM672 432a8 8 0 0 0 8-8v-80a8 8 0 0 0-8-8h-80a8 8 0 0 0-8 8v80a8 8 0 0 0 8 8h80zM680 72a8 8 0 0 1-8 8h-80a8 8 0 0 1-8-8v-80a8 8 0 0 1 8-8h80a8 8 0 0 1 8 8v80zM432 432a8 8 0 0 0 8-8v-80a8 8 0 0 0-8-8H352a8 8 0 0 0-8 8v80a8 8 0 0 0 8 8h80zM440 72a8 8 0 0 1-8 8H352a8 8 0 0 1-8-8v-80a8 8 0 0 1 8-8h80a8 8 0 0 1 8 8v80z"  horiz-adv-x="1024" />
      
      <glyph glyph-name="a-zhankaion" unicode="&#59653;" d="M857.372 553.372c20.16 20.16 54.628 5.88 54.628-22.628V256a32 32 0 0 0-32-32h-274.744c-28.512 0-42.788 34.468-22.628 54.628l274.744 274.744z"  horiz-adv-x="1024" />
      
      <glyph glyph-name="a-zhankaioff" unicode="&#59654;" d="M643.992 169.592c-20.956-16.76-51.992-1.844-51.992 24.988v378.84c0 26.832 31.036 41.752 51.992 24.988l236.772-189.42c16.016-12.812 16.016-37.164 0-49.976l-236.772-189.42z"  horiz-adv-x="1024" />
      
      <glyph glyph-name="a-yonghucaozuoyonghubianji" unicode="&#59650;" d="M736 604c0 121.504-98.496 220-220 220S296 725.504 296 604s98.496-220 220-220 220 98.496 220 220z m-72 0c0-81.736-66.26-148-148-148S368 522.264 368 604s66.26 148 148 148 148-66.264 148-148zM499.608 120.596a16 16 0 0 1-4.672-11.3v-135.776a16 16 0 0 1 16-16h135.752a16 16 0 0 1 11.328 4.7l295.252 296.092a16.004 16.004 0 0 1-0.016 22.612l-135.764 135.764a16 16 0 0 1-22.644-0.016l-295.236-296.076z m59.328-31.14l247.284 247.988 67.884-67.884-247.34-248.04h-67.828v67.936zM451.98 243.88c4.42 0.132 8.02 3.7 8.02 8.12v56a7.88 7.88 0 0 1-8.028 7.908c-186.668-4.308-335.78-158.504-339.884-347.884A7.888 7.888 0 0 1 120-40h56c4.42 0 7.988 3.604 8.108 8.02 4.06 151.184 122.516 271.576 267.872 275.86z"  horiz-adv-x="1024" />
      
      <glyph glyph-name="a-yonghucaozuoyonghudaoru" unicode="&#59651;" d="M736 604c0 121.504-98.496 220-220 220S296 725.504 296 604s98.496-220 220-220 220 98.496 220 220z m-72 0c0-81.736-66.26-148-148-148S368 522.264 368 604s66.26 148 148 148 148-66.264 148-148zM717.504 356.3a8 8 0 0 1-11.312 0l-192.336-192.332a8 8 0 0 1 0-11.316l33.944-33.94 0.08-0.08 158.312-158.312a8 8 0 0 1 11.312 0l33.944 33.94a8 8 0 0 1 0 11.316l-120.452 120.448h273.544a8 8 0 0 1 8 8v48a8 8 0 0 1-8 8h-274.116l121.02 121.02a8 8 0 0 1 0 11.316l-33.94 33.94zM451.98 243.88c4.42 0.132 8.02 3.7 8.02 8.12v56a7.88 7.88 0 0 1-8.028 7.908c-186.668-4.308-335.78-158.504-339.884-347.884A7.888 7.888 0 0 1 120-40h56c4.42 0 7.988 3.604 8.108 8.02 4.06 151.184 122.516 271.576 267.872 275.86z"  horiz-adv-x="1024" />
      
      <glyph glyph-name="a-yonghucaozuoyonghutianjia" unicode="&#59652;" d="M516 384c-121.504 0-220 98.496-220 220s98.496 220 220 220 220-98.496 220-220-98.496-220-220-220z m0 72c81.74 0 148 66.264 148 148s-66.26 148-148 148-148-66.264-148-148 66.26-148 148-148zM688 360a8 8 0 0 1-8-8v-160h-160a8 8 0 0 1-8-8v-48a8 8 0 0 1 8-8h160v-160a8 8 0 0 1 8-8h48a8 8 0 0 1 8 8v160h160a8 8 0 0 1 8 8v48a8 8 0 0 1-8 8h-160v160a8 8 0 0 1-8 8h-48zM460 252c0-4.42-3.6-7.988-8.02-8.12-145.36-4.284-263.812-124.676-267.872-275.86-0.12-4.416-3.688-8.02-8.108-8.02H120a7.888 7.888 0 0 0-7.912 8.024c4.104 189.38 153.216 343.576 339.884 347.884A7.88 7.88 0 0 0 460 308v-56z"  horiz-adv-x="1024" />
      
      <glyph glyph-name="jiqunpeizhi1" unicode="&#59647;" d="M331.332 556C336.12 556 340 559.88 340 564.668V651.332C340 656.12 336.12 660 331.332 660H244.668C239.88 660 236 656.12 236 651.332v-86.664C236 559.88 239.88 556 244.668 556h86.664zM904 784a8 8 0 0 0 8-8v-336a8 8 0 0 0-8-8H120a8 8 0 0 0-8 8V776a8 8 0 0 0 8 8h784zM176 720v-224h672V720H176zM331.332 108c4.788 0 8.668 3.88 8.668 8.668v86.664c0 4.788-3.88 8.668-8.668 8.668H244.668c-4.788 0-8.668-3.88-8.668-8.668v-86.664c0-4.788 3.88-8.668 8.668-8.668h86.664zM912 328a8 8 0 0 1-8 8H120a8 8 0 0 1-8-8v-336a8 8 0 0 1 8-8h784a8 8 0 0 1 8 8v336z m-64-56v-224H176v224h672z"  horiz-adv-x="1024" />
      
      <glyph glyph-name="bangzhu1" unicode="&#59648;" d="M248-16c-53.02 0-96 42.98-96 96V768a16 16 0 0 0 16 16h688a16 16 0 0 0 16-16v-768a16 16 0 0 0-16-16H248z m552 72v128H288c-35.348 0-64-28.652-64-64s28.652-64 64-64h512zM440 712H224v-469.48A139.416 139.416 0 0 0 284 256h516V712h-96v-328l-132 80-132-80V712z"  horiz-adv-x="1024" />
      
      <glyph glyph-name="zhengwu2_dui" unicode="&#59646;" d="M835.84-35.84H188.16a96 96 0 0 0-96 96V707.84a96 96 0 0 0 96 96h647.68a96 96 0 0 0 96-96v-647.68a96 96 0 0 0-96-96z m0 64a32 32 0 0 1 32 32V707.84a32 32 0 0 1-32 32H188.16a32 32 0 0 1-32-32v-647.68c0-17.707 14.293-32 32-32h647.68zM726.101 532.907a32 32 0 0 0 0-45.227L473.856 235.35c-0.128-0.043-0.128-0.171-0.17-0.257a32 32 0 0 0-45.227 0l-130.39 130.304a31.915 31.915 0 0 0 0 45.227 31.915 31.915 0 0 0 45.227 0l107.648-107.605 229.888 229.888a32 32 0 0 0 45.227 0z"  horiz-adv-x="1024" />
      
      <glyph glyph-name="a-leixingxiaoxi" unicode="&#59644;" d="M160 468.396V192H120a8 8 0 0 1-8-8v-56a8 8 0 0 1 8-8h784a8 8 0 0 1 8 8v56a8 8 0 0 1-8 8h-40v276.396C864 669.204 706.404 832 512 832s-352-162.8-352-363.604z m632 0.32V192H232v276.716C232 629.584 357.36 760 512 760s280-130.416 280-291.284zM632-16a8 8 0 0 1 8 8v64a8 8 0 0 1-8 8H392a8 8 0 0 1-8-8v-64a8 8 0 0 1 8-8h240z"  horiz-adv-x="1024" />
      
      <glyph glyph-name="a-yibiaobancaozuoyibiaoban_shezhigonggonglianjie" unicode="&#59645;" d="M384 768a16 16 0 0 1-16 16H128a16 16 0 0 1-16-16v-304a16 16 0 0 1 16-16h240a16 16 0 0 1 16 16V768zM176 720h144v-208H176V720zM472 368a16 16 0 0 1-16 16H128a16 16 0 0 1-16-16v-368a16 16 0 0 1 16-16h328a16 16 0 0 1 16 16v368z m-296-48h232v-272H176v272zM896 784a16 16 0 0 0 16-16v-256a16 16 0 0 0-16-16H464a16 16 0 0 0-16 16V768a16 16 0 0 0 16 16h432z m-384-64v-160h336V720h-336zM707.496 408.668c57.764 57.76 151.416 57.76 209.176 0 57.764-57.764 57.764-151.416 0-209.18l-35.708-35.708-45.252 45.256 35.708 35.708c32.768 32.768 32.768 85.9 0 118.668-32.772 32.768-85.9 32.768-118.668 0l-29.508-29.508c-32.768-32.768-32.768-85.896 0-118.664l17.76-17.76-45.256-45.256-17.756 17.76c-57.764 57.764-57.764 151.412 0 209.176l29.504 29.508zM762.472 25.764c-57.868-57.868-151.692-57.868-209.56 0-57.868 57.868-57.868 151.692 0 209.56l37.048 37.052 45.256-45.256-37.048-37.048c-32.876-32.876-32.876-86.176 0-119.052 32.872-32.876 86.176-32.876 119.048 0l28.996 28.996c32.876 32.872 32.876 86.176 0 119.048l-17.8 17.8 45.256 45.256 17.8-17.8c57.868-57.868 57.868-151.692 0-209.56l-28.996-28.996z"  horiz-adv-x="1024" />
      
      <glyph glyph-name="a-leixingshujukubiaoshishion" unicode="&#59634;" d="M380 160c66.276 0 120 53.724 120 120V592c0 66.276-53.724 120-120 120H128a16 16 0 0 1-16-16v-520a16 16 0 0 1 16-16h252z m-24 80H192V632h164c35.348 0 64-28.652 64-64v-264c0-35.348-28.652-64-64-64zM881.444 436A119.56 119.56 0 0 1 912 516V592c0 66.276-53.724 120-120 120h-220a16 16 0 0 1-16-16v-520a16 16 0 0 1 16-16h220c66.276 0 120 53.724 120 120v76a119.56 119.56 0 0 1-30.556 80zM636 396h156c22.092 0 40-17.908 40-40v-76c0-22.092-17.908-40-40-40h-156v156z m0 80V632h156c22.092 0 40-17.908 40-40v-76c0-22.092-17.908-40-40-40h-156zM124-16a8 8 0 0 0-8 8v64a8 8 0 0 0 8 8h808a8 8 0 0 0 8-8v-64a8 8 0 0 0-8-8H124z"  horiz-adv-x="1024" />
      
      <glyph glyph-name="a-leixingshujukubiaoshishioff" unicode="&#59635;" d="M380 112c66.276 0 120 53.724 120 120V544c0 66.276-53.724 120-120 120H128a16 16 0 0 1-16-16v-520a16 16 0 0 1 16-16h252z m-24 80H192V584h164c35.348 0 64-28.652 64-64v-264c0-35.348-28.652-64-64-64zM881.444 388A119.56 119.56 0 0 1 912 468V544c0 66.276-53.724 120-120 120h-220a16 16 0 0 1-16-16v-520a16 16 0 0 1 16-16h220c66.276 0 120 53.724 120 120v76a119.56 119.56 0 0 1-30.556 80zM636 348h156c22.092 0 40-17.908 40-40v-76c0-22.092-17.908-40-40-40h-156v156z m0 80V584h156c22.092 0 40-17.908 40-40v-76c0-22.092-17.908-40-40-40h-156z"  horiz-adv-x="1024" />
      
      <glyph glyph-name="a-leixingETLshujujishishioff" unicode="&#59636;" d="M112 608a32 32 0 0 0 32 32h189.536v-80H192v-136h141.536v-80H192v-136h141.536v-80H144a32 32 0 0 0-32 32V608zM372 560V640h296v-80h-108v-432h-80V560H372zM716 640h80v-432h108v-80h-156a32 32 0 0 0-32 32V640z"  horiz-adv-x="1024" />
      
      <glyph glyph-name="a-leixingETLshujujishishion" unicode="&#59637;" d="M112 640a32 32 0 0 0 32 32h189.536v-80H192v-136h141.536v-80H192v-136h141.536v-80H144a32 32 0 0 0-32 32V640zM372 592V672h296v-80h-108v-432h-80V592H372zM716 672h80v-432h108v-80h-156a32 32 0 0 0-32 32V672zM120-16a8 8 0 0 0-8 8v64a8 8 0 0 0 8 8h784a8 8 0 0 0 8-8v-64a8 8 0 0 0-8-8H120z"  horiz-adv-x="1024" />
      
      <glyph glyph-name="a-leixingexcelbiaoshishioff" unicode="&#59638;" d="M580 784h-80v-656h80V784zM380 600h96l-134.724-235.572L476 128H380l-86 151.464L208 128H112l134 236L112 600h96l85.36-150.884L380 600zM640 608a24 24 0 0 1-24-24v-232a24 24 0 0 1 24-24h192v-120h-216v-80h264a32 32 0 0 1 32 32v216a32 32 0 0 1-32 32h-184V528h216V608h-272z"  horiz-adv-x="1024" />
      
      <glyph glyph-name="a-leixingsqlbiaoshishioff" unicode="&#59639;" d="M912 736h-80v-624h80V736zM112 536.92C112 565.132 134.584 588 162.44 588H424v-80H192v-108h181.56c27.856 0 50.44-23.356 50.44-51.568v-149.348c0-28.212-22.584-51.084-50.44-51.084H112v80h232v92H162.44C134.588 320 112 342.872 112 371.084V536.92zM464 537.12c0 28.1 22.78 50.88 50.88 50.88h234.604c28.1 0 50.88-22.78 50.88-50.88L800 112.008h-80l0.364 135.996H514.88c-28.1 0-50.88 22.78-50.88 50.88V537.12z m232.364-209.248a24 24 0 0 1 24 24V484a24 24 0 0 1-24 24H568a24 24 0 0 1-24-24v-132.128a24 24 0 0 1 24-24h128.364z"  horiz-adv-x="1024" />
      
      <glyph glyph-name="a-leixingsqlbiaoshishion" unicode="&#59640;" d="M120-16a8 8 0 0 0-8 8v64a8 8 0 0 0 8 8h784a8 8 0 0 0 8-8v-64a8 8 0 0 0-8-8H120zM912 784h-80v-624h80V784zM112 584.92C112 613.132 134.584 636 162.44 636H424v-80H192v-108h181.56c27.856 0 50.44-23.356 50.44-51.568v-149.348c0-28.212-22.584-51.084-50.44-51.084H112v80h232v92H162.44C134.588 368 112 390.872 112 419.084V584.92zM464 585.12c0 28.1 22.78 50.88 50.88 50.88h234.604c28.1 0 50.88-22.78 50.88-50.88L800 160.008h-80l0.364 135.996H514.88c-28.1 0-50.88 22.78-50.88 50.88V585.12z m232.364-209.248a24 24 0 0 1 24 24V532a24 24 0 0 1-24 24H568a24 24 0 0 1-24-24v-132.128a24 24 0 0 1 24-24h128.364z"  horiz-adv-x="1024" />
      
      <glyph glyph-name="a-leixingzizhushujujishishioff" unicode="&#59641;" d="M760-8a8 8 0 0 1 8-8h64a8 8 0 0 1 8 8V464a8 8 0 0 1-8 8h-64a8 8 0 0 1-8-8v-472zM456 384a8 8 0 0 1-8 8H384a8 8 0 0 1-8-8v-392a8 8 0 0 1 8-8h64a8 8 0 0 1 8 8v392zM576-16a8 8 0 0 0-8 8v312a8 8 0 0 0 8 8h64a8 8 0 0 0 8-8v-312a8 8 0 0 0-8-8h-64zM184-8a8 8 0 0 1 8-8h64a8 8 0 0 1 8 8v232a8 8 0 0 1-8 8H192a8 8 0 0 1-8-8v-232zM912.608 775.92a8 8 0 0 1-8.08 8.08l-220.192-2.18c-7.088-0.068-10.588-8.64-5.576-13.656l75.944-75.944-176.896-176.896-154.896 144.192a8 8 0 0 1-11.316 0L366.344 614.264c-0.888-0.888-1.524-1.936-1.908-3.048l-246.092-238.092a8 8 0 0 1 0-11.316L163.6 316.556a8 8 0 0 1 11.312 0l242.912 234.912L572 407.992c1.592-1.588 3.684-2.372 5.768-2.34a7.96 7.96 0 0 1 5.848 2.34l227.656 227.66 85.5-85.5c5.012-5.012 13.588-1.512 13.656 5.576l2.18 220.192z"  horiz-adv-x="1024" />
      
      <glyph glyph-name="a-leixingexcelbiaoshishion" unicode="&#59642;" d="M496 736h80v-576h-80V736zM471.036 632h-96L293.36 481.116 208 632H111.036l134-236-134-236h96l86 151.464L375.032 160H472l-130.724 236.428L471.036 632zM620 616a24 24 0 0 0 24 24h268v-80h-212v-120h180a32 32 0 0 0 32-32v-216a32 32 0 0 0-32-32h-260v80h212v120h-188a24 24 0 0 0-24 24V616zM120-16a8 8 0 0 0-8 8v64a8 8 0 0 0 8 8h784a8 8 0 0 0 8-8v-64a8 8 0 0 0-8-8H120z"  horiz-adv-x="1024" />
      
      <glyph glyph-name="a-leixingzizhushujujishishion" unicode="&#59643;" d="M912-8a8 8 0 0 0-8-8H120a8 8 0 0 0-8 8v64a8 8 0 0 0 8 8h784a8 8 0 0 0 8-8v-64zM760 168a8 8 0 0 1 8-8h64a8 8 0 0 1 8 8v296a8 8 0 0 1-8 8h-64a8 8 0 0 1-8-8v-296zM456 384a8 8 0 0 1-8 8H384a8 8 0 0 1-8-8v-216a8 8 0 0 1 8-8h64a8 8 0 0 1 8 8v216zM576 160a8 8 0 0 0-8 8v136a8 8 0 0 0 8 8h64a8 8 0 0 0 8-8v-136a8 8 0 0 0-8-8h-64zM184 168a8 8 0 0 1 8-8h64a8 8 0 0 1 8 8v88a8 8 0 0 1-8 8H192a8 8 0 0 1-8-8v-88zM912.608 775.92a8 8 0 0 1-8.08 8.08l-220.192-2.18c-7.088-0.068-10.588-8.64-5.576-13.656l75.944-75.944-176.896-176.896-154.896 144.192a8 8 0 0 1-11.316 0L366.344 614.264c-0.888-0.888-1.524-1.936-1.908-3.048l-246.092-238.092a8 8 0 0 1 0-11.316L163.6 316.556a8 8 0 0 1 11.312 0l242.912 234.912L572 407.992c1.592-1.588 3.684-2.372 5.768-2.34a7.96 7.96 0 0 1 5.848 2.34l227.656 227.66 85.5-85.5c5.012-5.012 13.588-1.512 13.656 5.576l2.18 220.192z"  horiz-adv-x="1024" />
      
      <glyph glyph-name="a-yuanquanon" unicode="&#59633;" d="M512 832c247.424 0 448-200.576 448-448s-200.576-448-448-448S64 136.576 64 384 264.576 832 512 832z m0-64c-212.08 0-384-171.92-384-384 0-212.076 171.92-384 384-384 212.076 0 384 171.924 384 384 0 212.08-171.924 384-384 384z m-40-168a8 8 0 0 0 8 8h64a8 8 0 0 0 8-8v-176h176a8 8 0 0 0 8-8v-64a8 8 0 0 0-8-8h-176v-176a8 8 0 0 0-8-8h-64a8 8 0 0 0-8 8v176H296a8 8 0 0 0-8 8v64a8 8 0 0 0 8 8h176V600z"  horiz-adv-x="1024" />
      
      <glyph glyph-name="a-dakaioff" unicode="&#59631;" d="M568.44 601.332a15.996 15.996 0 0 0-11.808 5.204L450.32 722.8A16 16 0 0 1 438.512 728H128a16 16 0 0 1-16-16v-664a16 16 0 0 1 16-16h766.952a16 16 0 0 1 16 16V585.332a16 16 0 0 1-16 16H568.44zM176.564 656.324H422l116-122.528h308.384v-430.12H176.564V656.324z"  horiz-adv-x="1024" />
      
      <glyph glyph-name="a-dakaion" unicode="&#59632;" d="M545.088 644.624a16.012 16.012 0 0 1 9.72-3.292h252.148a16 16 0 0 0 16-16V468h101.12c10.404 0 18.044-9.772 15.528-19.868l-107.616-404a16 16 0 0 0-15.524-12.132H127.928c-9.612 0-16.864 8.348-15.924 17.58V720a16 16 0 0 0 16 16h292.148c3.512 0 6.928-1.156 9.716-3.288l115.22-88.088zM275.988 404l-87.624-308h584.376l87.624 308H275.988z"  horiz-adv-x="1024" />
      
      <glyph glyph-name="a-bofangoff" unicode="&#59630;" d="M169.332 0.292c0-12.144 12.992-19.86 23.656-14.052l704.3 383.712c11.128 6.06 11.128 22.036 0 28.1L192.988 781.76c-10.664 5.808-23.656-1.908-23.656-14.048v-767.42z m80 659.668L755.86 384 249.332 108.04V659.96z"  horiz-adv-x="1024" />
      
      <glyph glyph-name="fenxizhuti" unicode="&#59629;" d="M435.004 493.656a8 8 0 0 0 11.316 0l140.764-140.764 74.184 74.184a8 8 0 0 0 11.316 0l33.94-33.944a8 8 0 0 0 0-11.312l-114.476-114.476a8 8 0 0 0-11.312 0l-33.94 33.944a7.964 7.964 0 0 0-2.024 3.408l-103.912 103.912-77.264-77.264a8 8 0 0 0-11.312 0l-33.94 33.944a8 8 0 0 0 0 11.312l81.432 81.432c0.344 0.604 0.776 1.168 1.288 1.684l33.94 33.94zM437.62 798.536c9.744 11.076 28.012 4.184 28.012-10.568v-86.992l-243.656-270.608H149.024c-13.768 0-21.108 16.236-12.012 26.572l300.608 341.6zM197.344 334.368H108.032c-14.752 0-21.644-18.264-10.568-28.012l341.596-300.604c10.336-9.096 26.572-1.756 26.572 12.012v75.04l-268.288 241.564zM561.632 65.96v-89.188c0-14.752 18.264-21.644 28.012-10.572l300.604 341.6c9.096 10.336 1.756 26.568-12.012 26.568h-74.928l-241.676-268.408zM832.36 430.368h86.868c14.752 0 21.644 18.268 10.572 28.012l-341.6 300.608c-10.336 9.096-26.568 1.756-26.568-12.012v-72.84l270.728-243.768z"  horiz-adv-x="1024" />
      
      <glyph glyph-name="mimayuechi" unicode="&#59623;" d="M536.916 354.816c65.156-91.644 56.648-219.58-25.52-301.748-91.656-91.656-240.26-91.656-331.916 0s-91.656 240.26 0 331.916c81.86 81.86 209.144 90.608 300.716 26.248l368.952 368.952a8 8 0 0 0 11.312 0l45.256-45.256a8 8 0 0 0 0-11.316l-71.284-71.28 76.676-76.68a8 8 0 0 0 0-11.312L865.852 519.08a8 8 0 0 0-11.312 0l-76.676 76.68-58.668-58.672 129.648-129.648a8 8 0 0 0 0-11.312l-45.256-45.256a8 8 0 0 0-11.312 0l-129.652 129.648-125.708-125.708z m-300.868-245.18c60.416-60.412 158.364-60.412 218.78 0 60.416 60.416 60.416 158.364 0 218.78-60.412 60.416-158.364 60.416-218.78 0-60.412-60.416-60.412-158.364 0-218.78z"  horiz-adv-x="1024" />
      
      <glyph glyph-name="zhuye_liebiao" unicode="&#59624;" d="M768 140.492a28.516 28.516 0 0 0-8.332-20.148 28.408 28.408 0 0 0-20.112-8.344H284.444a28.416 28.416 0 0 0-20.112 8.344A28.52 28.52 0 0 0 256 140.492v299.448a28.552 28.552 0 0 0 10.98 22.508l227.556 203.548a28.404 28.404 0 0 0 34.928 0l227.556-203.548a28.536 28.536 0 0 0 10.98-22.508v-299.448z m-64 276.856L512 592l-192-174.652V176h384v241.348zM128 784a16 16 0 0 1-16-16v-768a16 16 0 0 1 16-16h768a16 16 0 0 1 16 16V768a16 16 0 0 1-16 16H128z m56-80a8 8 0 0 0 8 8h640a8 8 0 0 0 8-8v-640a8 8 0 0 0-8-8H192a8 8 0 0 0-8 8V704z"  horiz-adv-x="1024" />
      
      <glyph glyph-name="shangbaobiaoqian" unicode="&#59625;" d="M516.696 621.656a8 8 0 0 0 0-11.312L348.832 442.48a8 8 0 0 0-11.312 0L229.656 550.344a8 8 0 0 0 0 11.312L263.6 595.6a8 8 0 0 0 11.316 0L337.52 532.984a8 8 0 0 1 11.312 0L471.44 655.6a8 8 0 0 0 11.316 0l33.94-33.94zM364.168 128a112 112 0 1 0 0 224 112 112 0 0 0 0-224z m0 64a47.992 47.992 0 0 1 48 48 48 48 0 1 1-48-48zM784 212a8 8 0 0 0-8-8h-208a8 8 0 0 0-8 8v56a8 8 0 0 0 8 8h208a8 8 0 0 0 8-8v-56zM776 492a8 8 0 0 1 8 8V556a8 8 0 0 1-8 8h-208a8 8 0 0 1-8-8v-56a8 8 0 0 1 8-8h208zM128 784a16 16 0 0 1-16-16v-768a16 16 0 0 1 16-16h768a16 16 0 0 1 16 16V768a16 16 0 0 1-16 16H128z m56-728V712h656v-656H184z"  horiz-adv-x="1024" />
      
      <glyph glyph-name="yichangxiangqing1" unicode="&#59626;" d="M191.72 64v276a319.86 319.86 0 0 0 93.808 226.276A320.416 320.416 0 0 0 512 660a320.42 320.42 0 0 0 226.472-93.724A319.86 319.86 0 0 0 832.28 340v-276h72.036a8 8 0 0 0 8-8v-64a8 8 0 0 0-8-8H119.688a8 8 0 0 0-8 8v64a8 8 0 0 0 8 8H191.72z m80.072 0h480.416v276a239.892 239.892 0 0 1-70.352 169.704A240.32 240.32 0 0 1 512 580a240.312 240.312 0 0 1-169.852-70.296A239.896 239.896 0 0 1 271.792 340v-276z m200.176 760a8 8 0 0 0 8 8h64.068a8 8 0 0 0 8-8v-116a8 8 0 0 0-8-8h-64.068a8 8 0 0 0-8 8V824z m357.768-109.972a8 8 0 0 0 11.308 0l45.292-45.252a8 8 0 0 0 0.004-11.316l-85.56-85.528a8 8 0 0 0-11.308-0.004l-45.328 45.252a8 8 0 0 0 0 11.32l85.592 85.528zM135.072 659.78a8 8 0 0 0-0.008 11.328L180.356 716.36a8 8 0 0 0 11.3 0.008l88.192-87.836a8 8 0 0 0 0.016-11.32L234.6 571.892a8 8 0 0 0-11.304-0.012L135.072 659.78zM327.828 324c-4.42 0-8.016 3.584-7.84 8a199.912 199.912 0 0 0 58.468 133.42A200.256 200.256 0 0 0 512 523.84c4.416 0.176 8-3.42 8-7.84v-64c0-4.42-3.584-7.972-7.996-8.264a120.144 120.144 0 0 1-76.928-34.884 119.936 119.936 0 0 1-34.912-76.856c-0.296-4.408-3.848-7.996-8.268-7.996H327.828z"  horiz-adv-x="1024" />
      
      <glyph glyph-name="jiejuecuoshi1" unicode="&#59627;" d="M393.36 784c-43.364 0-84.54-9.832-121.316-27.424l-35.712-17.08a8 8 0 0 1-2.2-12.876l175.36-175.264a8.004 8.004 0 0 0 0-11.316l-53.424-53.392a8 8 0 0 0-11.308 0L169.392 661.916a8 8 0 0 1-12.872-2.2l-17.08-35.668c-17.6-36.76-27.44-77.92-27.44-121.276 0-155.332 125.988-281.224 281.36-281.224 21.868 0 44.068 4.072 63.532 9.008l234.496-234.34c45.996-45.968 120.564-45.968 166.56 0.004l21.804 21.788c46.008 45.984 46.008 120.548 0 166.528l-223.18 223.032c10.612 29.004 18.152 61.98 18.152 95.208 0 155.332-125.988 281.224-281.36 281.224zM184 502.776c0 13.376 1.252 26.448 3.644 39.104l162.768-162.68 166.592 166.5L354.252 708.36A210.848 210.848 0 0 0 393.36 712c115.644 0 209.36-93.692 209.36-209.224 0-29.416-8.8-61.28-21.312-88.932l-10.268-22.696 257.712-257.54c17.872-17.86 17.868-46.812 0-64.672l-21.808-21.792c-17.88-17.872-46.884-17.872-64.768 0.004l-264.616 264.44-20.636-6.252c-21.708-6.576-44.336-11.788-63.664-11.788C277.716 293.548 184 387.24 184 502.772z"  horiz-adv-x="1024" />
      
      <glyph glyph-name="tianjialianjie" unicode="&#59628;" d="M467.128 617.48c76.976 75.768 201.78 75.768 278.752 0a191.868 191.868 0 0 0 0-274.38l-39.684-39.064-51.312 50.508 39.684 39.06a121.236 121.236 0 0 1 0 173.368c-48.636 47.872-127.492 47.872-176.128 0l-24.736-24.348a121.232 121.232 0 0 1 0-173.364l37.488-36.9-51.312-50.508-37.488 36.9a191.872 191.872 0 0 0 0 274.38l24.736 24.348zM555.82 143.576c-76.976-75.768-201.78-75.768-278.756 0a191.872 191.872 0 0 0 0 274.38l41.788 41.132 51.312-50.508-41.788-41.132a121.232 121.232 0 0 1 0-173.364c48.64-47.876 127.492-47.876 176.132 0l24.732 24.344a121.24 121.24 0 0 1 0 173.368l-37.488 36.9 51.316 50.504 37.484-36.896a191.876 191.876 0 0 0 0-274.384l-24.732-24.344zM128 784a16 16 0 0 1-16-16v-768a16 16 0 0 1 16-16h768a16 16 0 0 1 16 16V768a16 16 0 0 1-16 16H128z m56-728V712h656v-656H184z"  horiz-adv-x="1024" />
      
      <glyph glyph-name="tianbaoluru" unicode="&#59621;" d="M336.348 407.676a32.004 32.004 0 0 0 9.02 17.9l394.176 394.176a32 32 0 0 0 45.252 0l164.052-164.052a32 32 0 0 0 0-45.252l-394.176-394.176a31.988 31.988 0 0 0-17.9-9.02l-192.868-28.82c-21.268-3.18-39.556 15.108-36.376 36.376l28.82 192.868z m50.376-150.048l126.364 18.884 356.564 356.56-107.48 107.48-356.564-356.56-18.88-126.364zM128 784a16 16 0 0 1-16-16v-768a16 16 0 0 1 16-16h720a16 16 0 0 1 16 16v374.844a8 8 0 0 1-8 8h-56a8 8 0 0 1-8-8V56H184V712h355.808a8 8 0 0 1 8 8V776a8 8 0 0 1-8 8H128z"  horiz-adv-x="1024" />
      
      <glyph glyph-name="qita-1" unicode="&#59622;" d="M512 832c247.424 0 448-200.576 448-448 0-247.264-200.32-447.744-447.528-448h-0.944C264.32-63.744 64 136.736 64 384 64 631.424 264.576 832 512 832z m373.896-488H707.28c-3.672-101.46-21.204-193.856-48.584-264.36-7.08-18.232-14.968-35.384-23.672-51.052 135.152 46.772 235.336 168.468 250.872 315.412z m0 80c-15.536 146.944-115.72 268.64-250.872 315.412 8.704-15.668 16.592-32.82 23.672-51.052 27.38-70.508 44.912-162.9 48.584-264.36h178.616z m-250.668 0c-3.644 94.128-19.984 177.356-43.648 238.296-13.528 34.84-28.752 60.572-43.82 76.98C532.72 755.656 520.596 760 512 760c-8.596 0-20.72-4.344-35.76-20.724-15.068-16.408-30.292-42.144-43.82-76.98C408.756 601.356 392.416 518.128 388.772 424h246.456z m-246.456-80c3.644-94.128 19.984-177.356 43.648-238.296 13.528-34.836 28.752-60.572 43.82-76.98 15.04-16.38 27.164-20.724 35.76-20.724 8.596 0 20.72 4.344 35.76 20.724 15.068 16.408 30.292 42.144 43.82 76.98 23.664 60.94 40.004 144.168 43.648 238.296H388.772z m-72.052 0H138.104c15.536-146.944 115.72-268.64 250.872-315.412-8.704 15.668-16.592 32.82-23.672 51.052-27.38 70.504-44.912 162.9-48.584 264.36z m0 80c3.672 101.46 21.2 193.852 48.584 264.36 7.08 18.232 14.968 35.384 23.676 51.052C253.82 692.64 153.64 570.944 138.1 424H316.72z"  horiz-adv-x="1024" />
      
      <glyph glyph-name="jinrusuozaidefenxizhuti" unicode="&#59620;" d="M465.632 787.968c0 14.752-18.268 21.644-28.012 10.568l-300.608-341.596c-9.096-10.336-1.756-26.572 12.012-26.572h42.02l274.588 304.96v52.64zM108.032 334.368h54.96l302.64-272.5v-44.104c0-13.768-16.236-21.108-26.572-12.012l-341.6 300.604c-11.072 9.748-4.18 28.012 10.572 28.012zM561.632 31.604v-54.832c0-14.752 18.264-21.644 28.012-10.572l300.604 341.6c9.096 10.336 1.756 26.568-12.012 26.568H834.24l-272.608-302.764zM919.228 430.368h-52.516l-305.08 274.7V746.976c0 13.768 16.232 21.108 26.568 12.012l341.6-300.608c11.072-9.744 4.18-28.012-10.572-28.012zM399.968 237.036a8 8 0 0 0-8 8v40a8 8 0 0 0 8 8h166.96L362.58 497.384a8 8 0 0 0 0 11.312l28.288 28.284a8 8 0 0 0 11.312 0l201.788-201.788v145.844a8 8 0 0 0 8 8h40a8 8 0 0 0 8-8v-236c0-2.208-0.896-4.208-2.344-5.656a7.976 7.976 0 0 0-5.656-2.344h-252z"  horiz-adv-x="1024" />
      
      <glyph glyph-name="qita-4" unicode="&#59570;" d="M367.752 219.752A203.992 203.992 0 0 1 716 364a203.992 203.992 0 0 1-204 204 204 204 0 0 1-144.252-348.248z m50.908 50.908a132.016 132.016 0 0 0 0 186.68 132.016 132.016 0 0 0 186.68 0 132.016 132.016 0 0 0 0-186.68 132.016 132.016 0 0 0-186.68 0zM387.316 763.312A16 16 0 0 0 398.628 768h226.744c4.244 0 8.312-1.684 11.316-4.688l70.624-70.624A16.008 16.008 0 0 1 718.628 688H896a16 16 0 0 0 16-16v-624a16 16 0 0 0-16-16H128a16 16 0 0 0-16 16V672a16 16 0 0 0 16 16h177.372a16 16 0 0 1 11.316 4.688l70.628 70.624zM425.12 696l-80-80H184v-512h656V616h-161.12l-80 80h-173.76z"  horiz-adv-x="1024" />
      
      <glyph glyph-name="qita-2" unicode="&#59572;" d="M509.724 611.316a16 16 0 0 1 0-22.628l214.964-214.96a15.988 15.988 0 0 1 22.624 0l214.964 214.96a16 16 0 0 1 0 22.628l-214.964 214.96a15.996 15.996 0 0 1-22.624 0l-214.964-214.96zM736 452.92l-147.08 147.08L736 747.08 883.08 600 736 452.924zM128 784a16 16 0 0 1-16-16v-332a16 16 0 0 1 16-16h332a16 16 0 0 1 16 16V768a16 16 0 0 1-16 16H128z m48-300V720h236v-236H176zM128 348a16 16 0 0 1-16-16v-332a16 16 0 0 1 16-16h332a16 16 0 0 1 16 16v332a16 16 0 0 1-16 16H128z m48-300v236h236v-236H176zM548 332a16 16 0 0 0 16 16h332a16 16 0 0 0 16-16v-332a16 16 0 0 0-16-16h-332a16 16 0 0 0-16 16v332z m64-48v-236h236v236h-236z"  horiz-adv-x="1024" />
      
      <glyph glyph-name="quanxianshiyong" unicode="&#59573;" d="M624 500c0-46.236-28.016-85.928-68-103.028V204a8 8 0 0 0-8-8h-72a8 8 0 0 0-8 8v192.972c-39.984 17.1-68 56.792-68 103.028 0 61.856 50.144 112 112 112s112-50.144 112-112zM506.352-41.88c3.604-1.36 7.692-1.36 11.296 0C756.144 48.124 880 152.968 880 272.656V696.872a16.068 16.068 0 0 1-8.616 14.188C725.236 787.528 648.52 820 512 820c-136.56 0-215.492-30.324-359.636-108.884A16.052 16.052 0 0 1 144 697.068v-424.412c0-119.688 123.856-224.532 362.352-314.536zM808 272.656c0-32.26-16.016-70.492-67.968-114.912-48.764-41.692-123.78-83.78-228.032-124.656-104.252 40.876-179.268 82.964-228.032 124.656C232.016 202.164 216 240.396 216 272.656V663.592C336.084 727.216 401.324 748 512 748c110.108 0 173.12-22.16 296-85.18v-390.164z"  horiz-adv-x="1024" />
      
      <glyph glyph-name="xiaoshouguanli" unicode="&#59574;" d="M88 800a8 8 0 0 0 8 8h161.536a8 8 0 0 0 8-8v-97.724h643.16a16 16 0 0 0 15.552-19.76l-114.988-476a16 16 0 0 0-15.552-12.24H209.54a16 16 0 0 0-16 16V736H96a8 8 0 0 0-8 8V800z m177.536-169.724v-364h485.092l85.28 364H265.536zM356 62c0-43.08-34.92-78-78-78S200 18.92 200 62 234.92 140 278 140 356 105.08 356 62zM742-16c43.08 0 78 34.92 78 78s-34.92 78-78 78-78-34.92-78-78 34.92-78 78-78z"  horiz-adv-x="1024" />
      
      <glyph glyph-name="yunyingguanli" unicode="&#59575;" d="M517.14 832c75.74 0 137.136-61.4 137.136-137.14 0-75.736-61.396-137.136-137.136-137.136S380 619.12 380 694.864C380 770.6 441.4 832 517.14 832zM516 760c-35.344 0-64-28.652-64-64s28.656-64 64-64c35.348 0 64 28.652 64 64s-28.652 64-64 64zM678.384 606.324a187.304 187.304 0 0 1 21.264 71.352C814.572 611.82 892 487.952 892 346c0-1.084-0.004-2.172-0.012-3.256a187.384 187.384 0 0 1-72.512 21.444c-5.876 101.548-60.632 189.984-141.092 242.136zM648.492 68.58a189.6 189.6 0 0 1 54.772-52.156C646.568-16.896 580.516-36 510-36c-69.192 0-134.088 18.396-190.064 50.564a189.624 189.624 0 0 1 53.32 53.144C414.508 47.404 460.92 36 510 36c49.776 0 96.812 11.732 138.492 32.58zM200.308 359.932a187.384 187.384 0 0 1-72.24-21.136A388.712 388.712 0 0 0 128 346c0 143.404 79.02 268.352 195.892 333.68a187.392 187.392 0 0 1 20.5-71.576c-83.104-52.62-139.464-143.672-144.084-248.172zM944 176c0 75.112-60.888 136-136 136s-136-60.888-136-136 60.888-136 136-136 136 60.888 136 136z m-200 0c0 35.348 28.652 64 64 64s64-28.652 64-64c0-35.344-28.652-64-64-64s-64 28.656-64 64zM220 308c75.112 0 136-60.888 136-136s-60.888-136-136-136-136 60.888-136 136 60.888 136 136 136z m0-72c-35.348 0-64-28.656-64-64 0-35.348 28.652-64 64-64s64 28.652 64 64c0 35.344-28.652 64-64 64z"  horiz-adv-x="1024" />
      
      <glyph glyph-name="tubiaozhanshi" unicode="&#59576;" d="M552 632a8 8 0 0 1-8 8h-64a8 8 0 0 1-8-8v-496a8 8 0 0 1 8-8h64a8 8 0 0 1 8 8V632zM732 520a8 8 0 0 0 8-8v-376a8 8 0 0 0-8-8h-64a8 8 0 0 0-8 8V512a8 8 0 0 0 8 8h64zM364 388a8 8 0 0 1-8 8H292a8 8 0 0 1-8-8v-252a8 8 0 0 1 8-8h64a8 8 0 0 1 8 8v252zM128 784a16 16 0 0 1-16-16v-768a16 16 0 0 1 16-16h768a16 16 0 0 1 16 16V768a16 16 0 0 1-16 16H128z m56-728V712h656v-656H184z"  horiz-adv-x="1024" />
      
      <glyph glyph-name="tongjitubiao" unicode="&#59577;" d="M943.928 376a448.088 448.088 0 0 1-34.028 163.44A448.04 448.04 0 0 1 568 810.176a448.028 448.028 0 0 1-64 5.752c-4.416 0.08-8-3.508-8-7.928v-432a8 8 0 0 1 8-8h432a7.888 7.888 0 0 1 7.928 8z m-80.868 73.508c1.092-4.916-2.696-9.508-7.728-9.508H576a8 8 0 0 0-8 8V727.332c0 5.032 4.592 8.82 9.508 7.728a375.996 375.996 0 0 0 285.552-285.552zM96 368c0 199.128 145.508 364.276 336 394.908V689.76C281.488 659.988 168 527.248 168 368c0-181.148 146.852-328 328-328 159.248 0 291.988 113.488 321.76 264h73.148c-30.636-190.492-195.78-336-394.908-336-220.912 0-400 179.088-400 400z"  horiz-adv-x="1024" />
      
      <glyph glyph-name="baobiaozhanshi" unicode="&#59578;" d="M680 56V712H184v-592c0-35.348 28.652-64 64-64h432z m232 8c0-44.184-35.816-80-80-80H192c-44.184 0-80 35.816-80 80V768a16 16 0 0 0 16 16h608a16 16 0 0 0 16-16v-296a8 8 0 0 1 8-8h136a16 16 0 0 0 16-16v-384z m-160 328v-292c0-24.3 19.7-44 44-44s44 19.7 44 44v292h-88zM272 608a16 16 0 0 0 16 16h208a16 16 0 0 0 16-16v-208a16 16 0 0 0-16-16H288a16 16 0 0 0-16 16V608z m72-56v-96h96V552H344z m-72-220a8 8 0 0 0 8 8h304a8 8 0 0 0 8-8v-56a8 8 0 0 0-8-8H280a8 8 0 0 0-8 8v56z m0-120a8 8 0 0 0 8 8h304a8 8 0 0 0 8-8v-56a8 8 0 0 0-8-8H280a8 8 0 0 0-8 8v56z"  horiz-adv-x="1024" />
      
      <glyph glyph-name="caiwuguanli" unicode="&#59579;" d="M752 216a8 8 0 0 1 8 8v56a8 8 0 0 1-8 8h-204a8 8 0 0 1-8-8v-56a8 8 0 0 1 8-8h204zM112 688a16 16 0 0 0 16 16h768a16 16 0 0 0 16-16v-608a16 16 0 0 0-16-16H128a16 16 0 0 0-16 16V688z m728-56H184v-104h656V632zM184 136h656v320H184v-320z"  horiz-adv-x="1024" />
      
      <glyph glyph-name="renliziyuanguanli1" unicode="&#59612;" d="M644 566c0-120.4-97.6-218-218-218S208 445.6 208 566 305.6 784 426 784 644 686.4 644 566z m-72 0c0 80.632-65.368 146-146 146S280 646.632 280 566 345.368 420 426 420 572 485.368 572 566zM132.264-8.532c0.176-4.204 3.676-7.468 7.884-7.468h55.992c4.7 0 8.372 4.028 8.14 8.716A227.588 227.588 0 0 0 204 4c0 123.712 100.288 224 224 224s224-100.288 224-224c0-3.784-0.092-7.544-0.28-11.284-0.232-4.688 3.44-8.716 8.14-8.716h59.988c4.212 0 7.712 3.264 7.888 7.468 0.176 4.156 0.264 8.336 0.264 12.532 0 163.476-133.42 296-298 296S132 167.476 132 4c0-4.196 0.088-8.376 0.264-12.532zM661.576 710.432c-4.172-4.044-2.784-11.08 2.416-13.676 48.004-23.912 80.98-73.484 80.98-130.756 0-69.056-47.944-126.916-112.364-142.108-5.476-1.288-8.456-7.48-5.652-12.356l28.64-49.832a7.816 7.816 0 0 1 9.104-3.62c88.276 27.88 152.272 110.424 152.272 207.916 0 78.676-41.676 147.616-104.156 185.948a7.816 7.816 0 0 1-9.52-1.112l-41.72-40.404zM717.548 211.084c-5.452 2.256-7.08 9.384-2.904 13.56L757.6 267.6a7.872 7.872 0 0 0 9.048 1.532C864.66 220.656 932 120.14 932 4c0-4.196-0.088-8.376-0.26-12.532a7.848 7.848 0 0 0-7.888-7.468h-59.992c-4.696 0-8.372 4.028-8.14 8.72 0.188 3.736 0.28 7.496 0.28 11.28 0 93.416-57.18 173.472-138.452 207.084z"  horiz-adv-x="1024" />
      
      <glyph glyph-name="duojishangbao" unicode="&#59613;" d="M330.344 451.28a8 8 0 0 0 0 11.316l175.06 175.06a8 8 0 0 0 11.312 0l33.944-33.94c0.368-0.372 0.692-0.768 0.976-1.184l140.064-140.064a8 8 0 0 0 0-11.312l-33.94-33.944a8 8 0 0 0-11.316 0L544 519.66V264a8 8 0 0 0-8-8h-48a8 8 0 0 0-8 8V521.744l-104.4-104.404a8 8 0 0 0-11.316 0l-33.94 33.94zM320 184a8 8 0 0 0 8 8h368a8 8 0 0 0 8-8v-48a8 8 0 0 0-8-8H328a8 8 0 0 0-8 8v48zM160 0a16 16 0 0 1 16-16h672a16 16 0 0 1 16 16V768a16 16 0 0 1-16 16H176a16 16 0 0 1-16-16v-768z m632 56H232V712h560v-656z"  horiz-adv-x="1024" />
      
      <glyph glyph-name="qita-5" unicode="&#59614;" d="M376 784c8.84 0 15.888-7.196 17.064-15.952A119.992 119.992 0 0 1 512 664a119.992 119.992 0 0 1 118.936 104.048C632.112 776.808 639.164 784 648 784h248a16 16 0 0 0 16-16v-374.284a16 16 0 0 0-15.716-15.996l-96.324-1.72 0.04-376a16 16 0 0 0-16-16H240a16 16 0 0 0-16 16l-0.04 376.04-95.956-0.036a16 16 0 0 0-16 16L112 768a16 16 0 0 0 16 16h248z m464-71.96h-144.68c-15.168-33.912-40.16-64.576-70.892-85.452a200.092 200.092 0 0 0-103.788-34.388L512 592a200.028 200.028 0 0 0-108.832 32.184C370.756 645.2 344.404 676.74 328.64 712H184v-264l111.96 0.04V56H728l-0.04 392 112.04 0.04v264z"  horiz-adv-x="1024" />
      
      <glyph glyph-name="caiwushujuzonghefenxi" unicode="&#59615;" d="M568 382.56h-128v80h128a8 8 0 0 1 8 8v48a8 8 0 0 1-8 8h-107.44l85.956 85.92a8 8 0 0 1-0.1 11.416l-35.92 34.648a8 8 0 0 1-11.212-0.104L404 563.12 308.856 658.34a8 8 0 0 1-11.316 0.008l-35.32-35.288a8 8 0 0 1 0-11.32L347.44 526.56H240a8 8 0 0 1-8-8v-48a8 8 0 0 1 8-8h128v-80H240a8 8 0 0 1-8-8v-48a8 8 0 0 1 8-8h128v-88a8 8 0 0 1 8-8h56a8 8 0 0 1 8 8v88h128a8 8 0 0 1 8 8v48a8 8 0 0 1-8 8zM640 552a8 8 0 0 0 8 8h136a8 8 0 0 0 8-8v-48a8 8 0 0 0-8-8h-136a8 8 0 0 0-8 8V552zM648 376a8 8 0 0 1-8-8v-48a8 8 0 0 1 8-8h136a8 8 0 0 1 8 8v48a8 8 0 0 1-8 8h-136zM232 172a8 8 0 0 0 8 8h544a8 8 0 0 0 8-8v-48a8 8 0 0 0-8-8H240a8 8 0 0 0-8 8v48zM128 784a16 16 0 0 1-16-16v-768a16 16 0 0 1 16-16h768a16 16 0 0 1 16 16V768a16 16 0 0 1-16 16H128z m56-728V712h656v-656H184z"  horiz-adv-x="1024" />
      
      <glyph glyph-name="canshuchaxun" unicode="&#59616;" d="M729.8 510.888a8 8 0 0 1 0 11.312l-39.6 39.6a8 8 0 0 1-11.312 0l-145.232-145.232a8 8 0 0 0-11.312 0L379.656 559.256a8 8 0 0 1-11.312 0L196.2 387.112a8 8 0 0 1 0-11.312l39.6-39.6a8 8 0 0 1 11.312 0l121.232 121.232a8 8 0 0 0 11.312 0l142.688-142.688a8 8 0 0 1 11.312 0l196.144 196.144zM868 428c0 220.912-179.088 400-400 400S68 648.912 68 428s179.088-400 400-400c96.052 0 184.196 33.856 253.148 90.284l179.752-179.756a8 8 0 0 1 11.316 0l45.252 45.256a8 8 0 0 1 0 11.316l-179.752 179.752C834.144 243.804 868 331.948 868 428z m-720 0c0 176.732 143.268 320 320 320s320-143.268 320-320-143.268-320-320-320-320 143.268-320 320z"  horiz-adv-x="1024" />
      
      <glyph glyph-name="baobiaotianbao" unicode="&#59617;" d="M816 784a16 16 0 0 0 16-16v-256h-64V720H176v-672h208v-64H128a16 16 0 0 0-16 16V768a16 16 0 0 0 16 16h688zM704 580a8 8 0 0 0 8-8v-56a8 8 0 0 0-8-8H240a8 8 0 0 0-8 8V572a8 8 0 0 0 8 8h464zM504 396a8 8 0 0 0 8-8v-56a8 8 0 0 0-8-8H240a8 8 0 0 0-8 8v56a8 8 0 0 0 8 8h264zM495.444 133.748c0 4.236 1.68 8.3 4.672 11.296l295.236 296.08a16.008 16.008 0 0 0 22.644 0.016l135.764-135.768a16 16 0 0 0 0.016-22.608l-295.252-296.092a15.988 15.988 0 0 0-11.328-4.704h-135.752a16 16 0 0 0-16 16v135.78z m64-87.78h67.828l247.34 248.044-67.884 67.88-247.284-247.988v-67.936z"  horiz-adv-x="1024" />
      
      <glyph glyph-name="shichangyingxiao" unicode="&#59618;" d="M540 784a8 8 0 0 0 8-8v-49.604a8 8 0 0 1 5.492-7.6l195.28-64.424a8 8 0 0 1 5.04 0.008l136.052 45.416a8 8 0 0 0 9.972-4.648l19.512-49.34a8 8 0 0 0-4.904-10.528l-105.884-35.376a8 8 0 0 1-4.984-10.32l119.748-329.88a7.84 7.84 0 0 0-1.78-8.228c-43.58-43.636-103.812-70.632-170.248-70.632-66.476 0-126.672 26.996-170.252 70.632a7.848 7.848 0 0 0-1.78 8.228l119.656 329.844a8 8 0 0 1-5.024 10.328l-135.4 44.48a8 8 0 0 1-10.496-7.6V64a8 8 0 0 1 8-8h147.164a8 8 0 0 0 8-8v-56a8 8 0 0 0-8-8H317.856a8 8 0 0 0-8 8v56a8 8 0 0 0 8 8H468a8 8 0 0 1 8 8V636.828a8 8 0 0 1-10.452 7.612l-138.48-44.592a8 8 0 0 1-5.068-10.348l119.716-329.796a7.848 7.848 0 0 0-1.78-8.228c-43.54-43.636-103.776-70.632-170.212-70.632-66.476 0-126.672 26.996-170.248 70.632a7.844 7.844 0 0 0-1.78 8.228l119.668 329.88a8 8 0 0 1-4.984 10.32L106.576 635.24a8 8 0 0 0-4.908 10.528l19.52 49.416a8 8 0 0 0 9.972 4.652l136.068-45.42a8 8 0 0 1 5-0.02l198.244 64.42A8 8 0 0 1 476 726.424V776a8 8 0 0 0 8 8h56zM178.304 274.964c-1.332-3.672 0.176-7.784 3.64-9.584C208.668 251.5 238.692 244 270 244a191.2 191.2 0 0 1 88.036 21.34c3.472 1.796 4.988 5.912 3.656 9.588l-91.68 253.028c0 0.008-0.008 0.008-0.008 0l-0.004-0.004-91.696-252.988zM750 527.952l-91.696-252.988c-1.332-3.672 0.176-7.784 3.64-9.584 26.724-13.88 56.744-21.38 88.056-21.38a191.204 191.204 0 0 1 88.036 21.34c3.472 1.796 4.988 5.912 3.656 9.588l-91.676 253.028c-0.004 0.008-0.016 0-0.016-0.004z"  horiz-adv-x="1024" />
      
      <glyph glyph-name="zhutifenxi" unicode="&#59619;" d="M912 768a16 16 0 0 1-16 16H128a16 16 0 0 1-16-16v-624a16 16 0 0 1 16-16h768a16 16 0 0 1 16 16V768zM184 200V712h656v-512H184z m132-164a8 8 0 0 0 8 8h372a8 8 0 0 0 8-8v-48a8 8 0 0 0-8-8H324a8 8 0 0 0-8 8v48z m42.576 429.988l-116.916-116.932a8 8 0 0 0-11.312 0l-33.944 33.936a8 8 0 0 0 0 11.316l114.648 114.664A107.496 107.496 0 0 0 296 564c0 59.648 48.352 108 108 108s108-48.352 108-108a107.496 107.496 0 0 0-17.612-59.132l65.984-65.984A107.504 107.504 0 0 0 612 452c16.58 0 32.292-3.736 46.332-10.416L778.344 561.6a8 8 0 0 0 11.312 0l33.944-33.944a8 8 0 0 0 0-11.312l-118.156-118.156A107.512 107.512 0 0 0 720 344c0-59.648-48.352-108-108-108s-108 48.352-108 108a107.56 107.56 0 0 0 11.736 49.012l-70.956 70.952A107.672 107.672 0 0 0 404 456c-16.224 0-31.616 3.58-45.424 9.988zM360 564c0-24.3 19.7-44 44-44s44 19.7 44 44-19.7 44-44 44-44-19.7-44-44z m252-176c-24.3 0-44-19.7-44-44s19.7-44 44-44 44 19.7 44 44-19.7 44-44 44z"  horiz-adv-x="1024" />
      
      <glyph glyph-name="yichu" unicode="&#59571;" d="M264 416a8 8 0 0 1-8-8v-48a8 8 0 0 1 8-8h496a8 8 0 0 1 8 8v48a8 8 0 0 1-8 8H264zM64 608a16 16 0 0 0 16 16h864a16 16 0 0 0 16-16v-448a16 16 0 0 0-16-16H80a16 16 0 0 0-16 16V608z m64-56v-336a8 8 0 0 1 8-8h752a8 8 0 0 1 8 8V552a8 8 0 0 1-8 8H136a8 8 0 0 1-8-8z"  horiz-adv-x="1024" />
      
      <glyph glyph-name="font-tip-error" unicode="&#59610;" d="M512-127.991a501.751 501.751 0 0 0-199.357 40 513.783 513.783 0 0 0-163.069 109.565 513.783 513.783 0 0 0-109.566 163.07A501.751 501.751 0 0 0 0.01 384a501.751 501.751 0 0 0 40 199.357 513.783 513.783 0 0 0 109.565 163.069 513.783 513.783 0 0 0 163.07 109.566A501.751 501.751 0 0 0 512 895.99a501.751 501.751 0 0 0 199.357-40 513.783 513.783 0 0 0 163.069-109.565 513.783 513.783 0 0 0 109.566-163.07A501.751 501.751 0 0 0 1023.99 384a501.751 501.751 0 0 0-40-199.357 513.783 513.783 0 0 0-109.565-163.069 513.783 513.783 0 0 0-163.07-109.566A501.751 501.751 0 0 0 512-127.99z m235.068 660.916a24.32 24.32 0 0 1 7.36 17.856 24.32 24.32 0 0 1-7.36 17.856l-52.927 51.647a23.616 23.616 0 0 1-34.432 0L512 472.638 363.075 620.284a23.616 23.616 0 0 1-34.432 0l-52.927-51.647a26.944 26.944 0 0 1-6.144-17.92c0-6.912 2.048-12.864 6.144-17.792l148.926-147.709-148.926-147.645a26.944 26.944 0 0 1-6.144-17.92c0-6.912 2.048-12.864 6.144-17.792l52.927-51.71a23.616 23.616 0 0 1 34.432 0L512 297.857l147.71-147.71a23.616 23.616 0 0 1 34.43 0l52.928 51.711a24.32 24.32 0 0 1 7.36 17.856 24.32 24.32 0 0 1-7.36 17.856L598.142 385.216l148.926 147.71z"  horiz-adv-x="1024" />
      
      <glyph glyph-name="font-tip-success" unicode="&#59611;" d="M512 895.991a501.751 501.751 0 0 0 199.357-40 513.783 513.783 0 0 0 163.069-109.565 513.783 513.783 0 0 0 109.566-163.07A501.751 501.751 0 0 0 1023.99 384a501.751 501.751 0 0 0-40-199.357 513.783 513.783 0 0 0-109.565-163.069 513.783 513.783 0 0 0-163.07-109.566A501.751 501.751 0 0 0 512-127.99a501.751 501.751 0 0 0-199.357 40 513.783 513.783 0 0 0-163.069 109.565 513.783 513.783 0 0 0-109.566 163.07A501.751 501.751 0 0 0 0.01 384a501.751 501.751 0 0 0 40 199.357 513.783 513.783 0 0 0 109.565 163.069 513.783 513.783 0 0 0 163.07 109.566A501.751 501.751 0 0 0 512 895.99z m312.57-407.48a21.76 21.76 0 0 1 7.424 16.319 21.76 21.76 0 0 1-7.423 16.32l-50.88 47.87a24.576 24.576 0 0 1-17.343 6.977 24.576 24.576 0 0 1-17.344-7.04L431.361 279.682 284.996 418.559a24.576 24.576 0 0 1-17.28 6.912 24.576 24.576 0 0 1-17.407-6.976l-50.88-47.807a21.76 21.76 0 0 1-7.423-16.383 21.76 21.76 0 0 1 7.423-16.32L406.594 142.02l7.424-7.04c4.992-4.672 10.752-6.976 17.343-6.976a24.576 24.576 0 0 1 17.408 7.04L824.571 488.51z"  horiz-adv-x="1024" />
      
      <glyph glyph-name="font-auto" unicode="&#59596;" d="M512 832a448 448 0 1 0 0-896 448 448 0 0 0 0 896z m0-64a384 384 0 1 1 0-768 384 384 0 0 1 0 768z m47.168-115.2l171.776-518.144h-86.592l-43.648 147.84H420.48l-44.352-147.84h-83.072L464.832 652.8h94.336z m-47.872-64.064h-2.816a3544 3544 0 0 0-35.328-130.112l-12.544-42.368-21.12-69.696h141.504l-20.416 69.696c-17.6 56.32-33.088 114.048-49.28 172.48z"  horiz-adv-x="1024" />
      
      <glyph glyph-name="font-change" unicode="&#59597;" d="M766.016 672A384 384 0 1 1 896 384a32 32 0 1 0 64 0 448 448 0 1 0-160 343.168V800a32 32 0 1 0 64 0v-160a32 32 0 0 0-32-32H672a32 32 0 1 0 0 64h94.016z m-103.36-393.344a32 32 0 0 0-45.312-45.312l-128 128A32 32 0 0 0 480 384V576a32 32 0 0 0 64 0v-178.752l118.656-118.592z"  horiz-adv-x="1024" />
      
      <glyph glyph-name="font-expand" unicode="&#59598;" d="M495.552 387.2L201.344 93.056a32 32 0 0 1 45.312-45.248l316.8 316.8a32 32 0 0 1 0 45.248l-316.8 316.8a32 32 0 0 1-45.312-45.312L495.552 387.2z m256 0L457.344 93.056a32 32 0 0 1 45.312-45.248l316.8 316.8a32 32 0 0 1 0 45.248l-316.8 316.8a32 32 0 1 1-45.312-45.312L751.552 387.2z"  horiz-adv-x="1024" />
      
      <glyph glyph-name="font-collapse" unicode="&#59599;" d="M525.248 387.2l294.144-294.144a32 32 0 0 0-45.248-45.248l-316.8 316.8a32 32 0 0 0 0 45.248l316.8 316.8a32 32 0 0 0 45.248-45.312L525.248 387.2z m-256 0l294.144-294.144a32 32 0 0 0-45.248-45.248l-316.8 316.8a32 32 0 0 0 0 45.248l316.8 316.8a32 32 0 1 0 45.248-45.312L269.248 387.2z"  horiz-adv-x="1024" />
      
      <glyph glyph-name="font-key" unicode="&#59600;" d="M246.528 75.904c1.024-0.768 1.92-1.664 2.816-2.56l49.152-49.088a32 32 0 0 0-45.248-45.248l-49.152 49.088a32.32 32.32 0 0 0-2.496 2.816l-44.544-44.544a32 32 0 1 0-45.312 45.248L405.952 325.76a32.512 32.512 0 0 0 1.408 1.344 288 288 0 1 0 46.08-44.096 32.384 32.384 0 0 0-2.24-2.496l-95.552-95.552 86.272-86.272a32 32 0 0 0-45.248-45.248L310.4 139.712l-63.872-63.808zM628.224 288a224 224 0 1 1 0 448 224 224 0 0 1 0-448z"  horiz-adv-x="1024" />
      
      <glyph glyph-name="font-less" unicode="&#59601;" d="M352.512 416l399.36-228.224a32 32 0 1 0-31.744-55.552l-448 256a32 32 0 0 0 0 55.552l448 256a32 32 0 0 0 31.744-55.552L352.512 416z"  horiz-adv-x="1024" />
      
      <glyph glyph-name="font-less-equal" unicode="&#59602;" d="M383.36 448L720 251.648a32 32 0 0 0-32.32-55.296l-384 224a32 32 0 0 0 0 55.296l384 224a32 32 0 0 0 32.256-55.296L383.36 448zM304 260.224a32 32 0 1 0 31.68 55.552l368-210.304a32 32 0 0 0-31.744-55.552L304 260.224z"  horiz-adv-x="1024" />
      
      <glyph glyph-name="font-date" unicode="&#59603;" d="M704 768h192a64 64 0 0 0 64-64v-704a64 64 0 0 0-64-64H128a64 64 0 0 0-64 64V704a64 64 0 0 0 64 64h192V800a32 32 0 0 0 64 0v-32h256V800a32 32 0 1 0 64 0v-32z m0-64v-32a32 32 0 1 0-64 0v32H384v-32a32 32 0 0 0-64 0v32H128v-704h768V704H704zM256 384h128v-128H256V384z m0-192h128v-128H256V192z m192 192h128v-128H448V384z m0 192h128v-128H448V576z m0-384h128v-128H448V192z m192 192h128v-128H640V384z m0 192h128v-128H640V576z"  horiz-adv-x="1024" />
      
      <glyph glyph-name="font-parameter-double" unicode="&#59604;" d="M123.264-95.744v64h740.224V543.36H671.616a64 64 0 0 0-64 64V799.04H160V512H96V798.912a64 64 0 0 0 64 64h475.264a34.688 34.688 0 0 0 31.36-9.088l249.536-249.28a34.56 34.56 0 0 0 9.792-19.648 30.72 30.72 0 0 0 1.472-9.6v-607.04a64 64 0 0 0-64-64h-740.16zM671.616 749.12v-141.76h141.952L671.616 749.184z m-472.32-341.312c-4.864-0.96-6.592-3.072-7.68-10.112v-381.248h-64l0.192 385.152c4.48 36.8 25.152 62.336 59.136 68.992 32.448 6.336 61.248-7.04 82.368-35.776l4.16-7.808 116.992-318.016c7.936-16.064 15.872-20.48 30.4-18.048 13.184 2.176 17.024 6.912 17.28 23.104V477.76h64V113.6c-0.768-46.784-26.24-78.464-70.848-85.76-43.136-7.168-78.08 12.16-99.584 55.936l-116.608 316.48c-5.824 7.04-10.24 8.64-15.872 7.552z"  horiz-adv-x="1024" />
      
      <glyph glyph-name="font-trigger-triangle" unicode="&#59605;" d="M333.248 512h357.504a32 32 0 0 0 22.592-54.656L534.656 278.656a32 32 0 0 0-45.312 0L310.656 457.344A32 32 0 0 0 333.248 512z"  horiz-adv-x="1024" />
      
      <glyph glyph-name="font-underline" unicode="&#59606;" d="M768 704v-416a128 128 0 0 0-128-128H384a128 128 0 0 0-128 128V704a32 32 0 0 0 64 0v-416a64 64 0 0 1 64-64h256a64 64 0 0 1 64 64V704a32 32 0 1 0 64 0zM224 70.4h576a32 32 0 1 0 0-64H224a32 32 0 1 0 0 64z"  horiz-adv-x="1024" />
      
      <glyph glyph-name="font-tip-warning" unicode="&#59607;" d="M512 895.991a501.751 501.751 0 0 0 199.357-40 513.783 513.783 0 0 0 163.069-109.565 513.783 513.783 0 0 0 109.566-163.07A501.751 501.751 0 0 0 1023.99 384a501.751 501.751 0 0 0-40-199.357 513.783 513.783 0 0 0-109.565-163.069 513.783 513.783 0 0 0-163.07-109.566A501.751 501.751 0 0 0 512-127.99a501.751 501.751 0 0 0-199.357 40 513.783 513.783 0 0 0-163.069 109.565 513.783 513.783 0 0 0-109.566 163.07A501.751 501.751 0 0 0 0.01 384a501.751 501.751 0 0 0 40 199.357 513.783 513.783 0 0 0 109.565 163.069 513.783 513.783 0 0 0 163.07 109.566A501.751 501.751 0 0 0 512 895.99z m0-802.418a56.959 56.959 0 0 1 41.855 17.216 56.959 56.959 0 0 1 17.28 41.855 56.959 56.959 0 0 1-17.28 41.791A56.959 56.959 0 0 1 512 211.715a56.959 56.959 0 0 1-41.855-17.28 56.959 56.959 0 0 1-17.28-41.791c0-16.448 5.76-30.4 17.28-41.855 11.52-11.52 25.471-17.28 41.855-17.28z m59.071 255.996V625.212a56.959 56.959 0 0 1-17.28 41.855A56.959 56.959 0 0 1 512 684.347a56.959 56.959 0 0 1-41.855-17.28 56.959 56.959 0 0 1-17.28-41.855v-275.643c0-16.448 5.76-30.4 17.28-41.856 11.52-11.52 25.471-17.28 41.855-17.28a56.959 56.959 0 0 1 41.855 17.28 56.959 56.959 0 0 1 17.28 41.856z"  horiz-adv-x="1024" />
      
      <glyph glyph-name="font-vertical-drag" unicode="&#59608;" d="M896 469.333a42.667 42.667 0 1 0-85.333 0 42.667 42.667 0 0 0 85.333 0z m-170.667 0a42.667 42.667 0 1 0-85.333 0 42.667 42.667 0 0 0 85.333 0zM896 298.667a42.667 42.667 0 1 0-85.333 0 42.667 42.667 0 0 0 85.333 0z m-170.667 0a42.667 42.667 0 1 0-85.333 0 42.667 42.667 0 0 0 85.333 0zM554.667 469.333a42.667 42.667 0 1 0-85.334 0 42.667 42.667 0 0 0 85.334 0z m0-170.666a42.667 42.667 0 1 0-85.334 0 42.667 42.667 0 0 0 85.334 0zM384 469.333a42.667 42.667 0 1 0-85.333 0 42.667 42.667 0 0 0 85.333 0z m0-170.666a42.667 42.667 0 1 0-85.333 0 42.667 42.667 0 0 0 85.333 0zM213.333 469.333a42.667 42.667 0 1 0-85.333 0 42.667 42.667 0 0 0 85.333 0z m0-170.666a42.667 42.667 0 1 0-85.333 0 42.667 42.667 0 0 0 85.333 0z"  horiz-adv-x="1024" />
      
      <glyph glyph-name="font-tip-message" unicode="&#59609;" d="M512-127.991a501.751 501.751 0 0 1 199.357 40 513.783 513.783 0 0 1 163.069 109.565 513.783 513.783 0 0 1 109.566 163.07A501.751 501.751 0 0 1 1023.99 384a501.751 501.751 0 0 1-40 199.357 513.783 513.783 0 0 1-109.565 163.069 513.783 513.783 0 0 1-163.07 109.566A501.751 501.751 0 0 1 512 895.99a501.751 501.751 0 0 1-199.357-40 513.783 513.783 0 0 1-163.069-109.565 513.783 513.783 0 0 1-109.566-163.07A501.751 501.751 0 0 1 0.01 384a501.751 501.751 0 0 1 40-199.357 513.783 513.783 0 0 1 109.565-163.069 513.783 513.783 0 0 1 163.07-109.566A501.751 501.751 0 0 1 512-127.99z m0 767.987c17.792 0 32.895-6.208 45.311-18.688 12.48-12.416 18.688-27.52 18.688-45.311a61.695 61.695 0 0 0-18.688-45.312A61.695 61.695 0 0 0 512 511.998a61.695 61.695 0 0 0-45.311 18.687A61.695 61.695 0 0 0 448 575.997c0 17.791 6.208 32.895 18.688 45.31A61.695 61.695 0 0 0 512 639.997zM575.999 390.4v-268.795c0-16-6.208-29.568-18.688-40.832-12.416-11.2-27.52-16.767-45.311-16.767-17.792 0-32.895 5.568-45.311 16.831A52.863 52.863 0 0 0 448 121.605V390.4c0 16 6.208 29.567 18.688 40.767C479.105 442.431 494.209 448 512 448c17.792 0 32.895-5.568 45.311-16.832A52.863 52.863 0 0 0 576 390.4z"  horiz-adv-x="1024" />
      
      <glyph glyph-name="font-arrow-left" unicode="&#59580;" d="M320 387.2a32.142 32.142 0 0 0 9.344 22.656l316.8 316.8a32 32 0 0 0 45.248-45.312L397.248 387.2l294.144-294.144a32 32 0 0 0-45.248-45.248l-316.8 316.8A31.872 31.872 0 0 0 320 387.2z"  horiz-adv-x="1024" />
      
      <glyph glyph-name="font-arrow-right" unicode="&#59581;" d="M700.8 387.2a31.872 31.872 0 0 0-9.408-22.592l-316.8-316.8a32 32 0 1 0-45.248 45.248L623.552 387.2 329.344 681.344a32 32 0 1 0 45.312 45.312l316.8-316.8A31.872 31.872 0 0 0 700.8 387.2z"  horiz-adv-x="1024" />
      
      <glyph glyph-name="font-operator-divide" unicode="&#59582;" d="M668.8 661.12a32 32 0 0 0 11.776-43.712l-288-498.816a32 32 0 1 0-55.424 32l288 498.816a32 32 0 0 0 43.712 11.712z"  horiz-adv-x="1024" />
      
      <glyph glyph-name="font-operator-minus" unicode="&#59583;" d="M256 352a32 32 0 0 0 0 64h512a32 32 0 1 0 0-64H256z"  horiz-adv-x="1024" />
      
      <glyph glyph-name="font-filter-down" unicode="&#59584;" d="M536.64 178.048l288.832 373.76a31.104 31.104 0 0 1-24.64 50.24H223.104a31.168 31.168 0 0 1-24.64-50.176l288.832-373.76a31.168 31.168 0 0 1 49.28 0"  horiz-adv-x="1024" />
      
      <glyph glyph-name="font-operator-multi" unicode="&#59585;" d="M456.576 352H256a32 32 0 0 0 0 64h200.576L356.288 589.696a32 32 0 1 0 55.424 32L512 448l100.288 173.696a32 32 0 1 0 55.424-32L567.424 416H768a32 32 0 0 0 0-64H567.424l100.288-173.696a32 32 0 1 0-55.424-32L512 320 411.712 146.304a32 32 0 0 0-55.424 32L456.576 352z"  horiz-adv-x="1024" />
      
      <glyph glyph-name="font-operator-right-brackets" unicode="&#59586;" d="M495.744 718.528a32 32 0 1 1-56.96-29.12A668.992 668.992 0 0 0 512 384c0-107.776-25.408-211.84-73.408-305.728a32 32 0 0 1 56.96-29.12A732.928 732.928 0 0 1 576 384c0 117.888-27.776 231.808-80.256 334.528z"  horiz-adv-x="1024" />
      
      <glyph glyph-name="font-search" unicode="&#59587;" d="M928.896 2.432a38.976 38.976 0 0 0-55.04-55.04L696 125.312a386.56 386.56 0 0 0-223.808-71.232A388.928 388.928 0 1 0 861.12 443.008c0-99.2-37.952-194.56-106.24-266.56l174.08-174.08zM160.96 443.008a311.168 311.168 0 1 1 622.4 0 311.168 311.168 0 0 1-622.4 0z"  horiz-adv-x="1024" />
      
      <glyph glyph-name="font-solid-left" unicode="&#59588;" d="M329.664 364.288l299.072-231.04a24.896 24.896 0 0 1 40.128 19.712V615.04a24.96 24.96 0 0 1-40.128 19.712L329.6 403.776a24.96 24.96 0 0 1 0-39.488"  horiz-adv-x="1024" />
      
      <glyph glyph-name="font-operator-plus" unicode="&#59589;" d="M544 416h224c21.184 0 38.4-14.336 38.4-32s-17.216-32-38.4-32H544v-224c0-21.184-14.336-38.4-32-38.4s-32 17.216-32 38.4V352H256c-21.184 0-38.4 14.336-38.4 32s17.216 32 38.4 32h224V640c0 21.184 14.336 38.4 32 38.4s32-17.216 32-38.4v-224z"  horiz-adv-x="1024" />
      
      <glyph glyph-name="font-up-triangle" unicode="&#59590;" d="M508.8 576c8.192 0 16.384-3.136 22.592-9.344l316.8-316.8a32 32 0 1 0-45.248-45.248L508.8 498.752 214.656 204.608a32 32 0 0 0-45.312 45.248l316.8 316.8A31.872 31.872 0 0 0 508.8 576z"  horiz-adv-x="1024" />
      
      <glyph glyph-name="font-add" unicode="&#59591;" d="M550.4 38.4V345.6h307.2a38.4 38.4 0 0 1 0 76.8H550.4V729.6a38.4 38.4 0 0 1-76.8 0v-307.2H166.4a38.4 38.4 0 0 1 0-76.8h307.2v-307.2a38.4 38.4 0 0 1 76.8 0z"  horiz-adv-x="1024" />
      
      <glyph glyph-name="font-parameter-string" unicode="&#59592;" d="M576 466.688V603.776h64v-137.088h153.472c51.84 0 92.8-42.496 92.8-93.824v-123.52c0-51.264-40.96-93.824-92.8-93.824H668.8c-51.84 0-92.8 42.56-92.8 93.888v217.28z m64-118.912v-98.368c0-16.512 12.864-29.888 28.8-29.888h124.672c15.936 0 28.8 13.44 28.8 29.888V372.864a29.376 29.376 0 0 1-28.8 29.824H668.8a29.376 29.376 0 0 1-28.8-29.824v-25.088z m-185.792-64H237.44l-42.624-127.872h-67.52l127.36 382.208a96 96 0 0 0 182.144 0l127.488-382.4H496.96l-42.752 128.064z m-21.312 64l-56.768 170.112a32 32 0 0 1-60.736 0l-56.704-170.112h174.208zM32 768h960a32 32 0 0 0 32-32v-704a32 32 0 0 0-32-32H32a32 32 0 0 0-32 32V736a32 32 0 0 0 32 32z m32-64v-640h896V704H64z"  horiz-adv-x="1024" />
      
      <glyph glyph-name="font-down-triangle" unicode="&#59593;" d="M508.8 195.2a31.872 31.872 0 0 0-22.656 9.408l-316.8 316.8a32 32 0 1 0 45.312 45.248L508.8 272.448l294.144 294.208a32 32 0 0 0 45.248-45.312l-316.8-316.8A31.872 31.872 0 0 0 508.8 195.2z"  horiz-adv-x="1024" />
      
      <glyph glyph-name="font-parameter-refresh" unicode="&#59594;" d="M894.4 547.968a32 32 0 1 0-58.816-25.216 352.064 352.064 0 0 1-670.976-81.6 32 32 0 1 0-63.168 10.304 416.064 416.064 0 0 0 792.96 96.512z m-695.488-325.12A352.128 352.128 0 0 1 859.008 324.48a32 32 0 1 0 63.04-10.752 416.128 416.128 0 0 0-775.104-129.28v-121.536a32 32 0 1 0-64 0v192a32 32 0 0 0 32 32h192a32 32 0 1 0 0-64H198.912zM876.8 544V704a32 32 0 1 0 64 0v-192a32 32 0 0 0-32-32h-192a32 32 0 1 0 0 64h160z"  horiz-adv-x="1024" />
      
      <glyph glyph-name="font-operator-left-brackets" unicode="&#59595;" d="M528.64 718.336a32 32 0 1 0 56.96-29.12 668.992 668.992 0 0 1-73.216-305.408c0-107.776 25.408-211.84 73.408-305.728a32 32 0 1 0-56.96-29.12 732.928 732.928 0 0 0-80.448 334.848c0 117.888 27.776 231.808 80.256 334.528z"  horiz-adv-x="1024" />
      
      <glyph glyph-name="font-align-center" unicode="&#59554;" d="M224 704h576a32 32 0 1 0 0-64H224a32 32 0 0 0 0 64z m0-384h576a32 32 0 1 0 0-64H224a32 32 0 0 0 0 64z m128 192h320a32 32 0 1 0 0-64H352a32 32 0 0 0 0 64z m0-384h320a32 32 0 1 0 0-64H352a32 32 0 1 0 0 64z"  horiz-adv-x="1024" />
      
      <glyph glyph-name="font-string-field" unicode="&#59555;" d="M800 704v-70.4H544V0h-64V633.6H224V704h576z"  horiz-adv-x="1024" />
      
      <glyph glyph-name="font-solid-bottom" unicode="&#59556;" d="M514.176 219.264l231.04 299.008a24.896 24.896 0 0 1-19.712 40.192H263.296a24.96 24.96 0 0 1-19.648-40.192l231.04-299.008a24.96 24.96 0 0 1 39.424 0"  horiz-adv-x="1024" />
      
      <glyph glyph-name="font-solid-right" unicode="&#59557;" d="M659.2 403.712l-299.072 231.04A24.896 24.896 0 0 1 320 615.04v-462.144a24.96 24.96 0 0 1 40.128-19.712L659.2 364.224a24.96 24.96 0 0 1 0 39.488"  horiz-adv-x="1024" />
      
      <glyph glyph-name="font-horizontal-drag" unicode="&#59558;" d="M426.667 85.333a42.667 42.667 0 1 0 0-85.333 42.667 42.667 0 0 0 0 85.333z m170.666 0a42.667 42.667 0 1 0 0-85.333 42.667 42.667 0 0 0 0 85.333zM426.667 256a42.667 42.667 0 1 0 0-85.333 42.667 42.667 0 0 0 0 85.333z m170.666 0a42.667 42.667 0 1 0 0-85.333 42.667 42.667 0 0 0 0 85.333zM426.667 426.667a42.667 42.667 0 1 0 0-85.334 42.667 42.667 0 0 0 0 85.334z m170.666 0a42.667 42.667 0 1 0 0-85.334 42.667 42.667 0 0 0 0 85.334zM426.667 597.333a42.667 42.667 0 1 0 0-85.333 42.667 42.667 0 0 0 0 85.333z m170.666 0a42.667 42.667 0 1 0 0-85.333 42.667 42.667 0 0 0 0 85.333zM426.667 768a42.667 42.667 0 1 0 0-85.333 42.667 42.667 0 0 0 0 85.333z m170.666 0a42.667 42.667 0 1 0 0-85.333 42.667 42.667 0 0 0 0 85.333z"  horiz-adv-x="1024" />
      
      <glyph glyph-name="font-align-left" unicode="&#59559;" d="M224 704h576a32 32 0 1 0 0-64H224a32 32 0 0 0 0 64z m0-384h576a32 32 0 1 0 0-64H224a32 32 0 0 0 0 64z m0 192h320a32 32 0 0 0 0-64H224a32 32 0 0 0 0 64z m0-384h320a32 32 0 1 0 0-64H224a32 32 0 1 0 0 64z"  horiz-adv-x="1024" />
      
      <glyph glyph-name="font-number-field" unicode="&#59560;" d="M448 704l-23.296-128h256L704 704h64l-23.296-128H832v-64h-98.88l-46.528-256H768v-64h-93.056L640 0h-64l34.944 192h-256L320 0h-64l34.944 192H192v64h110.592l46.528 256H256v64h104.704L384 704h64z m221.12-192h-256l-46.528-256h256l46.528 256z"  horiz-adv-x="1024" />
      
      <glyph glyph-name="font-circle-close" unicode="&#59561;" d="M512 0a384 384 0 1 0 0 768 384 384 0 0 0 0-768z m0 429.248L376.256 564.992a32 32 0 1 1-45.248-45.248L466.688 384l-135.68-135.744a32 32 0 0 1 45.248-45.248L512 338.688l135.744-135.68a32 32 0 1 1 45.248 45.248L557.312 384l135.68 135.744a32 32 0 1 1-45.248 45.248L512 429.312z"  horiz-adv-x="1024" />
      
      <glyph glyph-name="font-dot" unicode="&#59562;" d="M320 384a192 192 0 1 1 384 0 192 192 0 1 1-384 0z"  horiz-adv-x="1024" />
      
      <glyph glyph-name="font-cross" unicode="&#59563;" d="M508.352 432.896l-248.96 248.96a32 32 0 1 1-45.248-45.312l248.96-248.896-248.96-248.896a32 32 0 0 1 45.312-45.248l248.896 248.96 248.896-248.96a32 32 0 1 1 45.248 45.248l-248.96 248.96 248.96 248.832a32 32 0 1 1-45.248 45.312l-248.96-248.96z"  horiz-adv-x="1024" />
      
      <glyph glyph-name="font-solid-top" unicode="&#59564;" d="M514.176 548.736l231.04-299.008a24.896 24.896 0 0 0-19.712-40.192H263.296a24.96 24.96 0 0 0-19.648 40.192l231.04 299.008a24.96 24.96 0 0 0 39.424 0"  horiz-adv-x="1024" />
      
      <glyph glyph-name="font-copy" unicode="&#59565;" d="M671.936 832l256-256v-448s0-64-64-64h-576s-64 0-64 64V766.4s0 65.6 64 65.6h384z m-64-256V768H288.384c-0.192-0.768-0.384-214.016-0.448-639.872 0.192 0 192.128-0.128 575.872-0.128l0.128 384h-192a64 64 0 0 0-64 64z m64 165.504V576h165.44L672 741.504zM388.48 448h118.848c20.224 0 36.608-14.336 36.608-32s-16.384-32-36.608-32H388.48c-20.16 0-36.544 14.336-36.544 32s16.384 32 36.544 32z m0-128h374.848c20.224 0 36.608-14.336 36.608-32s-16.384-32-36.608-32H388.48c-20.16 0-36.544 14.336-36.544 32s16.384 32 36.544 32zM704-64H192a96 96 0 0 0-96 96V544a32 32 0 0 0 64 0v-512a32 32 0 0 1 32-32h512a32 32 0 1 0 0-64z"  horiz-adv-x="1024" />
      
      </font>
</defs>
</svg>
