<?xml version="1.0" standalone="no"?>
<!DOCTYPE svg PUBLIC "-//W3C//DTD SVG 1.1//EN" "http://www.w3.org/Graphics/SVG/1.1/DTD/svg11.dtd" >
<!--
2013-9-30: Created.
-->
<svg>
<metadata>
Created by iconfont
</metadata>
<defs>

<font id="iconfont" horiz-adv-x="1024" >
  <font-face
    font-family="iconfont"
    font-weight="500"
    font-stretch="normal"
    units-per-em="1024"
    ascent="896"
    descent="-128"
  />
    <missing-glyph />
    
    <glyph glyph-name="-" unicode="&#59117;" d="M994.944 454.144a98.816 98.816 0 0 1-70.144 29.056c-17.6 0-34.368-6.336-49.984-15.68L787.84 554.496a78.464 78.464 0 0 1-69.44 115.264 79.36 79.36 0 0 1-56.064-135.424c15.488-15.488 35.776-23.232 56.064-23.232 12.48 0 24.576 3.968 35.968 9.856l86.976-86.976a96.512 96.512 0 0 1-1.536-97.6l-87.744-87.744a78.912 78.912 0 0 1-33.6 8.32c-11.584 0-22.912-3.264-33.6-8.32L597.056 336.384c21.12 37.76 17.152 85.696-14.912 117.76a99.2 99.2 0 0 1-140.224 0c-31.296-31.296-36.032-77.696-16.832-115.008l-88.704-88.704a79.232 79.232 0 0 1-61.632 0L186.048 339.136a96.896 96.896 0 0 1 0 89.664l88.704 88.704c28.864-12.16 63.36-6.72 86.912 16.768 23.488 23.488 28.992 58.048 16.768 86.912l88.704 88.704c37.312-19.2 83.712-14.464 114.944 16.768A99.2 99.2 0 0 1 441.856 866.88c-31.232-31.168-35.968-77.568-16.768-114.88L336.384 663.296a79.296 79.296 0 0 1-86.912-16.768 79.168 79.168 0 0 1-16.768-86.912L144 470.912c-37.312 19.2-83.712 14.464-114.944-16.768a99.2 99.2 0 0 1 0-140.224c31.232-31.296 77.632-36.032 114.944-16.832l88.704-88.704c-12.16-28.864-6.72-63.424 16.768-86.912 23.488-23.488 58.048-28.992 86.912-16.768l88.704-88.704c-19.2-37.312-14.464-83.712 16.768-114.944a99.2 99.2 0 0 1 140.224 140.224c-31.232 31.232-77.632 36.032-114.944 16.768l-88.704 88.704c8.32 19.712 8.32 41.92 0 61.632l88.704 88.704c29.376-15.168 63.488-14.336 92.48 1.856l87.744-87.744a78.72 78.72 0 0 1 70.976-112.96 78.72 78.72 0 0 1 70.976 112.96l87.744 87.744c14.976-8.384 30.976-14.144 47.616-14.144a99.136 99.136 0 0 1 70.272 169.344z m-295.232 117.568a26.432 26.432 0 1 0 37.44 37.376 26.432 26.432 0 0 0-37.44-37.376z m37.376-412.8a26.368 26.368 0 0 0-37.376 0 26.432 26.432 0 1 0 37.376 0z m220.48 192.384a45.76 45.76 0 0 0-32.704-13.568 46.272 46.272 0 1 0 32.704 13.568z"  horiz-adv-x="1024" />

    
    <glyph glyph-name="fanhui" unicode="&#59054;" d="M448 608h192c158.592 0 288-121.28 288-272S798.592 64 640 64H191.872v64H640c124.16 0 224 93.632 224 208S764.16 544 640 544H448v-127.232l-320 160 320 160V608z"  horiz-adv-x="1088" />

    
    <glyph glyph-name="icon-test" unicode="&#59056;" d="M807.488 518.656h-104l-43.904-264.896h125.12v-55.232h-134.848l-25.984-135.68h-63.36l25.984 135.68H368.64l-29.248-135.68H277.76l29.248 135.68H217.6v55.232h100.736l48.768 264.896H245.248v55.232h131.584L402.88 710.4h61.696l-25.984-136.512h211.2l24.448 136.512h63.36l-22.72-136.512h92.608v-55.232z m-211.264-264.896l45.504 264.896h-211.2l-50.432-264.896h216.128z"  horiz-adv-x="1024" />

    
    <glyph glyph-name="shijian" unicode="&#59057;" d="M512 0A384 384 0 1 1 512 768a384 384 0 0 1 0-768z m0-64A448 448 0 1 0 512 832a448 448 0 0 0 0-896z m0.128 704a32 32 0 0 0 32-32v-256a32 32 0 0 0-64 0v256a32 32 0 0 0 32 32z m159.68-448.704a32 32 0 0 0-45.248 0L490.88 327.03999999999996a32 32 0 1 0 45.248 45.248l135.744-135.744a32 32 0 0 0 0-45.248z"  horiz-adv-x="1024" />

    
    <glyph glyph-name="fenxibiao" unicode="&#59059;" d="M885.312 761.6c71.936 0.192 132.48-53.76 138.24-123.2 5.76-70.464-44.416-132.032-116.8-143.68-16.64-2.688-33.024-2.368-49.28 1.28-6.4 1.408-8.768-0.448-11.52-5.12-50.88-85.76-101.696-171.52-152.96-256.896-5.376-8.832 1.152-10.24 5.568-13.632 35.2-27.2 51.584-62.912 45.824-106.24-6.08-45.184-32.384-76.864-76.352-93.184a118.4 118.4 0 0 0-131.328 34.368c-32 37.76-36.416 89.856-10.368 131.968 4.48 7.168 4.544 10.24-2.944 15.68a32231.36 32231.36 0 0 0-214.784 156.288c-5.952 4.352-10.432 5.312-17.472 1.92-16.32-7.616-34.048-10.496-51.968-7.936-7.744 1.152-10.944-1.344-14.464-7.232a8896 8896 0 0 0-64.64-108.608c-4.032-6.656-4.224-10.624 1.152-17.408 24.064-30.272 27.136-63.36 9.024-97.28a89.6 89.6 0 0 0-89.024-45.568c-38.272 4.992-64.768 25.536-76.8 61.632-20.864 62.912 35.456 124.928 102.4 112.832 7.488-1.408 10.944 0.64 14.528 6.784 20.16 34.56 40.576 69.12 61.44 103.36 4.608 7.424 4.48 11.328-2.56 17.536a97.28 97.28 0 0 0-24.96 113.856c17.472 39.104 58.24 62.976 102.72 60.096 42.112-2.752 78.912-32 90.88-72.768 8.064-27.328 4.608-53.504-10.24-77.888-3.904-6.4-2.752-9.28 2.944-13.44 72.32-52.352 144.64-104.96 216.768-157.632 4.736-3.456 8.256-4.672 14.08-1.472a110.08 110.08 0 0 0 64.512 13.056c8.128-0.768 11.52 2.176 15.232 8.448 50.112 84.736 100.416 169.344 151.04 253.76 4.48 7.616 4.736 11.328-3.008 17.216a131.2 131.2 0 0 0-44.544 148.864c18.944 53.568 71.488 90.112 129.664 90.24z"  horiz-adv-x="1024" />

    
    <glyph glyph-name="shujukubiao" unicode="&#59060;" d="M533.248 229.12V405.12h270.528c33.92 0 65.024-11.904 87.936-34.816 23.232-22.656 36.608-51.392 36.608-83.2v-65.28c0-31.168-11.52-59.904-33.856-82.88-25.152-25.152-58.688-37.248-96.192-37.248H650.24c-72.576 0-116.992 53.76-116.992 127.36z m64 0c0-40.256 18.432-63.36 52.992-63.36h148.032c21.248 0 38.528 6.08 50.944 18.56a52.288 52.288 0 0 1 15.104 37.504v65.28c0 13.824-5.952 26.432-17.28 37.44a59.072 59.072 0 0 1-43.264 16.64H597.248v-112.128z m211.648 112.768H533.248V517.76c0 35.712 16.576 67.328 45.824 89.984a116.992 116.992 0 0 0 70.848 23.616h158.976c36.16 0 68.736-13.568 91.52-40.576 18.752-22.016 27.904-49.536 27.904-79.232v-53.12c0-32.768-12.544-62.72-37.12-85.888-22.464-20.544-51.2-30.72-82.304-30.72z m0 64a56.32 56.32 0 0 1 39.232 14.016 51.2 51.2 0 0 1 16.192 38.656v53.12a56.768 56.768 0 0 1-12.672 37.76c-10.112 12.032-24.768 17.92-42.752 17.92h-158.976a52.992 52.992 0 0 1-32.448-10.752c-13.248-10.24-20.224-23.424-20.224-38.784v-112h211.648z m-444.48-303.104H89.664V627.9680000000001h278.208c72.896 0 122.176-49.92 122.176-122.88v-282.56c0-32.704-12.8-62.72-36.288-85.632-23.68-23.04-54.848-34.112-89.344-34.112z m0 64c18.56 0 33.664 5.248 44.672 16a53.952 53.952 0 0 1 16.96 39.744V505.088c0 37.76-20.8 58.88-58.176 58.88H153.664v-397.184h210.752z"  horiz-adv-x="1024" />

    
    <glyph glyph-name="Excelbiao" unicode="&#59061;" d="M178.752 334.08000000000004l2.688 0.064 117.76-0.32h2.624a32 32 0 0 1 27.584 21.504l46.528 177.28h67.072L390.016 334.72c-4.288-12.416-10.88-23.488-19.2-32.896 8.32-9.344 14.912-20.48 19.2-32.832l56.384-203.072H379.328l-49.92 182.4a32 32 0 0 1-30.272 21.44l-117.76 0.32h-2.624a32 32 0 0 1-27.52-21.12l-55.616-182.72H30.848l60.096 204.032c4.224 11.968 10.688 22.784 18.88 31.872a95.808 95.808 0 0 0-18.88 31.936L35.84 532.672h64.768l50.624-177.28a32 32 0 0 1 27.52-21.248z m324.736 406.784h64v-675.968h-64V740.864z m489.6-206.208v-64H732.16a32 32 0 0 1-32-32v-73.728a32 32 0 0 1 32-32h164.8a96 96 0 0 0 96-96v-76.544a96 96 0 0 0-96-96H636.224v64h260.8a32 32 0 0 1 32 32v76.544a32 32 0 0 1-32 32h-164.8a96 96 0 0 0-96 96V438.656a96 96 0 0 0 96 96h260.8z"  horiz-adv-x="1024" />

    
    <glyph glyph-name="tianjiabiao" unicode="&#59063;" d="M608 767.232H192a32 32 0 0 1-32-32v-702.464a32 32 0 0 1 32-32h640a32 32 0 0 1 32 32V489.6h-166.4a89.6 89.6 0 0 0-89.6 89.6V767.232z m64-48.832v-132.032a32 32 0 0 1 32-32h116.736L672 718.4z m-2.24 96.96l244.8-267.52a51.2 51.2 0 0 0 13.44-34.56v-487.68a89.6 89.6 0 0 0-89.6-89.6H185.6a89.6 89.6 0 0 0-89.6 89.6V742.4A89.6 89.6 0 0 0 185.6 832h446.4a51.2 51.2 0 0 0 37.76-16.64zM352.256 289.28h319.168a32.384 32.384 0 0 0 0-64.768H352.256a32.384 32.384 0 0 0 0 64.768zM479.424 97.27999999999997V416.448a32.384 32.384 0 1 0 64.768 0v-319.168a32.384 32.384 0 0 0-64.768 0z"  horiz-adv-x="1024" />

    
    <glyph glyph-name="ABC" unicode="&#59064;" d="M550.656 640v-576h-76.8V640H256V704h512v-64H550.656z"  horiz-adv-x="1024" />

    
    <glyph glyph-name="Sqlbiao" unicode="&#59065;" d="M842.24 288v-253.184h-64v134.4c-11.392-4.16-23.872-6.4-36.864-6.4H547.584c-55.744 0-100.928 41.728-100.928 93.184V516.928c0 51.456 45.184 93.184 100.928 93.184h193.792c55.68 0 100.928-41.728 100.928-93.184V288z m78.528 450.112h64v-703.36h-64V738.1759999999999z m-375.616-192c-19.072 0-34.56-13.696-34.56-30.592v-258.112c0-16.896 15.488-30.592 34.56-30.592h198.592c19.072 0 34.56 13.696 34.56 30.592V515.52c0 16.896-15.488 30.592-34.56 30.592H545.152z m-147.584 64v-61.888h-250.88c-19.2 0-34.688-13.888-34.688-30.976v-67.84c0-17.088 15.552-30.912 34.688-30.912h146.816c57.472 0 104.064-41.6 104.064-92.928v-69.888c0-51.264-46.592-92.864-104.064-92.864H42.624v61.888h250.88c19.136 0 34.688 13.888 34.688 30.976V325.568c0 17.088-15.552 30.976-34.688 30.976H146.688c-57.472 0-104.128 41.6-104.128 92.928V517.248c0 51.264 46.656 92.864 104.128 92.864h250.88z"  horiz-adv-x="1024" />

    
    <glyph glyph-name="normal" unicode="&#59066;" d="M160.768 0h704a32 32 0 1 0 0-64h-704a32 32 0 1 0 0 64zM602.56 676.864l45.248 45.248L787.456 582.4l-45.248-45.248-139.648 139.648zM216.128 267.52l-11.776-129.472 129.472 11.776 498.56 499.584-117.696 117.632-498.56-499.52zM133.76 67.45600000000002l20.8 228.992 514.944 515.904a64 64 0 0 0 90.56 0l117.568-117.696a64 64 0 0 0 0-90.432l-514.88-515.968-228.992-20.8z"  horiz-adv-x="1024" />

    
    <glyph glyph-name="normal1" unicode="&#59067;" d="M864.256 607.36v128h-704v-704h704v512h-704v64h704z m-704 192h704a64 64 0 0 0 64-64v-704a64 64 0 0 0-64-64h-704a64 64 0 0 0-64 64v704a64 64 0 0 0 64 64z m128-256h64v-512h-64v512z"  horiz-adv-x="1024" />

    
    <glyph glyph-name="normal2" unicode="&#59068;" d="M161.344 768l-33.28-128h767.872l-33.28 128H161.28z m798.464-123.776A55.04 55.04 0 0 0 960 640v-640c0-35.2-33.6-64-74.688-64H138.688C97.6-64 64-35.200000000000045 64 0V640c0 1.28 0 2.56 0.128 3.84a64 64 0 0 0 1.92 12.288l33.408 128A64 64 0 0 0 161.28 832H862.72a64 64 0 0 0 61.888-47.872l33.344-128c1.024-3.968 1.664-7.936 1.92-11.904zM525.568 545.7280000000001L256 276.22400000000005l207.808-1.792-0.256-204.16 125.504 1.472 4.608 199.936 203.392 2.56-271.488 271.488z"  horiz-adv-x="1024" />

    
    <glyph glyph-name="normal3" unicode="&#59069;" d="M704 595.2V768H256.448c-0.192-0.768-0.32-214.016-0.448-639.872 0.192 0 256.128-0.128 639.872-0.128L896 576h-172.8a19.2 19.2 0 0 0-19.2 19.2z m165.504 44.8L768 741.504V640h101.504zM768 832l192-192v-512s0-64-64-64H256s-64 0-64 64V766.4S192 832 256 832h512zM356.544 512h438.912c20.16 0 36.544-14.336 36.544-32s-16.384-32-36.544-32H356.48C336.384 448 320 462.336 320 480s16.384 32 36.544 32z m0-128h438.912c20.16 0 36.544-14.336 36.544-32s-16.384-32-36.544-32H356.48C336.384 320 320 334.336 320 352s16.384 32 36.544 32zM64.32 668.032a32 32 0 1 0 63.488 0h0.256v-668.16h604.8a32 32 0 0 0 4.672-63.808l0.064-0.192H128.064a64 64 0 0 0-64 64V668.032h0.256zM356.544 256h438.912c20.16 0 36.544-14.336 36.544-32s-16.384-32-36.544-32H356.48C336.384 192 320 206.336 320 224s16.384 32 36.544 32z"  horiz-adv-x="1024" />

    
    <glyph glyph-name="normal4" unicode="&#59070;" d="M176.64 688.896l263.04-289.344a32 32 0 0 0 8.32-21.504v-326.4a32 32 0 0 1 54.656-22.592l64 64A32 32 0 0 1 576 115.64800000000002v262.4a32 32 0 0 0 8.32 21.504l263.04 289.28a32 32 0 0 1-23.68 53.568H200.32a32 32 0 0 1-23.68-53.504z"  horiz-adv-x="1024" />

    
    <glyph glyph-name="normal5" unicode="&#59071;" d="M224 633.6a38.4 38.4 0 1 0 0 76.8h576a38.4 38.4 0 0 0 0-76.8h-576z m0-384a38.4 38.4 0 1 0 0 76.8h576a38.4 38.4 0 0 0 0-76.8h-576z m128 192a38.4 38.4 0 1 0 0 76.8h320a38.4 38.4 0 0 0 0-76.8h-320z m0-384a38.4 38.4 0 0 0 0 76.8h320a38.4 38.4 0 0 0 0-76.8h-320z"  horiz-adv-x="1024" />

    
    <glyph glyph-name="normal6" unicode="&#59072;" d="M896 704c35.2 0 64-28.8 64-64v-640c0-35.2-28.8-64-64-64H256c-35.2 0-64 28.8-64 64V640c0 35.2 28.8 64 64 64h640z m-128-192H471.488l109.696-112.448L384 197.37599999999998 451.712 128l201.856 202.176L768 217.664V512z m0 256H128v-640a64 64 0 0 0-64 64V768c0 35.2 28.8 64 64 64h576a64 64 0 0 0 64-64z"  horiz-adv-x="1024" />

    
    <glyph glyph-name="normal7" unicode="&#59073;" d="M896 832c35.2 0 64-28.8 64-64v-640c0-35.2-28.8-64-64-64H256c-35.2 0-64 28.8-64 64V768c0 35.2 28.8 64 64 64h640zM320 832v-320a64 64 0 0 1 64-64h384a64 64 0 0 1 64 64V832H320z m448-832a64 64 0 0 0-64-64H128c-35.2 0-64 28.8-64 64V576a64 64 0 0 0 64 64v-640h640zM384 832h384v-256a64 64 0 0 0-64-64H448a64 64 0 0 0-64 64V832z"  horiz-adv-x="1024" />

    
    <glyph glyph-name="normal8" unicode="&#59074;" d="M417.472 289.15200000000004h192v192h-192v-192z m0-64v-192h192v192h-192z m-64 64v192h-192v-192h192z m0-64h-192v-192h192v192z m512 64v192h-192v-192h192z m0-64h-192v-192h192v192z m-448 320h192v192h64v-192h192v192h-704v-192h192v192h64v-192z m-256 256h704a64 64 0 0 0 64-64v-704a64 64 0 0 0-64-64h-704a64 64 0 0 0-64 64v704a64 64 0 0 0 64 64z"  horiz-adv-x="1024" />

    
    <glyph glyph-name="normal9" unicode="&#59075;" d="M160 800h256a64 64 0 0 0 64-64v-256a64 64 0 0 0-64-64h-256a64 64 0 0 0-64 64v256a64 64 0 0 0 64 64z m0-448h256a64 64 0 0 0 64-64v-256a64 64 0 0 0-64-64h-256a64 64 0 0 0-64 64v256a64 64 0 0 0 64 64z m448 448h256a64 64 0 0 0 64-64v-256a64 64 0 0 0-64-64h-256a64 64 0 0 0-64 64v256a64 64 0 0 0 64 64z m0-448h256a64 64 0 0 0 64-64v-256a64 64 0 0 0-64-64h-256a64 64 0 0 0-64 64v256a64 64 0 0 0 64 64z m0 384v-256h256v256h-256z"  horiz-adv-x="1024" />

    
    <glyph glyph-name="normal10" unicode="&#59076;" d="M224 640V704A96 96 0 0 0 320 800h384A96 96 0 0 0 800 704v-64H896a32 32 0 1 0 0-64H128a32 32 0 0 0 0 64h96z m64 0h448V704a32 32 0 0 1-32 32H320a32 32 0 0 1-32-32v-64zM256 480v-448a32 32 0 0 1 32-32h448a32 32 0 0 1 32 32v448a32 32 0 1 0 64 0v-448a96 96 0 0 0-96-96h-448A96 96 0 0 0 192 32v448a32 32 0 0 0 64 0z m128 0a32 32 0 0 0 64 0V128a32 32 0 1 0-64 0V480z m192 0a32 32 0 0 0 64 0V128a32 32 0 1 0-64 0V480z"  horiz-adv-x="1024" />

    
    <glyph glyph-name="normal11" unicode="&#59077;" d="M480 658.624L308.864 487.488a32 32 0 1 0-45.312 45.248L489.856 759.04a32 32 0 0 0 45.248 0l226.304-226.304a32 32 0 1 0-45.248-45.248L544 659.648v-436.352a32 32 0 1 0-64 0V658.624zM192 64h640V288a32 32 0 1 0 64 0v-256a32 32 0 0 0-32-32h-704a32 32 0 0 0-32 32v256a32 32 0 0 0 64 0V64z"  horiz-adv-x="1024" />

    
    <glyph glyph-name="normal12" unicode="&#59078;" d="M328.704 448l-104.192-410.88a96 96 0 0 0-93.056-72.32H65.088v64h66.368a32 32 0 0 1 31.04 24.064L262.656 448H140.8a12.8 12.8 0 0 0-12.8 12.8v38.4c0 7.04 5.76 12.8 12.8 12.8h138.112l29.824 117.632c25.216 99.328 114.56 171.584 217.088 171.584a436.48 436.48 0 0 0 127.424-18.048c-0.128-64 0-8.96 0-64a640.32 640.32 0 0 1-127.36 18.048c-73.28 0-137.152-52.352-155.136-123.328L344.96 512H499.2c7.04 0 12.8-5.76 12.8-12.8v6.4a6.4 6.4 0 0 0 6.4 6.4h135.808a25.6 25.6 0 0 0 23.04-14.4l55.616-114.752 102.912 120.192a25.6 25.6 0 0 0 19.456 8.96h85.888a6.4 6.4 0 0 0 6.4-6.4v-51.2a6.4 6.4 0 0 0-6.4-6.4h-56.448a25.6 25.6 0 0 1-19.392-8.96L763.328 320l70.272-145.024a25.6 25.6 0 0 1 23.04-14.4h40.576a6.4 6.4 0 0 0 6.4-6.4v-51.2a6.4 6.4 0 0 0-6.4-6.4h-80.64a25.6 25.6 0 0 0-23.04 14.4l-75.648 155.968-138.24-161.408a25.6 25.6 0 0 0-19.456-8.96H451.584a6.4 6.4 0 0 0-6.4 6.4v51.2a6.4 6.4 0 0 0 6.4 6.4h79.168a25.6 25.6 0 0 1 19.456 8.96l137.216 160.256-50.304 103.808A25.6 25.6 0 0 1 614.08 448H518.4a6.4 6.4 0 0 0-6.4 6.4v6.4a12.8 12.8 0 0 0-12.8-12.8H328.704z"  horiz-adv-x="1024" />

    
    <glyph glyph-name="normal13" unicode="&#59079;" d="M640.384 118.39999999999998a32 32 0 1 0-64 0V372.736c0 16.192 6.144 31.808 16.768 43.136L822.336 672H201.664l229.44-255.488a64 64 0 0 0 17.216-43.712v-374.08a32 32 0 1 0-64 0V372.79999999999995L154.88 628.352A64 64 0 0 0 201.6 736h620.8a64 64 0 0 0 47.168-107.2l-229.184-256.064v-254.336z"  horiz-adv-x="1024" />

    
    <glyph glyph-name="normal14" unicode="&#59080;" d="M832 633.6H256a38.4 38.4 0 1 0 0 76.8h576a38.4 38.4 0 0 0 0-76.8z m0-384H256a38.4 38.4 0 1 0 0 76.8h576a38.4 38.4 0 0 0 0-76.8z m0 192H512a38.4 38.4 0 1 0 0 76.8h320a38.4 38.4 0 0 0 0-76.8z m0-384H512a38.4 38.4 0 0 0 0 76.8h320a38.4 38.4 0 0 0 0-76.8z"  horiz-adv-x="1024" />

    
    <glyph glyph-name="normal15" unicode="&#59081;" d="M141.824 275.20000000000005H64v-96.192c0-45.056 34.88-81.664 77.76-81.664h330.688v-66.112H355.776a39.872 39.872 0 0 1-38.912-40.704c0-22.464 17.408-40.64 38.912-40.64h311.168a39.808 39.808 0 0 1 38.912 40.64 39.872 39.872 0 0 1-38.912 40.704H550.272V97.27999999999997h330.688c42.88 0 77.76 36.608 77.76 81.664V275.264H141.824z m739.2 544H141.696C98.88 819.2 64 782.528 64 737.472v-380.864h894.72v380.8c0 45.12-34.816 81.792-77.76 81.792z"  horiz-adv-x="1024" />

    
    <glyph glyph-name="normal16" unicode="&#59082;" d="M256 633.6a38.4 38.4 0 1 0 0 76.8h576a38.4 38.4 0 0 0 0-76.8H256z m0-384a38.4 38.4 0 1 0 0 76.8h576a38.4 38.4 0 0 0 0-76.8H256z m0 192a38.4 38.4 0 1 0 0 76.8h320a38.4 38.4 0 1 0 0-76.8H256z m0-384a38.4 38.4 0 0 0 0 76.8h320a38.4 38.4 0 0 0 0-76.8H256z"  horiz-adv-x="1024" />

    
    <glyph glyph-name="normal17" unicode="&#59083;" d="M904.768 537.7280000000001a37.12 37.12 0 0 0 38.272-27.84 474.24 474.24 0 0 0 0-251.776 37.568 37.568 0 0 0-38.272-27.84c-28.416 2.112-55.424-12.8-69.44-38.272-14.272-25.216-13.312-56.64 2.432-80.896a39.232 39.232 0 0 0-4.288-48 444.16 444.16 0 0 0-211.968-125.952 36.992 36.992 0 0 0-42.56 20.224A74.112 74.112 0 0 1 512 0a74.112 74.112 0 0 1-66.944-42.688 36.928 36.928 0 0 0-42.56-20.16 443.968 443.968 0 0 0-211.968 125.888 39.232 39.232 0 0 0-4.352 48c15.872 24.448 16.768 55.488 2.496 80.896a74.24 74.24 0 0 1-69.44 38.272 37.312 37.312 0 0 0-38.272 27.84A471.872 471.872 0 0 0 64 384c0 42.56 5.632 84.928 16.96 125.888a36.864 36.864 0 0 0 38.272 27.84c28.352-1.984 55.296 12.8 69.44 38.208a78.272 78.272 0 0 1-2.496 80.96 39.232 39.232 0 0 0 4.352 48 444.48 444.48 0 0 0 211.968 125.952 36.992 36.992 0 0 0 42.56-20.224c12.544-26.24 38.528-42.816 66.944-42.688 28.416-0.128 54.4 16.448 66.944 42.688a36.928 36.928 0 0 0 42.56 20.224 444.608 444.608 0 0 0 211.968-125.952c12.16-12.992 14.016-32.896 4.288-48-15.808-24.256-16.768-55.68-2.432-80.96 14.08-25.344 41.088-40.192 69.44-38.208z m-125.44-312.512c23.36 41.92 64.064 70.592 110.528 77.696a410.112 410.112 0 0 1 0 162.176 153.28 153.28 0 0 0-110.464 77.632 161.92 161.92 0 0 0-10.24 137.152 381.952 381.952 0 0 1-136.512 81.28 151.808 151.808 0 0 0-241.28 0 382.272 382.272 0 0 1-136.576-81.28 161.92 161.92 0 0 0-10.176-137.152 153.344 153.344 0 0 0-110.528-77.632 412.16 412.16 0 0 1 0-162.176c46.464-7.104 87.232-35.712 110.528-77.696 23.616-41.728 27.328-92.16 10.176-137.088a382.464 382.464 0 0 1 136.512-81.216 151.872 151.872 0 0 0 241.344 0 382.272 382.272 0 0 1 136.576 81.216 161.728 161.728 0 0 0 10.176 137.088zM512 256a128 128 0 1 1 0 256 128 128 0 0 1 0-256z m0-64a192 192 0 1 0 0 384 192 192 0 0 0 0-384z"  horiz-adv-x="1024" />

    
    <glyph glyph-name="normal18" unicode="&#59084;" d="M736 704v-640h64a32 32 0 1 0 0-64h-192a32 32 0 1 0 0 64h64V704h-64a32 32 0 0 0 0 64h192a32 32 0 1 0 0-64h-64zM589.184 545.472v-64H128v-192h461.184v-64H96a32 32 0 0 0-32 32v256a32 32 0 0 0 32 32h493.184z m192 0H928a32 32 0 0 0 32-32v-256a32 32 0 0 0-32-32h-146.816v64H896v192h-114.816v64z"  horiz-adv-x="1024" />

    
    <glyph glyph-name="normal19" unicode="&#59085;" d="M192 640h640a64 64 0 0 0 0-128H192a64 64 0 1 0 0 128z m0-384h640a64 64 0 0 0 0-128H192a64 64 0 0 0 0 128z"  horiz-adv-x="1024" />

    
    <glyph glyph-name="normal20" unicode="&#59086;" d="M448 640a64 64 0 1 0 128 0 64 64 0 0 0-128 0z m0-256a64 64 0 1 0 128 0 64 64 0 0 0-128 0z m0-256a64 64 0 1 0 128 0 64 64 0 0 0-128 0z"  horiz-adv-x="1024" />

    
    <glyph glyph-name="normal21" unicode="&#59087;" d="M832 672l-448-320-192 128-64-64 256-320 512 512z"  horiz-adv-x="1024" />

    
    <glyph glyph-name="normal22" unicode="&#59088;" d="M508.352 432.896l-248.96 248.96a32 32 0 1 1-45.248-45.312l248.96-248.896-248.96-248.896a32 32 0 0 1 45.312-45.248l248.896 248.96 248.896-248.96a32 32 0 1 1 45.248 45.248l-248.96 248.96 248.96 248.832a32 32 0 1 1-45.248 45.312l-248.96-248.96z"  horiz-adv-x="1024" />

    
    <glyph glyph-name="normal23" unicode="&#59089;" d="M0 123.51999999999998c206.08-113.856 520.32-134.272 509.824 313.728H256l384 384 384-384h-248.32c13.888-576-472.256-594.56-775.68-313.792"  horiz-adv-x="1034" />

    
    <glyph glyph-name="normal24" unicode="&#59090;" d="M1024 644.48c-206.08 113.856-520.32 134.272-509.824-313.728h253.824l-384-384-384 384h248.384c-13.952 576 472.192 594.56 775.68 313.792"  horiz-adv-x="1034" />

    
    <glyph glyph-name="normal25" unicode="&#59091;" d="M262.208-128C148.416 78.08000000000004 128 392.32 576 381.82399999999996V128l384 384-384 384v-248.384C0 661.568-18.56 175.42399999999998 262.208-128"  horiz-adv-x="1024" />

    
    <glyph glyph-name="normal26" unicode="&#59092;" d="M761.792-128C875.584 78.08000000000004 896 392.32 448 381.82399999999996V128L64 512l384 384v-248.384c576 13.952 594.56-472.192 313.792-775.616"  horiz-adv-x="1024" />

    
    <glyph glyph-name="normal27" unicode="&#59093;" d="M512 429.248L376.256 564.992a32 32 0 1 1-45.248-45.248L466.688 384l-135.68-135.744a32 32 0 0 1 45.248-45.248L512 338.688l135.744-135.68a32 32 0 1 1 45.248 45.248L557.312 384l135.68 135.744a32 32 0 1 1-45.248 45.248L512 429.312zM512 0A384 384 0 1 0 512 768a384 384 0 0 0 0-768z"  horiz-adv-x="1024" />

    
    <glyph glyph-name="normal28" unicode="&#59094;" d="M531.84 549.12l236.224-295.04a24.896 24.896 0 0 0-19.008-40.448l-462.08-8.064a24.96 24.96 0 0 0-20.416 39.808l225.792 302.976a24.96 24.96 0 0 0 39.488 0.704z"  horiz-adv-x="1024" />

    
    <glyph glyph-name="normal29" unicode="&#59095;" d="M531.712 219.51999999999998a24.96 24.96 0 0 0-39.488 0l-231.04 299.072a24.96 24.96 0 0 0 19.712 40.128h462.144a24.896 24.896 0 0 0 19.712-40.128l-231.04-299.072z"  horiz-adv-x="1024" />

    
    <glyph glyph-name="normal30" unicode="&#59096;" d="M678.4 403.712l-299.072 231.04a24.896 24.896 0 0 1-40.128-19.712v-462.144a24.96 24.96 0 0 1 40.128-19.712l299.072 231.04a24.96 24.96 0 0 1 0 39.488"  horiz-adv-x="1024" />

    
    <glyph glyph-name="normal31" unicode="&#59097;" d="M342.464 403.712l299.072 231.04a24.896 24.896 0 0 0 40.128-19.712v-462.144a24.96 24.96 0 0 0-40.128-19.712L342.4 364.22400000000005a24.96 24.96 0 0 0 0 39.488"  horiz-adv-x="1024" />

    
    <glyph glyph-name="normal32" unicode="&#59098;" d="M618.944 369.664l-180.992-180.992a32 32 0 0 0-45.248 45.248L551.04 392.32 392.704 550.72a32 32 0 1 0 45.248 45.248l180.992-180.992a32 32 0 0 0 0-45.312z"  horiz-adv-x="1024" />

    
    <glyph glyph-name="normal33" unicode="&#59099;" d="M483.2 279.168L302.208 460.224a32 32 0 0 0 45.248 45.248l158.4-158.4 158.4 158.4a32 32 0 1 0 45.248-45.248L528.448 279.168a32 32 0 0 0-45.248 0z"  horiz-adv-x="1024" />

    
    <glyph glyph-name="normal34" unicode="&#59100;" d="M701.76 204.03200000000004l185.92-185.984a32 32 0 1 0-45.248-45.248l-189.184 189.184a352 352 0 1 0 48.512 42.048zM448 160a288 288 0 1 1 0 576 288 288 0 0 1 0-576z"  horiz-adv-x="1024" />

    
    <glyph glyph-name="normal35" unicode="&#59101;" d="M480 416v320a32 32 0 0 0 64 0v-320h320a32 32 0 1 0 0-64h-320v-320a32 32 0 1 0-64 0v320h-320a32 32 0 0 0 0 64h320z"  horiz-adv-x="1024" />

    
    <glyph glyph-name="normal37" unicode="&#59103;" d="M456.576 352H256a32 32 0 0 0 0 64h200.576L356.288 589.696a32 32 0 1 0 55.424 32L512 448l100.288 173.696a32 32 0 1 0 55.424-32L567.424 416H768a32 32 0 0 0 0-64H567.424l100.288-173.696a32 32 0 1 0-55.424-32L512 320l-100.288-173.696a32 32 0 0 0-55.424 32L456.576 352z"  horiz-adv-x="1024" />

    
    <glyph glyph-name="normal38" unicode="&#59104;" d="M668.8 661.12a32 32 0 0 0 11.776-43.712l-288-498.816a32 32 0 1 0-55.424 32l288 498.816a32 32 0 0 0 43.712 11.712z"  horiz-adv-x="1024" />

    
    <glyph glyph-name="normal39" unicode="&#59105;" d="M544 416H768c21.184 0 38.4-14.336 38.4-32s-17.216-32-38.4-32H544V128c0-21.184-14.336-38.4-32-38.4s-32 17.216-32 38.4V352H256c-21.184 0-38.4 14.336-38.4 32s17.216 32 38.4 32h224V640c0 21.184 14.336 38.4 32 38.4s32-17.216 32-38.4v-224z"  horiz-adv-x="1024" />

    
    <glyph glyph-name="normal40" unicode="&#59106;" d="M256 352a32 32 0 0 0 0 64h512a32 32 0 1 0 0-64H256z"  horiz-adv-x="1024" />

    
    <glyph glyph-name="normal41" unicode="&#59107;" d="M495.744 718.528a32 32 0 1 1-56.96-29.12A668.992 668.992 0 0 0 512 384c0-107.776-25.408-211.84-73.408-305.728a32 32 0 0 1 56.96-29.12A732.928 732.928 0 0 1 576 384c0 117.888-27.776 231.808-80.256 334.528z"  horiz-adv-x="1024" />

    
    <glyph glyph-name="normal42" unicode="&#59108;" d="M528.64 718.336a32 32 0 1 0 56.96-29.12 668.992 668.992 0 0 1-73.216-305.408c0-107.776 25.408-211.84 73.408-305.728a32 32 0 1 0-56.96-29.12 732.928 732.928 0 0 0-80.448 334.848c0 117.888 27.776 231.808 80.256 334.528z"  horiz-adv-x="1024" />

    
    <glyph glyph-name="xinzenglie_normal" unicode="&#59109;" d="M128 768v-704h128V768H128z m-32 64h192a32 32 0 0 0 32-32v-768a32 32 0 0 0-32-32h-192a32 32 0 0 0-32 32v768a32 32 0 0 0 32 32zM844.608 823.232l98.304-85.568a19.2 19.2 0 0 0-12.608-33.664h-196.608a19.2 19.2 0 0 0-12.608 33.664l98.304 85.568a19.2 19.2 0 0 0 25.216 0zM448 768v-704h128V768H448z m-32 64h192a32 32 0 0 0 32-32v-768a32 32 0 0 0-32-32h-192a32 32 0 0 0-32 32v768a32 32 0 0 0 32 32zM768 576v-576h128V576h-128z m-32 64h192a32 32 0 0 0 32-32v-640a32 32 0 0 0-32-32h-192a32 32 0 0 0-32 32v640a32 32 0 0 0 32 32z"  horiz-adv-x="1024" />

    
    <glyph glyph-name="fenzuhuizong_normal" unicode="&#59110;" d="M480.128 384V516.0319999999999h64V384H800a32 32 0 0 0 32-32v-128a32 32 0 1 0-64 0V320H256v-96a32 32 0 1 0-64 0v128a32 32 0 0 0 32 32h256.128z m191.872-128h256a32 32 0 0 0 32-32v-192a32 32 0 0 0-32-32h-256a32 32 0 0 0-32 32v192a32 32 0 0 0 32 32z m32-64v-128h192v128h-192z m-608 64h256a32 32 0 0 0 32-32v-192a32 32 0 0 0-32-32h-256a32 32 0 0 0-32 32v192a32 32 0 0 0 32 32z m32-64v-128h192v128H128z m192 512v-128h384V704H320z m-32 64h448a32 32 0 0 0 32-32v-192a32 32 0 0 0-32-32h-448a32 32 0 0 0-32 32v192a32 32 0 0 0 32 32z"  horiz-adv-x="1024" />

    
    <glyph glyph-name="shangxiahebing_normal" unicode="&#59111;" d="M735.36 338.81600000000003l-43.52 46.464a240 240 0 0 1 76.352 176A240 240 0 1 1 363.52 386.816l-43.968-46.528a304 304 0 1 0 415.872-1.472z m-384.96-24.128l37.44 51.904c29.696-21.44 63.936-35.84 100.288-41.984l-10.624-63.104a302.528 302.528 0 0 0-127.104 53.184z m236.416-51.712l-12.224 62.784a238.592 238.592 0 0 1 93.184 40.32l37.312-52.096a302.592 302.592 0 0 0-118.272-51.008zM321.088 432.128l43.648-46.848a240 240 0 1 1 328.32-1.152l43.904 46.528a304 304 0 1 0-415.872 1.472z m385.024 24.128l-37.504-51.84a238.528 238.528 0 0 1-100.288 41.92l10.624 63.104a302.528 302.528 0 0 0 127.168-53.184z m-236.48 51.776l12.288-62.848a238.592 238.592 0 0 1-93.248-40.32l-37.248 52.096a302.592 302.592 0 0 0 118.208 51.072z"  horiz-adv-x="1024" />

    
    <glyph glyph-name="zuoyouhebing_normal" unicode="&#59112;" d="M561.088 607.104l-46.464-43.584a240 240 0 0 1-176 76.416 240 240 0 1 1 174.528-404.8l46.528-43.904a304 304 0 1 0 1.472 415.872z m24.128-385.024l-51.84 37.504c21.376 29.696 35.84 63.872 41.92 100.288l63.104-10.624a302.528 302.528 0 0 0-53.184-127.168z m51.776 236.48l-62.848-12.288a238.592 238.592 0 0 1-40.256 93.248l52.032 37.248c25.216-35.2 42.688-75.392 51.072-118.208z m-169.216-265.792l46.848 43.648a240 240 0 1 1 1.152 328.32l-46.528 43.968a304 304 0 1 0-1.472-415.872z m-24.064 385.024l51.84-37.504c-21.44-29.632-35.84-63.872-41.92-100.224L390.4 450.56a302.528 302.528 0 0 0 53.248 127.168z m-51.776-236.416l62.784 12.224c6.592-33.728 20.416-65.408 40.32-93.184l-52.032-37.312a302.592 302.592 0 0 0-51.072 118.272z"  horiz-adv-x="1024" />

    
    <glyph glyph-name="ziduanshezhi_normal" unicode="&#59113;" d="M576 466.688V603.7760000000001h64v-137.088h153.472c51.84 0 92.8-42.496 92.8-93.824v-123.52c0-51.264-40.96-93.824-92.8-93.824H668.8c-51.84 0-92.8 42.56-92.8 93.888V466.688z m64-118.912v-98.368c0-16.512 12.864-29.888 28.8-29.888h124.672c15.936 0 28.8 13.44 28.8 29.888V372.86400000000003a29.376 29.376 0 0 1-28.8 29.824H668.8a29.376 29.376 0 0 1-28.8-29.824v-25.088z m-185.792-64H237.44l-42.624-127.872H127.296l127.36 382.208a96 96 0 0 0 182.144 0l127.488-382.4H496.96l-42.752 128.064z m-21.312 64l-56.768 170.112a32 32 0 0 1-60.736 0l-56.704-170.112h174.208zM32 768h960a32 32 0 0 0 32-32v-704a32 32 0 0 0-32-32H32a32 32 0 0 0-32 32v704A32 32 0 0 0 32 768zM64 704v-640h896V704H64z"  horiz-adv-x="1024" />

    
    <glyph glyph-name="normal36" unicode="&#59114;" d="M128 704v-640h64V704H128z m480-288H512a32 32 0 0 1 0-64h96V256a32 32 0 1 1 64 0V352H768a32 32 0 1 1 0 64h-96V512a32 32 0 1 1-64 0v-96z m-256 320V768h128v-64H384v-32H320v64h32zM64 768h192v-768H64V768z m480-64V768h128v-64h-128z m192 0V768h128v-64h-128z m160 32h64v-128h-64v128z m0-192h64v-128h-64v128z m0-192h64v-128h-64v128z m0-288v96h64V0h-96v64h32z m-32 0v-64h-128v64h128z m-192 0v-64h-128v64h128zM384 64h96v-64H320v96h64v-32z m0 32H320v128h64v-128z m0 192H320v128h64v-128z m0 192H320v128h64v-128z"  horiz-adv-x="1024" />

    
    <glyph glyph-name="normal43" unicode="&#59115;" d="M512-64A448 448 0 1 0 512 832a448 448 0 0 0 0-896z m0 64A384 384 0 1 1 512 768a384 384 0 0 1 0-768z m7.68 640c45.44 0 82.432-12.352 110.4-38.528 27.968-25.472 41.92-60.352 41.92-104.768 0-36.352-9.088-66.176-25.856-89.408-6.272-7.296-26.56-26.88-60.096-57.472-12.544-10.88-21.632-23.296-27.904-36.352a106.24 106.24 0 0 1-10.496-47.296V256H467.2v10.24c0 27.52 4.224 51.584 14.016 71.232 9.088 19.648 36.288 50.176 81.728 92.352l8.32 10.176c12.608 16 18.944 33.472 18.944 51.648 0 24-7.04 42.88-19.584 56.704-13.248 13.824-32.128 20.352-55.872 20.352-30.72 0-52.48-9.408-65.728-29.824-11.84-16.64-17.408-40.704-17.408-71.232H352c0 53.76 14.72 96 45.44 126.528C427.456 624.704 467.968 640 519.68 640z m-8.064-448c18.112 0 33.856-5.952 46.208-17.792 11.52-11.904 18.176-27.136 18.176-45.76A62.784 62.784 0 0 0 511.616 64a63.488 63.488 0 0 0-45.44 18.624C453.76 94.528 448 109.76 448 128.448c0 18.624 5.76 33.92 18.176 45.76a62.72 62.72 0 0 0 45.44 17.792z"  horiz-adv-x="1024" />

    
    <glyph glyph-name="fangda" unicode="&#59116;" d="M192 736a32 32 0 0 1-32-32v-640a32 32 0 0 1 32-32h640a32 32 0 0 1 32 32V704a32 32 0 0 1-32 32H192z m0 64h640A96 96 0 0 0 928 704v-640a96 96 0 0 0-96-96H192A96 96 0 0 0 96 64V704A96 96 0 0 0 192 800z m480-256H448a32 32 0 0 0 0 64h256a32 32 0 0 0 32-32v-256a32 32 0 1 0-64 0V544zM470.656 380.15999999999997l180.992 180.992a32 32 0 0 0 45.248-45.248L515.904 334.84799999999996a32 32 0 1 0-45.248 45.248zM127.808 224v64H320A96 96 0 0 0 416 192v-192h-64v192a32 32 0 0 1-32 32H127.808z"  horiz-adv-x="1024" />

    
    <glyph glyph-name="suoxiao" unicode="&#59118;" d="M832 32a32 32 0 0 1 32 32V704a32 32 0 0 1-32 32H192a32 32 0 0 1-32-32v-640a32 32 0 0 1 32-32h640z m0-64H192A96 96 0 0 0 96 64V704A96 96 0 0 0 192 800h640A96 96 0 0 0 928 704v-640a96 96 0 0 0-96-96z m-480 256H576a32 32 0 0 0 0-64H320a32 32 0 0 0-32 32V448a32 32 0 1 0 64 0v-224z m201.344 163.84l-180.992-180.992a32 32 0 0 0-45.248 45.248l180.992 181.056a32 32 0 1 0 45.248-45.248z m342.848 156.16v-64H704A96 96 0 0 0 608 576V768h64v-192a32 32 0 0 1 32-32h192.192z"  horiz-adv-x="1024" />

    
    <glyph glyph-name="shuaxin" unicode="&#59119;" d="M894.4 547.9680000000001a32 32 0 1 0-58.816-25.216A352.064 352.064 0 0 1 164.608 441.152a32 32 0 1 0-63.168 10.304 416.064 416.064 0 0 0 792.96 96.512z m-695.488-325.12A352.128 352.128 0 0 1 859.008 324.48a32 32 0 1 0 63.04-10.752 416.128 416.128 0 0 0-775.104-129.28v-121.536a32 32 0 1 0-64 0v192a32 32 0 0 0 32 32h192a32 32 0 1 0 0-64H198.912zM876.8 544V704a32 32 0 1 0 64 0v-192a32 32 0 0 0-32-32h-192a32 32 0 1 0 0 64h160z"  horiz-adv-x="1024" />

    
    <glyph glyph-name="xiala" unicode="&#59120;" d="M536.64 178.048l288.832 373.76a31.104 31.104 0 0 1-24.64 50.24H223.104a31.168 31.168 0 0 1-24.64-50.176l288.832-373.76a31.168 31.168 0 0 1 49.28 0"  horiz-adv-x="1024" />

    
    <glyph glyph-name="weiduqiehuan" unicode="&#59121;" d="M830.976 639.616L747.456 723.2a32 32 0 1 0 45.248 45.248l135.744-135.808a32 32 0 0 0 0-45.248l-135.744-135.744a32 32 0 0 0-45.248 45.248l78.72 78.72h-168.448L377.792 174.08000000000004a32 32 0 0 0-26.24-13.696h-223.36a32 32 0 0 0 0 64h206.656L614.784 625.9200000000001a32 32 0 0 0 26.24 13.696h189.952zM534.144 288.51199999999994l38.4 56.896 85.184-122.304h171.136L747.52 304.576a32 32 0 1 0 45.248 45.248l135.744-135.808a32 32 0 0 0 0-45.248l-135.744-135.744a32 32 0 0 0-45.248 45.248l80.768 80.832h-187.2a32 32 0 0 0-26.24 13.696l-80.64 115.712z m-117.76 168.832L334.912 574.336H128.256a32 32 0 0 0 0 64h223.296a32 32 0 0 0 26.24-13.696l76.992-110.4-38.4-56.896z"  horiz-adv-x="1024" />

    
    <glyph glyph-name="chakanmingxi" unicode="&#59122;" d="M836.864 456.32l113.792-113.664a32 32 0 0 0-45.312-45.312l-118.336 118.4a224 224 0 1 0 49.92 40.64zM768 307.52a32 32 0 1 0 64 0V32a96 96 0 0 0-96-96h-576A96 96 0 0 0 64 32v640A96 96 0 0 0 160 768h253.952a32 32 0 1 0 0-64H160a32 32 0 0 1-32-32v-640a32 32 0 0 1 32-32h576a32 32 0 0 1 32 32V307.456zM256 192a32 32 0 0 0 0 64h352a32 32 0 0 0 0-64H256z m0 192a32 32 0 0 0 0 64h128a32 32 0 0 0 0-64H256z m416 64a160 160 0 1 1 0 320 160 160 0 0 1 0-320z"  horiz-adv-x="1024" />

    
    <glyph glyph-name="normal44" unicode="&#59123;" d="M441.6 544.96L350.976 635.456 486.848 771.2a256 256 0 1 0 361.984-362.048l-135.68-135.68-90.56 90.432 135.744 135.808a128 128 0 1 1-180.992 180.992L441.536 544.96zM350.976 454.4L215.296 318.65599999999995a128 128 0 1 1 180.992-180.992l135.808 135.744 90.496-90.496-135.744-135.744A256 256 0 1 0 124.8 409.152L260.48 544.96 351.04 454.4zM147.392 703.36l45.248 45.248 90.56-90.56-45.248-45.248L147.392 703.36z m543.104-543.104l45.248 45.248 90.496-90.496-45.248-45.248-90.496 90.496zM291.84 820.672h64v-128h-64v128z m607.36-607.36h-128v64h128v-64z m-824.96 389.76h128v-64h-128v64z m607.424-607.36h-64v128h64v-128z"  horiz-adv-x="1024" />

    
    <glyph glyph-name="shuxingtubiao_daxiao" unicode="&#59124;" d="M768 416h32c52.928 0 96-43.072 96-96v-224c0-52.928-43.072-96-96-96H576c-52.928 0-96 43.072-96 96V128h-256c-52.928 0-96 43.072-96 96v448C128 724.928 171.072 768 224 768h448c52.928 0 96-43.072 96-96v-256zM480 192V320c0 52.928 43.072 96 96 96h128v256a32 32 0 0 1-32 32h-448a32 32 0 0 1-32-32v-448a32 32 0 0 1 32-32h256z m320 160H576a32 32 0 0 1-32-32v-224a32 32 0 0 1 32-32h224a32 32 0 0 1 32 32V320a32 32 0 0 1-32 32z"  horiz-adv-x="1024" />

    
    <glyph glyph-name="shuxingtubiao_biaoqian" unicode="&#59125;" d="M156.8 832l7.04-0.192 4.16-0.576 135.68-17.984 135.68-18.048c24.448-3.264 42.88-19.456 49.664-26.176l415.104-415.104a90.688 90.688 0 0 0 0-128l-234.048-234.048a89.984 89.984 0 0 0-64-26.496c-24.192 0-46.912 9.408-64 26.496L126.976 406.976c-6.784 6.784-22.912 25.28-26.176 49.728l-18.048 135.68-17.92 135.616a90.752 90.752 0 0 0 22.464 71.488A93.184 93.184 0 0 0 156.8 832z m0-64c-15.232 0-30.656-16.384-28.608-31.552l17.984-135.616 18.048-135.68c0.64-4.8 7.232-12.16 8-12.992l415.104-414.976a26.368 26.368 0 0 1 37.44 0l234.112 233.984a26.624 26.624 0 0 1 0 37.504L443.776 723.776c-0.768 0.704-8.192 7.36-12.928 8l-135.68 18.048-135.616 17.984A19.84 19.84 0 0 1 156.8 768zM293.12 698.88c25.6 0 49.728-9.92 67.904-28.032 18.112-18.176 28.096-42.24 28.096-67.904 0-25.6-9.984-49.728-28.096-67.904a95.616 95.616 0 0 0-67.904-28.16c-25.6 0-49.728 10.048-67.904 28.16a95.616 95.616 0 0 0-28.096 67.84c0 25.728 9.984 49.792 28.096 67.968a95.616 95.616 0 0 0 67.904 28.096z m0-64a32.128 32.128 0 1 1 22.656-54.656 32.128 32.128 0 0 1-22.656 54.72z"  horiz-adv-x="1024" />

    
    <glyph glyph-name="shuxingtubiao_tishi" unicode="&#59126;" d="M832 768c70.592 0 128-57.408 128-128v-384c0-70.592-57.408-128-128-128h-64v-96c0-17.92-14.08-32-32-32-4.48 0-8.96 0.64-12.8 2.56a34.368 34.368 0 0 0-10.24 6.4L533.824 128H192c-70.592 0-128 57.408-128 128V640c0 70.592 57.408 128 128 128h640z m64-512V640a64 64 0 0 1-64 64H192a64 64 0 0 1-64-64v-384a64 64 0 0 1 64-64h352a30.72 30.72 0 0 0 17.408-5.888l0.512 0.768L704 91.52V160a32 32 0 0 0 32 32H832a64 64 0 0 1 64 64z m-160 256h-448a32 32 0 0 0 0 64h448a32 32 0 0 0 0-64z m0-192h-448a32 32 0 0 0 0 64h448a32 32 0 0 0 0-64z"  horiz-adv-x="1024" />

    
    <glyph glyph-name="shuxingtubiao_xingzhuang" unicode="&#59127;" d="M64 832h448v-448H64V832z m64-384h320V768H128v-320z m608-64c123.52 0 224-100.48 224-224S859.52-64 736-64 512 36.48 512 160 612.48 384 736 384z m0-64a160 160 0 1 1 0-320 160 160 0 0 1 0 320z"  horiz-adv-x="1024" />

    
    <glyph glyph-name="chuangjianzuanqumulu" unicode="&#59128;" d="M263.104 401.792v199.04h-49.792v-497.728h49.792V352h99.584v49.792H263.04z m213.312-248.96h369.792a64 64 0 1 0 0-128H476.416a64 64 0 0 0 0 128z m0 298.752h369.792a64 64 0 1 0 0-128H476.416a64 64 0 1 0 0 128zM177.792 750.208h320a64 64 0 1 0 0-128h-320a64 64 0 1 0 0 128z m35.52-647.04h149.376v-49.856H213.312v49.792z"  horiz-adv-x="1024" />

    
    <glyph glyph-name="shuxingtubiao_xzhou" unicode="&#59129;" d="M566.912 511.68l143.36 197.376a32 32 0 1 0 51.84-37.632L606.464 457.28l155.648-214.208a32 32 0 0 0-51.84-37.632l-143.36 197.376-143.36-197.376a32 32 0 0 0-51.84 37.632L527.36 457.28 371.84 671.36a32 32 0 0 0 51.776 37.632l143.36-197.376z m-374.848-448h736a32 32 0 0 0 0-64h-768a32 32 0 0 0-32 32v704a32 32 0 1 0 64 0v-672z"  horiz-adv-x="1024" />

    
    <glyph glyph-name="shuxingtubiao_xilidu" unicode="&#59130;" d="M448 384a128 128 0 1 0-256.064 0.064A128 128 0 0 0 448 384z m256 448a128 128 0 1 0-0.064-256.064A128 128 0 0 0 704 832z m0-64a64 64 0 1 1 0-128 64 64 0 0 1 0 128z m0-256a128 128 0 1 0-0.064-256.064A128 128 0 0 0 704 512z m0-64a64 64 0 1 1 0-128 64 64 0 0 1 0 128z m0-256a128 128 0 1 0-0.064-256.064A128 128 0 0 0 704 192z m0-64a64 64 0 1 1 0-128 64 64 0 0 1 0 128z"  horiz-adv-x="1024" />

    
    <glyph glyph-name="shuaxin1" unicode="&#59131;" d="M758.144 87.87199999999996a384 384 0 0 0-625.472 261.824 32 32 0 1 0 63.68 5.824 320 320 0 0 1 521.536-217.92l-29.44 36.352a32 32 0 0 0 19.648 51.776l144.96 23.616a32 32 0 0 0 34.944-43.2l-53.248-136.896a32 32 0 0 0-54.656-8.512l-21.952 27.136zM260.032 681.28a384 384 0 0 0 625.472-261.824 32 32 0 1 0-63.68-5.888 320 320 0 0 1-521.472 217.984l29.44-36.48a32 32 0 0 0-19.712-51.648l-144.96-23.68a32 32 0 0 0-34.944 43.2l53.248 136.896a32 32 0 0 0 54.656 8.512l21.952-27.072z"  horiz-adv-x="1024" />

    
    <glyph glyph-name="shuxingtubiao_yzhou" unicode="&#59132;" d="M192.064 63.67999999999995h736a32 32 0 0 0 0-64h-768a32 32 0 0 0-32 32v704a32 32 0 1 0 64 0v-672zM395.968 721.472a32 32 0 0 0 43.52-12.48l155.136-279.872a32 32 0 1 0-56-31.04L383.552 677.952a32 32 0 0 0 12.48 43.52zM742.336 719.488a32 32 0 0 1-43.52-12.416L543.68 427.136a32 32 0 1 1 56-31.04l155.136 279.936a32 32 0 0 1-12.48 43.52zM537.984 447.744h64v-224a32 32 0 1 0-64 0v224z"  horiz-adv-x="1024" />

    
    <glyph glyph-name="zuanqumulu_tiaozhengshunxu" unicode="&#59133;" d="M256 362.688V533.312h-42.688v-426.624H256V320h85.312v42.688H256z m192-213.376h298.688a64 64 0 0 0 0-128H448a64 64 0 0 0 0 128z m0 256h298.688a64 64 0 0 0 0-128H448a64 64 0 1 0 0 128z m-256 256h256a64 64 0 1 0 0-128H192a64 64 0 1 0 0 128z m21.312-554.624h128V64h-128v42.688z m369.792 495.936l46.208-30.848V704a32 32 0 0 0 64 0v-192a32 32 0 0 0-49.728-26.624l-96 64a32 32 0 0 0 35.52 53.248z m252.48 10.688l-46.272 30.848v-132.224a32 32 0 1 0-64 0V704a32 32 0 0 0 49.792 26.624l96-64a32 32 0 0 0-35.52-53.248z"  horiz-adv-x="1024" />

    
    <glyph glyph-name="tianjiahebingyiju_normal" unicode="&#59134;" d="M640-64a320 320 0 1 0 0 640 320 320 0 0 0 0-640z m0 64a256 256 0 1 1 0 512 256 256 0 0 1 0-512z m-256 192A320 320 0 1 0 384 832a320 320 0 0 0 0-640z m0 64a256 256 0 1 1 0 512 256 256 0 0 1 0-512z"  horiz-adv-x="1024" />

    
    <glyph glyph-name="zuanqumulu_jiaru" unicode="&#59135;" d="M725.312 643.2h-96v-64h96V480h64V579.2h96v64h-96V736h-64v-92.8zM256 365.888h85.312v-42.688H256v-213.312h-42.688V536.512H256v-170.624z m192-213.376h298.688a64 64 0 0 0 0-128H448a64 64 0 0 0 0 128z m0 256h298.688a64 64 0 0 0 0-128H448a64 64 0 1 0 0 128z m-256 256h256a64 64 0 1 0 0-128H192a64 64 0 1 0 0 128z m21.312-554.624h128v-42.688h-128v42.688z"  horiz-adv-x="1024" />

    
    <glyph glyph-name="zuanqumulu_yichu" unicode="&#59136;" d="M256 405.312V576h-42.688v-426.688H256V362.688h85.312v42.624H256zM448 192h298.688a64 64 0 0 0 0-128H448a64 64 0 0 0 0 128z m0 256h298.688a64 64 0 0 0 0-128H448a64 64 0 1 0 0 128zM192 704h256a64 64 0 1 0 0-128H192a64 64 0 1 0 0 128z m21.312-554.688h128v-42.624h-128v42.624z m416 469.376v64h256v-64h-256z"  horiz-adv-x="1024" />

    
    <glyph glyph-name="weidudiliziduan" unicode="&#59137;" d="M874.112 257.472h-177.92a1015.296 1015.296 0 0 1 0 253.12h177.92C888.064 470.848 896 428.416 896 384s-7.936-86.848-21.888-126.528zM621.44 16.128c27.2 44.032 49.088 104.128 63.616 174.4h158.208a385.408 385.408 0 0 0-221.824-174.464z m-440.576 174.4h158.208c14.464-70.272 36.48-130.368 63.616-174.464a385.152 385.152 0 0 0-221.824 174.464z m-30.912 320h177.984a1015.04 1015.04 0 0 1 0-253.056h-177.92A380.672 380.672 0 0 0 128 384c0 44.288 7.936 86.784 21.888 126.464z m252.8 241.408c-27.264-44.16-49.216-104.256-63.68-174.528H180.8A385.536 385.536 0 0 0 402.624 752z m2.432-174.528C432.704 697.856 480.96 768 512 768c30.976 0 79.36-70.08 106.88-190.592H405.12zM512 0.128c-31.04 0-79.296 70.08-106.88 190.464h213.76c-27.52-120.448-75.904-190.464-106.88-190.464z m128 384c0-46.272-3.84-87.808-9.216-126.592H393.152A910.848 910.848 0 0 0 384 384c0 46.08 3.84 87.68 9.152 126.464h237.632C636.16 471.68 640 430.144 640 384z m203.2 193.344h-158.208c-14.528 70.272-36.416 130.368-63.616 174.528a385.728 385.728 0 0 0 221.824-174.528zM512 832a448 448 0 1 1 0-896A448 448 0 0 1 512 832z"  horiz-adv-x="1024" />

    
    <glyph glyph-name="fuzhi" unicode="&#59138;" d="M944 512.256h-104l-43.904-264.896h125.184v-55.232h-134.912l-25.984-135.68h-63.36l25.984 135.68H505.28l-29.248-135.68h-61.76l29.248 135.68H354.112v55.232h100.736l48.768 264.896H381.76v55.232H513.28L539.392 704h61.76l-26.048-136.512h211.264L810.752 704h63.36l-22.72-136.512h92.608v-55.232zM64 391.872v64h192v-64H64z m0-128v64h192v-64H64z m668.8-16.512l45.44 264.896h-211.2l-50.432-264.896h216.128z"  horiz-adv-x="1024" />

    
    <glyph glyph-name="genggaibiao" unicode="&#59139;" d="M128 768v-288h320V768H128z m84.032-576.256c12.608-111.36 101.952-191.872 203.904-191.872a32 32 0 1 0 0-64c-136.896 0-255.168 108.672-268.224 255.872h-46.4a12.8 12.8 0 0 0-10.368 20.288l77.312 106.24a12.8 12.8 0 0 0 20.672 0l77.248-106.24a12.8 12.8 0 0 0-10.304-20.288h-43.84z m599.872 384.448C799.296 687.552 709.952 768 608 768a32 32 0 0 0 0 64c136.896 0 255.168-108.672 268.224-255.808h46.4a12.8 12.8 0 0 0 10.368-20.352l-77.248-106.24a12.8 12.8 0 0 0-20.736 0l-77.248 106.24a12.8 12.8 0 0 0 10.368 20.352h43.776zM96 832h384a32 32 0 0 0 32-32V448a32 32 0 0 0-32-32h-384A32 32 0 0 0 64 448V800a32 32 0 0 0 32 32z m448-480.64h384a32 32 0 0 0 32-32v-352a32 32 0 0 0-32-32h-384a32 32 0 0 0-32 32v352a32 32 0 0 0 32 32z m32-64v-288h320v288H576z"  horiz-adv-x="1024" />

    
    <glyph glyph-name="ABCfuzhi" unicode="&#59140;" d="M128 448V512h192v-64H128z m0-128V384h192v-64H128z m256 384h524.16v-83.328h-213.248v-556.416H598.144V620.672H384V704z"  horiz-adv-x="1024" />

    
    <glyph glyph-name="disabled" unicode="&#58882;" d="M896 416.64a32 32 0 1 0-64 0V704a64 64 0 0 1-64 64H256a64 64 0 0 1-64-64v-640a64 64 0 0 1 64-64h160a32 32 0 1 0-1.152-64H256a128 128 0 0 0-128 128V704a128 128 0 0 0 128 128h512a128 128 0 0 0 128-128v-287.36z m-164.48-273.28l161.92-161.92a32 32 0 0 0-45.248-45.248l-162.368 162.304a192 192 0 1 0 45.632 44.8zM352 640h320a32 32 0 1 0 0-64h-320a32 32 0 0 0 0 64z m0-128h64a32 32 0 0 0 0-64h-64a32 32 0 0 0 0 64zM576 128a128 128 0 1 1 0 256 128 128 0 0 1 0-256z"  horiz-adv-x="1024" />

    
    <glyph glyph-name="disabled1" unicode="&#58883;" d="M760.576 412.288l-94.784-47.36A266.624 266.624 0 0 1 608 371.2c-151.488 0-275.2-127.232-275.2-285.248 0-26.88 101.44-67.2 243.2-72.576v-76.8c-164.736 5.696-320 55.488-320 149.376C256 239.744 349.248 371.2 480.768 423.68a224 224 0 1 0 254.464 0c8.64-3.456 17.088-7.232 25.344-11.328z m-556.992-381.888c-68.032 23.104-114.432 59.392-114.432 108.8 0 142.848 86.592 264.896 208.64 313.6a208 208 0 0 0 128.768 378.88 289.28 289.28 0 0 1-71.04-85.12 136.704 136.704 0 0 1-19.52-233.408c9.28-26.56 22.4-51.584 38.848-74.24-25.6-17.792-49.088-38.272-70.016-61.12-85.312-42.816-144.384-133.312-144.384-238.528 0-8.768 11.52-19.008 32.256-28.864-0.448-8.128-0.704-16.256-0.704-24.448 0-19.904 4.032-38.4 11.584-55.552z m513.216 45.248l62.08-18.624s3.072 0 3.072-3.136v-6.208l-62.08-108.608C716.8-64 716.8-64 713.728-64h-3.136s-3.072 3.072-3.072 6.208v127.232c0 3.072 0 6.208 3.072 6.208h6.208zM968.192 448h6.976c2.304 0 2.304-2.304 2.304-4.608l-83.392-379.776-2.304-2.368h-4.608l-169.088 55.616s-2.304 0-2.304 2.304c-2.304 2.304 0 2.304 0 4.608L882.56 339.2l-210.688-206.08h-4.672l-152.832 53.248S512 188.672 512 190.976s0 4.608 2.304 4.608L968.192 448zM608 460.8a147.2 147.2 0 1 1 0 294.4 147.2 147.2 0 0 1 0-294.4z"  horiz-adv-x="1024" />

    
    <glyph glyph-name="disabled2" unicode="&#58884;" d="M550.4 512v-160a38.4 38.4 0 1 0-76.8 0V512H350.72a12.8 12.8 0 0 0-9.024 21.76l161.28 162.432a12.8 12.8 0 0 0 18.112 0l161.28-162.368a12.8 12.8 0 0 0-9.152-21.824H550.4zM192 832h640a64 64 0 0 0 64-64v-768a64 64 0 0 0-64-64H192a64 64 0 0 0-64 64V768a64 64 0 0 0 64 64z m12.8-819.2h614.4V755.2H204.8v-742.4zM320 256h384a32 32 0 1 0 0-64H320a32 32 0 1 0 0 64z m0-128h384a32 32 0 1 0 0-64H320a32 32 0 1 0 0 64z"  horiz-adv-x="1024" />

    
    <glyph glyph-name="disabled3" unicode="&#58885;" d="M224.128 799.552h128a64 64 0 0 0 64-64v-703.744a64 64 0 0 0-64-64h-128a64 64 0 0 0-64 64V735.552a64 64 0 0 0 64 64z m449.984 0h128a64 64 0 0 0 64-64v-703.744a64 64 0 0 0-64-64h-128a64 64 0 0 0-64 64V735.552a64 64 0 0 0 64 64z m-449.92-64v-703.744h128V735.552h-128z m449.92 0v-703.744h128V735.552h-128z"  horiz-adv-x="1024" />

    
    <glyph glyph-name="disabled4" unicode="&#58886;" d="M803.84 366.84799999999996a32 32 0 0 1-9.856 44.16L273.152 742.4a32 32 0 0 1-49.152-27.008v-662.784a32 32 0 0 1 49.152-27.008l520.832 331.392a32 32 0 0 1 9.792 9.856z m-496.32-395.264A96 96 0 0 0 160 52.60799999999995V715.392a96 96 0 0 0 147.52 81.024l520.832-331.456a96 96 0 0 0 0-161.92l-520.832-331.456z m98.56 476.864v-256h64v384h-64L324.096 470.4a12.8 12.8 0 0 1 9.024-21.888h72.832z"  horiz-adv-x="1024" />

    
    <glyph glyph-name="normal50" unicode="&#58887;" d="M448 265.08799999999997v-90.56l-86.08-86.272-228.992-20.8 20.8 228.992 514.944 515.904a64 64 0 0 0 90.496 0.128v-0.064l117.632-117.76a64 64 0 0 0 0-90.432l-112-112.32a222.592 222.592 0 0 1-71.424 19.072l37.12 37.12-117.696 117.76-397.44-398.272-11.776-129.472 129.408 11.776L448 265.08799999999997zM448 0v-64H160a32 32 0 1 0 0 64H448z m210.048 711.104l117.632-117.632 55.936 56-117.696 117.632-55.872-56zM556.8 275.20000000000005v64a128 128 0 1 0 256 0v-64h32a32 32 0 0 0 32-32v-275.2a32 32 0 0 0-32-32h-320a32 32 0 0 0-32 32v275.2a32 32 0 0 0 32 32h32z m0-64V0h256v211.2h-256z m64 64h128v64a64 64 0 1 1-128 0v-64z"  horiz-adv-x="1024" />

    
    <glyph glyph-name="normal51" unicode="&#59146;" d="M535.488 567.296l316.8-316.8a32 32 0 1 0-45.248-45.248L512.896 499.392l-294.208-294.144a32 32 0 1 0-45.248 45.248l316.8 316.8a32 32 0 0 0 45.248 0z"  horiz-adv-x="1024" />

    
    <glyph glyph-name="normal52" unicode="&#59147;" d="M535.488 205.24800000000005l316.8 316.8a32 32 0 1 1-45.248 45.248L512.896 273.08799999999997 218.688 567.296a32 32 0 1 1-45.248-45.248l316.8-316.8a32 32 0 0 1 45.248 0z"  horiz-adv-x="1024" />

    
    <glyph glyph-name="normal53" unicode="&#59148;" d="M693.888 408.896l-316.8 316.8a32 32 0 1 1-45.248-45.312l294.144-294.144-294.144-294.144a32 32 0 1 1 45.248-45.248l316.8 316.8a32 32 0 0 1 0 45.248z"  horiz-adv-x="1024" />

    
    <glyph glyph-name="normal54" unicode="&#59149;" d="M331.84 408.896l316.8 316.8a32 32 0 1 0 45.248-45.312L399.744 386.24l294.144-294.144a32 32 0 1 0-45.248-45.248l-316.8 316.8a32 32 0 0 0 0 45.248z"  horiz-adv-x="1024" />

    
    <glyph glyph-name="zhankai" unicode="&#59150;" d="M495.552 383.808L201.344 89.60000000000002a32 32 0 0 1 45.312-45.248l316.8 316.8a32 32 0 0 1 0 45.248L246.592 723.2a32 32 0 0 1-45.312-45.248l294.208-294.144z m256 0L457.344 89.60000000000002a32 32 0 1 1 45.312-45.248l316.8 316.8a32 32 0 0 1 0 45.248L502.592 723.2a32 32 0 1 1-45.312-45.248l294.208-294.144z"  horiz-adv-x="1024" />

    
    <glyph glyph-name="shouqi" unicode="&#59151;" d="M525.248 383.808l294.144-294.208a32 32 0 0 0-45.248-45.248l-316.8 316.8a32 32 0 0 0 0 45.248l316.8 316.8a32 32 0 0 0 45.248-45.248L525.248 383.808z m-256 0L563.392 89.60000000000002a32 32 0 1 0-45.248-45.248l-316.8 316.8a32 32 0 0 0 0 45.248l316.8 316.8a32 32 0 1 0 45.248-45.248L269.248 383.808z"  horiz-adv-x="1024" />

    
    <glyph glyph-name="normal55" unicode="&#59152;" d="M426.666667 170.66666699999996a256 256 0 1 0 0 512 256 256 0 0 0 0-512z m0 405.333333A149.333333 149.333333 0 0 1 277.333333 426.666667a21.333333 21.333333 0 1 1 42.666667 0A106.666667 106.666667 0 0 0 426.666667 533.333333a21.333333 21.333333 0 1 1 0 42.666667zM549.484194 364.18023800000003l-60.339778-60.339779 241.359114-241.359115 60.339779 60.339779-241.359115 241.359115ZM725.333333 554.666667h213.333334v-42.666667h-213.333334zM768 426.666667h170.666667v-42.666667h-170.666667zM725.333333 298.66666699999996h213.333334v-42.666667h-213.333334z"  horiz-adv-x="1024" />

    
    <glyph glyph-name="normal56" unicode="&#59153;" d="M257.749333 213.333333H128v-42.666666h129.749333a128 128 0 0 1 252.501334 0H896v42.666666h-385.749333a128 128 0 0 1-252.501334 0z m256 384H128v-42.666666h385.749333a128 128 0 0 1 252.501334 0H896V597.333333h-129.749333a128 128 0 0 1-252.501334 0z"  horiz-adv-x="1024" />

    
    <glyph glyph-name="normal57" unicode="&#59154;" d="M544.725333 45.013333a27.392 27.392 0 0 0-13.141333 3.370667l-150.869333 81.066667a29.184 29.184 0 0 0-15.146667 25.728v251.904L178.048 618.624a29.610667 29.610667 0 0 0-4.949333 31.317333 28.245333 28.245333 0 0 0 25.856 17.28h540.757333c11.221333 0 21.333333-6.741333 25.856-17.28a29.610667 29.610667 0 0 0-4.949333-31.274666l-187.605334-211.712v-332.885334a29.184 29.184 0 0 0-13.653333-24.832 27.52 27.52 0 0 0-14.634667-4.224zM640 426.666667h213.333333v-42.666667h-213.333333v42.666667z m0-128h213.333333v-42.666667h-213.333333v42.666667z m0-128h213.333333v-42.666667h-213.333333v42.666667z"  horiz-adv-x="1024" />

    
    <glyph glyph-name="normal58" unicode="&#59155;" d="M469.333333 192h341.333334a42.666667 42.666667 0 0 0 42.666666-42.666667v-42.666666a42.666667 42.666667 0 0 0-42.666666-42.666667h-341.333334a42.666667 42.666667 0 0 0-42.666666 42.666667v42.666666a42.666667 42.666667 0 0 0 42.666666 42.666667z m0 256h341.333334a42.666667 42.666667 0 0 0 42.666666-42.666667v-42.666666a42.666667 42.666667 0 0 0-42.666666-42.666667h-341.333334a42.666667 42.666667 0 0 0-42.666666 42.666667v42.666666a42.666667 42.666667 0 0 0 42.666666 42.666667z m-256 256h298.666667a42.666667 42.666667 0 0 0 42.666667-42.666667v-42.666666a42.666667 42.666667 0 0 0-42.666667-42.666667H213.333333a42.666667 42.666667 0 0 0-42.666666 42.666667v42.666666a42.666667 42.666667 0 0 0 42.666666 42.666667zM298.666667 405.333333v170.666667H256v-426.666667h42.666667v213.333334h85.333333v42.666666H298.666667z m-42.666667-256h128v-42.666666H256v42.666666z"  horiz-adv-x="1024" />

    
    <glyph glyph-name="normal59" unicode="&#59156;" d="M725.333333 704h85.333334a85.333333 85.333333 0 0 0 85.333333-85.333333v-512a85.333333 85.333333 0 0 0-85.333333-85.333334H213.333333a85.333333 85.333333 0 0 0-85.333333 85.333334v512a85.333333 85.333333 0 0 0 85.333333 85.333333h85.333334V725.333333a21.333333 21.333333 0 0 0 42.666666 0v-21.333333h341.333334V725.333333a21.333333 21.333333 0 1 0 42.666666 0v-21.333333z m0-42.666667V640a21.333333 21.333333 0 1 0-42.666666 0v21.333333H341.333333V640a21.333333 21.333333 0 0 0-42.666666 0v21.333333H213.333333a42.666667 42.666667 0 0 1-42.666666-42.666666v-85.333334h682.666666v85.333334a42.666667 42.666667 0 0 1-42.666666 42.666666h-85.333334z m-331.050666-232.448c-27.264 0-49.92-8.832-68.352-26.88-18.432-17.664-27.264-39.936-27.264-67.584 0-26.88 7.68-48.768 23.424-65.664 16.128-17.28 38.016-26.112 64.896-26.112 14.208 0 26.88 3.072 38.016 8.448 11.52 6.144 21.504 14.976 29.184 26.88h1.536c0-1.92 0.384-3.456 0.384-4.992 0-26.496-5.76-48.768-16.512-66.432-11.52-18.432-26.496-28.032-45.312-28.032-27.648 0-44.544 13.44-49.92 39.936h-40.704c6.912-49.536 36.864-74.496 90.24-74.496 31.488 0 56.448 14.208 75.264 41.856 18.048 27.648 27.264 63.744 27.264 108.288 0 42.24-8.832 74.88-25.728 98.304-17.664 24.576-43.008 36.48-76.416 36.48z m1.536-34.56c16.128 0 29.568-5.376 39.936-16.128 9.984-10.368 15.36-24.576 15.36-42.624 0-17.664-4.992-32.256-14.976-43.008-9.984-10.752-23.808-16.128-40.704-16.128-17.28 0-30.72 5.376-40.32 16.128-10.368 10.368-15.36 24.192-15.36 41.856 0 17.664 4.992 31.872 15.36 43.008 9.984 11.52 23.808 16.896 40.704 16.896z m231.936 34.56c-32.256 0-57.216-13.44-74.88-40.704-16.128-24.96-24.192-58.752-24.192-101.76 0-42.624 8.064-76.416 24.192-101.76 17.664-26.88 42.624-40.704 74.88-40.704 32.256 0 57.216 13.824 74.88 40.704 16.128 25.344 24.192 59.52 24.192 101.76 0 42.624-8.064 76.416-24.192 101.76-17.664 27.264-42.624 40.704-74.88 40.704z m0-35.328c22.272 0 38.4-12.288 47.616-37.248 6.528-16.896 9.984-40.32 9.984-69.888 0-29.184-3.456-52.608-9.984-69.888-9.216-24.576-25.344-37.248-47.616-37.248-22.656 0-38.4 12.672-47.616 37.248-6.912 17.28-9.984 40.704-9.984 69.888 0 29.568 3.072 52.992 9.984 69.888 9.216 24.96 24.96 37.248 47.616 37.248z"  horiz-adv-x="1024" />

    
    <glyph glyph-name="normal60" unicode="&#59157;" d="M725.333333 704h85.333334a85.333333 85.333333 0 0 0 85.333333-85.333333v-512a85.333333 85.333333 0 0 0-85.333333-85.333334H213.333333a85.333333 85.333333 0 0 0-85.333333 85.333334v512a85.333333 85.333333 0 0 0 85.333333 85.333333h85.333334V725.333333a21.333333 21.333333 0 0 0 42.666666 0v-21.333333h341.333334V725.333333a21.333333 21.333333 0 1 0 42.666666 0v-21.333333z m0-42.666667V640a21.333333 21.333333 0 1 0-42.666666 0v21.333333H341.333333V640a21.333333 21.333333 0 0 0-42.666666 0v21.333333H213.333333a42.666667 42.666667 0 0 1-42.666666-42.666666v-85.333334h682.666666v85.333334a42.666667 42.666667 0 0 1-42.666666 42.666666h-85.333334z m-325.290666-232.448c-26.88 0-48.768-7.296-65.664-22.656-18.048-15.36-28.032-36.48-30.336-63.744h41.088c1.536 16.896 7.296 29.568 16.512 38.016 9.216 8.448 22.272 12.672 38.784 12.672 16.128 0 28.8-3.456 37.248-11.136 7.68-7.296 11.904-17.664 11.904-31.488s-4.608-24.576-13.056-31.872c-8.448-7.296-21.12-11.136-38.016-11.136h-19.584v-31.488h19.968c18.048 0 31.872-3.84 41.088-11.52 9.984-7.68 14.976-19.584 14.976-35.712 0-13.824-4.992-24.96-14.208-34.176-10.752-9.984-24.96-15.36-42.624-15.36-16.128 0-29.184 4.608-39.168 13.824-11.52 9.984-17.28 24.192-18.048 42.624H298.666667c2.304-30.72 13.056-54.144 32.256-70.272 16.896-14.208 39.552-21.504 67.584-21.504 29.184 0 53.376 8.448 71.808 24.576 17.28 16.128 26.112 36.864 26.112 62.208 0 16.128-4.608 29.568-13.824 39.936-8.448 9.984-20.736 17.664-36.864 22.656 29.952 9.984 45.312 30.336 45.312 60.288 0 23.424-8.448 41.856-24.576 55.296-16.896 13.44-38.784 19.968-66.432 19.968z m227.712 0c-32.256 0-57.216-13.44-74.88-40.704-16.128-24.96-24.192-58.752-24.192-101.76 0-42.624 8.064-76.416 24.192-101.76 17.664-26.88 42.624-40.704 74.88-40.704 32.256 0 57.216 13.824 74.88 40.704 16.128 25.344 24.192 59.52 24.192 101.76 0 42.624-8.064 76.416-24.192 101.76-17.664 27.264-42.624 40.704-74.88 40.704z m0-35.328c22.272 0 38.4-12.288 47.616-37.248 6.528-16.896 9.984-40.32 9.984-69.888 0-29.184-3.456-52.608-9.984-69.888-9.216-24.576-25.344-37.248-47.616-37.248-22.656 0-38.4 12.672-47.616 37.248-6.912 17.28-9.984 40.704-9.984 69.888 0 29.568 3.072 52.992 9.984 69.888 9.216 24.96 24.96 37.248 47.616 37.248z"  horiz-adv-x="1024" />

    
    <glyph glyph-name="normal61" unicode="&#59158;" d="M725.333333 704h85.333334a85.333333 85.333333 0 0 0 85.333333-85.333333v-512a85.333333 85.333333 0 0 0-85.333333-85.333334H213.333333a85.333333 85.333333 0 0 0-85.333333 85.333334v512a85.333333 85.333333 0 0 0 85.333333 85.333333h85.333334V725.333333a21.333333 21.333333 0 0 0 42.666666 0v-21.333333h341.333334V725.333333a21.333333 21.333333 0 1 0 42.666666 0v-21.333333z m0-42.666667V640a21.333333 21.333333 0 1 0-42.666666 0v21.333333H341.333333V640a21.333333 21.333333 0 0 0-42.666666 0v21.333333H213.333333a42.666667 42.666667 0 0 1-42.666666-42.666666v-85.333334h682.666666v85.333334a42.666667 42.666667 0 0 1-42.666666 42.666666h-85.333334zM288.554667 428.885333c-26.88 0-48.768-7.296-65.664-22.656-18.048-15.36-28.032-36.48-30.336-63.744h41.088c1.536 16.896 7.296 29.568 16.512 38.016 9.216 8.448 22.272 12.672 38.784 12.672 16.128 0 28.8-3.456 37.248-11.136 7.68-7.296 11.904-17.664 11.904-31.488s-4.608-24.576-13.056-31.872c-8.448-7.296-21.12-11.136-38.016-11.136h-19.584v-31.488h19.968c18.048 0 31.872-3.84 41.088-11.52 9.984-7.68 14.976-19.584 14.976-35.712 0-13.824-4.992-24.96-14.208-34.176-10.752-9.984-24.96-15.36-42.624-15.36-16.128 0-29.184 4.608-39.168 13.824-11.52 9.984-17.28 24.192-18.048 42.624h-42.24c2.304-30.72 13.056-54.144 32.256-70.272 16.896-14.208 39.552-21.504 67.584-21.504 29.184 0 53.376 8.448 71.808 24.576 17.28 16.128 26.112 36.864 26.112 62.208 0 16.128-4.608 29.568-13.824 39.936-8.448 9.984-20.736 17.664-36.864 22.656 29.952 9.984 45.312 30.336 45.312 60.288 0 23.424-8.448 41.856-24.576 55.296-16.896 13.44-38.784 19.968-66.432 19.968z m231.552 0c-31.488 0-56.832-13.824-75.264-41.856-18.432-27.648-27.264-63.744-27.264-108.288 0-41.856 8.448-74.496 25.344-97.92 17.664-24.576 43.008-36.864 76.8-36.864 26.88 0 49.92 9.216 68.352 26.88 18.048 17.664 27.264 40.32 27.264 67.584 0 26.88-8.064 49.152-23.808 66.432-16.128 16.896-37.632 25.344-64.512 25.344-14.592 0-27.264-2.688-38.016-8.448a69.888 69.888 0 0 1-29.184-26.88h-1.536c-0.384 2.304-0.384 3.84-0.384 4.992 0 26.88 5.376 48.768 16.512 66.432 11.136 18.816 26.112 28.032 45.312 28.032 27.648 0 44.16-13.056 49.92-39.936h40.704c-6.912 49.92-37.248 74.496-90.24 74.496z m-1.536-132.48c16.896 0 30.72-5.376 40.704-16.128 9.984-9.984 14.976-24.192 14.976-41.856 0-17.28-5.376-31.488-15.744-43.008-9.984-11.136-23.424-16.896-40.32-16.896-16.512 0-29.952 5.376-39.936 16.128-10.368 10.752-15.36 24.96-15.36 42.624 0 18.048 4.992 32.256 14.976 43.008 9.984 10.752 23.424 16.128 40.704 16.128z m149.376 127.104l-14.976-153.6h39.168c5.376 9.984 12.672 17.28 22.656 21.888 9.216 4.608 19.584 6.528 31.872 6.528 18.432 0 32.256-5.376 42.24-16.128 9.984-10.752 14.976-25.728 14.976-44.928 0-17.664-5.76-31.488-17.28-42.24-11.52-10.368-25.728-15.744-42.624-15.744-15.36 0-27.648 3.456-36.864 10.368-10.368 7.68-16.512 19.584-18.048 34.944h-41.088c1.92-25.344 12.672-45.696 32.256-60.288 17.664-13.44 38.784-20.352 63.36-20.352 27.264 0 50.688 8.064 70.272 24.192 20.736 18.048 31.488 41.088 31.488 69.504 0 29.568-8.448 52.608-24.576 69.504-16.128 16.896-37.248 25.344-62.976 25.344-12.288 0-23.808-1.92-33.792-6.144-11.136-3.84-20.736-9.984-29.184-18.816h-1.152l8.064 79.104h131.328v36.864h-165.12z"  horiz-adv-x="1024" />

    
    <glyph glyph-name="normal62" unicode="&#59159;" d="M492.416 170.666667H360.96a128 128 0 0 0-252.501333 0H106.666667v42.666666h1.749333a128 128 0 0 0 252.458667 0h131.541333a128 128 0 0 0 252.501333 0H874.666667v-42.666666h-129.749334a128 128 0 0 0-252.501333 0z m170.666667 384H488.96A128 128 0 0 0 236.373333 554.666667H106.666667V597.333333h129.749333a128 128 0 0 0 252.501333 0h174.165334a128 128 0 0 0 254.250666-21.333333 128 128 0 0 0-254.250666-21.333333z"  horiz-adv-x="1024" />

    
    <glyph glyph-name="normal63" unicode="&#59160;" d="M725.333333 704h85.333334a85.333333 85.333333 0 0 0 85.333333-85.333333v-512a85.333333 85.333333 0 0 0-85.333333-85.333334H213.333333a85.333333 85.333333 0 0 0-85.333333 85.333334v512a85.333333 85.333333 0 0 0 85.333333 85.333333h85.333334V725.333333a21.333333 21.333333 0 0 0 42.666666 0v-21.333333h341.333334V725.333333a21.333333 21.333333 0 1 0 42.666666 0v-21.333333z m0-42.666667V640a21.333333 21.333333 0 1 0-42.666666 0v21.333333H341.333333V640a21.333333 21.333333 0 0 0-42.666666 0v21.333333H213.333333a42.666667 42.666667 0 0 1-42.666666-42.666666v-85.333334h682.666666v85.333334a42.666667 42.666667 0 0 1-42.666666 42.666666h-85.333334z m-370.389333-237.824a159.530667 159.530667 0 0 0-34.56-27.264c-13.824-7.68-26.496-13.056-38.784-16.128v-41.472c25.344 7.296 46.464 18.816 62.976 34.56V149.333333h41.856v274.176h-31.488z m213.12 40.704l-134.4-353.28h35.712l134.016 353.28h-35.328z m135.552-40.704a159.530667 159.530667 0 0 0-34.56-27.264c-13.824-7.68-26.496-13.056-38.784-16.128v-41.472c25.344 7.296 46.464 18.816 62.976 34.56V149.333333h41.856v274.176h-31.488z"  horiz-adv-x="1024" />

    
    <glyph glyph-name="normal64" unicode="&#59161;" d="M725.333333 704h85.333334a85.333333 85.333333 0 0 0 85.333333-85.333333v-512a85.333333 85.333333 0 0 0-85.333333-85.333334H213.333333a85.333333 85.333333 0 0 0-85.333333 85.333334v512a85.333333 85.333333 0 0 0 85.333333 85.333333h85.333334V725.333333a21.333333 21.333333 0 0 0 42.666666 0v-21.333333h341.333334V725.333333a21.333333 21.333333 0 1 0 42.666666 0v-21.333333z m0-42.666667V640a21.333333 21.333333 0 1 0-42.666666 0v21.333333H341.333333V640a21.333333 21.333333 0 0 0-42.666666 0v21.333333H213.333333a42.666667 42.666667 0 0 1-42.666666-42.666666v-85.333334h682.666666v85.333334a42.666667 42.666667 0 0 1-42.666666 42.666666h-85.333334zM384 426.666667v-42.666667h85.333333v42.666667H384z m-170.666667 0v-42.666667h85.333334v42.666667H213.333333z m170.666667-128v-42.666667h85.333333v42.666667H384z m-170.666667 0v-42.666667h85.333334v42.666667H213.333333z m341.333334 128v-42.666667h85.333333v42.666667h-85.333333z m170.666666 0v-42.666667h85.333334v42.666667h-85.333334z m-170.666666-128v-42.666667h85.333333v42.666667h-85.333333z m170.666666 0v-42.666667h85.333334v42.666667h-85.333334z m-341.333333-128v-42.666667h85.333333v42.666667H384z m-170.666667 0v-42.666667h85.333334v42.666667H213.333333z m341.333334 0v-42.666667h85.333333v42.666667h-85.333333z m170.666666 0v-42.666667h85.333334v42.666667h-85.333334z"  horiz-adv-x="1024" />

    
    <glyph glyph-name="normal65" unicode="&#59162;" d="M725.333333 704h85.333334a85.333333 85.333333 0 0 0 85.333333-85.333333v-512a85.333333 85.333333 0 0 0-85.333333-85.333334H213.333333a85.333333 85.333333 0 0 0-85.333333 85.333334v512a85.333333 85.333333 0 0 0 85.333333 85.333333h85.333334V725.333333a21.333333 21.333333 0 0 0 42.666666 0v-21.333333h341.333334V725.333333a21.333333 21.333333 0 1 0 42.666666 0v-21.333333z m0-42.666667V640a21.333333 21.333333 0 1 0-42.666666 0v21.333333H341.333333V640a21.333333 21.333333 0 0 0-42.666666 0v21.333333H213.333333a42.666667 42.666667 0 0 1-42.666666-42.666666v-85.333334h682.666666v85.333334a42.666667 42.666667 0 0 1-42.666666 42.666666h-85.333334zM384 426.666667v-42.666667h384v42.666667H384z m-128-256v-42.666667h384v42.666667H256z m0 128v-42.666667h512v42.666667H256z"  horiz-adv-x="1024" />

    
    <glyph glyph-name="normal66" unicode="&#59163;" d="M715.52 317.397333c0-12.586667-4.821333-23.381333-13.226667-32.384l-176.213333-176.213333c-9.6-8.96-20.352-13.226667-32.938667-13.226667-12.586667 0-23.381333 4.266667-32.384 13.226667l-257.109333 257.109333c-9.6 9.002667-16.810667 20.992-23.381333 36.565334A105.472 105.472 0 0 0 170.666667 444.458667V593.664c0 12.629333 4.778667 23.381333 13.781333 32.384 8.96 8.96 19.797333 13.781333 32.384 13.781333h149.802667c12.586667 0 26.410667-2.986667 41.984-9.6 14.976-6.570667 27.562667-14.378667 36.565333-23.338666l257.109333-256.554667c8.96-9.6 13.226667-20.352 13.226667-32.938667zM318.08 491.776a41.685333 41.685333 0 0 1 13.184 32.384c0 12.586667-4.224 23.381333-13.226667 32.384a43.861333 43.861333 0 0 1-32.341333 13.184c-12.586667 0-23.381333-4.224-32.341333-13.226667-9.002667-8.96-13.226667-19.754667-13.226667-32.341333s4.224-23.381333 13.226667-32.384c8.96-8.96 19.754667-13.184 32.341333-13.184s23.381333 4.224 32.384 13.226667z m522.026667-141.44c8.96-9.6 13.184-20.352 13.184-32.938667 0-12.586667-4.181333-23.381333-13.226667-32.384l-176.170667-176.810666c-9.6-8.96-20.394667-13.184-32.981333-13.184-8.362667 0-15.573333 1.194667-20.949333 4.778666a131.072 131.072 0 0 0-19.2 16.213334l168.448 169.002666c8.96 8.96 13.184 19.797333 13.184 32.384s-4.224 23.338667-13.226667 32.938667l-257.109333 256.554667c-8.96 9.557333-20.949333 16.768-36.565334 23.338666a105.514667 105.514667 0 0 1-41.941333 9.6h80.896c12.586667 0 26.410667-2.986667 41.984-9.6 14.933333-6.570667 27.562667-14.378667 36.565333-23.338666l257.109334-256.554667z"  horiz-adv-x="1024" />

    
    <glyph glyph-name="normal67" unicode="&#59164;" d="M536.32 615.466667l41.216-11.050667-132.522667-494.549333-41.216 11.050666zM809.173333 366.421333l-146.432-76.544v-103.168l283.989334 158.08v43.264l-283.989334 156.970667v-102.613333zM189.098667 366.421333l146.432 75.989334V545.024l-283.989334-156.970667v-43.264l283.989334-158.08v103.168z"  horiz-adv-x="1024" />

    
    <glyph glyph-name="normal68" unicode="&#59165;" d="M853.333333 232.192V640a42.666667 42.666667 0 0 1-42.666666 42.666667H213.333333a42.666667 42.666667 0 0 1-42.666666-42.666667v-475.136 36.864c32.341333 69.546667 71.594667 109.952 117.802666 121.258667 69.333333 17.024 132.821333-88.277333 209.792-66.56 77.013333 21.632 96.042667 129.962667 184.106667 163.541333 58.709333 22.4 115.669333-5.461333 170.965333-83.584v-104.192zM213.333333 725.333333h597.333334a85.333333 85.333333 0 0 0 85.333333-85.333333v-512a85.333333 85.333333 0 0 0-85.333333-85.333333H213.333333a85.333333 85.333333 0 0 0-85.333333 85.333333V640a85.333333 85.333333 0 0 0 85.333333 85.333333z m170.666667-298.666666a85.333333 85.333333 0 1 0 0 170.666666 85.333333 85.333333 0 0 0 0-170.666666z"  horiz-adv-x="1024" />

    
    <glyph glyph-name="normal69" unicode="&#59166;" d="M234.666667 704v-157.866667h81.066666v38.4h136.533334v-439.466666H392.533333v-81.066667h238.933334v81.066667h-59.733334V584.533333h136.533334v-38.4h81.066666V704z"  horiz-adv-x="1024" />

    
    <glyph glyph-name="normal70" unicode="&#59167;" d="M810.666667 328.96c0-13.781333-5.248-25.6-14.464-35.498667l-193.194667-193.194666a50.645333 50.645333 0 0 0-36.138667-14.464c-13.781333 0-25.6 4.608-35.498666 14.506666l-281.898667 281.856c-10.496 9.898667-18.389333 23.04-25.6 40.106667A115.626667 115.626667 0 0 0 213.333333 468.266667V631.893333c0 13.824 5.248 25.6 15.104 35.498667 9.856 9.813333 21.674667 15.104 35.498667 15.104h164.266667c13.824 0 28.928-3.285333 45.994666-10.496 16.426667-7.253333 30.250667-15.786667 40.106667-25.642667l281.898667-281.258666c9.856-10.496 14.464-22.314667 14.464-36.138667zM374.997333 520.192a45.653333 45.653333 0 0 1 14.464 35.498667c0 13.781333-4.608 25.6-14.506666 35.456a48.085333 48.085333 0 0 1-35.413334 14.506666c-13.824 0-25.685333-4.650667-35.541333-14.506666a48.085333 48.085333 0 0 1-14.464-35.456c0-13.824 4.608-25.642667 14.506667-35.498667 9.813333-9.856 21.674667-14.464 35.456-14.464 13.824 0 25.6 4.608 35.498666 14.464z"  horiz-adv-x="1024" />

    
    <glyph glyph-name="normal71" unicode="&#59168;" d="M512 149.333333h384v-42.666666h-384v42.666666z m0 128h384v-42.666666h-384v42.666666z m0 128h384v-42.666666h-384v42.666666z m170.666667 128h213.333333v-42.666666h-213.333333v42.666666z m0 128h213.333333v-42.666666h-213.333333v42.666666z m-554.666667 0h469.333333v-157.866666h-81.066666v38.4H422.4v-354.133334h59.733333v-81.066666H243.2v81.066666h59.733333V541.866667H209.066667v-38.4H128V661.333333z"  horiz-adv-x="1024" />

    
    <glyph glyph-name="normal72" unicode="&#59169;" d="M704.554667 661.333333h169.557333a21.333333 21.333333 0 0 0 18.090667-32.682666l-84.778667-135.168a21.333333 21.333333 0 0 0-36.181333 0L686.506667 628.650667a21.333333 21.333333 0 0 0 18.090666 32.682666zM512 149.333333h384v-42.666666h-384v42.666666z m0 128h384v-42.666666h-384v42.666666z m0 128h384v-42.666666h-384v42.666666z m-384 256h469.333333v-157.866666h-81.066666v38.4H422.4v-354.133334h59.733333v-81.066666H243.2v81.066666h59.733333V541.866667H209.066667v-38.4H128V661.333333z"  horiz-adv-x="1024" />

    
    <glyph glyph-name="normal73" unicode="&#59170;" d="M469.333333 192h341.333334a42.666667 42.666667 0 0 0 42.666666-42.666667v-42.666666a42.666667 42.666667 0 0 0-42.666666-42.666667h-341.333334a42.666667 42.666667 0 0 0-42.666666 42.666667v42.666666a42.666667 42.666667 0 0 0 42.666666 42.666667z m0 256h341.333334a42.666667 42.666667 0 0 0 42.666666-42.666667v-42.666666a42.666667 42.666667 0 0 0-42.666666-42.666667h-341.333334a42.666667 42.666667 0 0 0-42.666666 42.666667v42.666666a42.666667 42.666667 0 0 0 42.666666 42.666667z m-256 256h298.666667a42.666667 42.666667 0 0 0 42.666667-42.666667v-42.666666a42.666667 42.666667 0 0 0-42.666667-42.666667H213.333333a42.666667 42.666667 0 0 0-42.666666 42.666667v42.666666a42.666667 42.666667 0 0 0 42.666666 42.666667z m448.554667 0h169.557333a21.333333 21.333333 0 0 0 18.090667-32.682667l-84.778667-135.168a21.333333 21.333333 0 0 0-36.181333 0L643.84 671.317333a21.333333 21.333333 0 0 0 18.090667 32.682667zM298.666667 405.333333h85.333333v-42.666666H298.666667v-213.333334H256v426.666667h42.666667v-170.666667z m-42.666667-256h128v-42.666666H256v42.666666z"  horiz-adv-x="1024" />

    
    <glyph glyph-name="normal74" unicode="&#59171;" d="M625.066667 562.261333l122.368-85.674666a42.666667 42.666667 0 0 0 10.453333-59.434667l-48.938667-69.888-401.92 281.429333 48.938667 69.888a42.666667 42.666667 0 0 0 59.434667 10.496l139.776-97.877333 48.981333 69.888a42.666667 42.666667 0 1 0 69.888-48.938667L625.066667 562.261333z m-391.466667-38.4l87.381333-61.184-122.368-174.762666-52.394666 36.693333a42.666667 42.666667 0 0 0-10.496 59.434667l97.877333 139.818666z m104.874667-73.429333l87.381333-61.184-122.368-174.762667-87.381333 61.184 122.368 174.762667z m104.832-73.386667l87.381333-61.226666-122.368-174.72-87.381333 61.184 122.368 174.72z m104.874666-73.429333l87.338667-61.184-97.877333-139.818667a42.666667 42.666667 0 0 0-59.434667-10.496l-52.394667 36.693334 122.368 174.805333z m-265.642666 290.133333l401.92-281.429333-48.938667-69.888-401.92 281.429333 48.938667 69.888z m508.373333-232.149333h128v-42.666667h-128v42.666667z m-85.333333-128h213.333333v-42.666667h-213.333333v42.666667z m-85.333334-128h298.666667v-42.666667h-298.666667v42.666667z"  horiz-adv-x="1024" />

    
    <glyph glyph-name="normal75" unicode="&#59172;" d="M812.373333 520.746667a314.624 314.624 0 0 0 39.082667-187.136l-0.426667-4.608H421.290667c0.853333-19.754667 5.888-39.509333 15.146666-56.746667a129.749333 129.749333 0 0 1 113.493334-67.712 129.28 129.28 0 0 1 113.578666 67.712l1.237334 2.517333h174.506666l-2.133333-6.314666a309.717333 309.717333 0 0 0-430.506667-176.64c-49.664-23.893333-94.208-36.138667-131.242666-36.138667-34.048 0-61.397333 9.685333-81.578667 29.866667-14.677333 14.72-22.698667 39.509333-23.125333 72.32-0.426667 31.573333 6.314667 69.802667 19.797333 110.592 13.866667 42.88 35.285333 88.32 61.354667 130.773333a709.376 709.376 0 0 0 103.893333 131.2l20.181333 20.181333c-45.44-26.496-84.522667-62.250667-122.794666-111.445333l-14.293334-18.517333 5.461334 22.741333a309.845333 309.845333 0 0 0 108.074666 167.338667 307.413333 307.413333 0 0 0 191.744 66.432c7.978667 0 15.104-0.426667 22.272-0.853334 103.850667 45.824 197.632 52.138667 234.24 16 18.474667-18.944 28.16-43.733333 29.824-74.453333 1.28-28.16-4.608-60.970667-18.090666-97.109333zM256.426667 252.885333C222.464 182.272 217.386667 128 243.029333 102.4c12.202667-12.202667 30.72-17.664 55.082667-15.957333 22.741333 1.28 48.810667 8.405333 78.208 20.992a307.456 307.456 0 0 0-119.808 145.493333z m540.373333 291.84c16.384 49.621333 14.72 86.186667-5.077333 105.941334-21.845333 21.888-64.725333 21.888-122.368-0.853334a295.765333 295.765333 0 0 0 70.229333-43.306666c21.888-18.048 41.216-38.656 57.173333-61.781334zM421.290667 417.706667h244.736a122.88 122.88 0 0 1-122.368 111.018666 123.178667 123.178667 0 0 1-122.368-111.018666z"  horiz-adv-x="1024" />

    
    <glyph glyph-name="tianjiatubiao" unicode="&#59173;" d="M697.301333 217.6h-79.530666a24.704 24.704 0 1 1 0-49.365333h79.530666v-79.530667a24.704 24.704 0 1 1 49.365334 0v79.530667h77.696a24.704 24.704 0 0 1 0 49.365333H746.666667v77.696a24.704 24.704 0 0 1-49.365334 0V217.6zM529.066667 363.861333A226.688 226.688 0 0 1 472.192 213.333333h-14.250667a42.666667 42.666667 0 0 0-42.666666 42.666667V512a42.666667 42.666667 0 0 0 42.666666 42.666667h28.458667a42.666667 42.666667 0 0 0 42.666667-42.666667v-148.138667z m199.125333 75.264a229.802667 229.802667 0 0 1-113.792-14.762666v201.386666a42.666667 42.666667 0 0 0 42.666667 42.666667h28.458666a42.666667 42.666667 0 0 0 42.666667-42.666667v-186.624zM443.733333 110.933333a25.6 25.6 0 0 0 0-51.2h-256A68.266667 68.266667 0 0 0 119.466667 128V725.333333a68.266667 68.266667 0 0 0 68.266666 68.266667h597.333334A68.266667 68.266667 0 0 0 853.333333 725.333333v-256a25.6 25.6 0 0 0-51.2 0V725.333333a17.066667 17.066667 0 0 1-17.066666 17.066667h-597.333334A17.066667 17.066667 0 0 1 170.666667 725.333333v-597.333333c0-9.386667 7.68-17.066667 17.066666-17.066667h256z m-184.874666 301.525334h28.416a42.666667 42.666667 0 0 0 42.666666-42.666667V256a42.666667 42.666667 0 0 0-42.666666-42.666667h-28.416a42.666667 42.666667 0 0 0-42.666667 42.666667v113.792a42.666667 42.666667 0 0 0 42.666667 42.666667zM721.066667 0a192 192 0 1 0 0 384 192 192 0 0 0 0-384z"  horiz-adv-x="1024" />

    
    <glyph glyph-name="normal76" unicode="&#58904;" d="M803.84 366.84799999999996a32 32 0 0 1-9.856 44.16L273.152 742.4a32 32 0 0 1-49.152-27.008v-662.784a32 32 0 0 1 49.152-27.008l520.832 331.392a32 32 0 0 1 9.792 9.856z m-496.32-395.264A96 96 0 0 0 160 52.60799999999995V715.392a96 96 0 0 0 147.52 81.024l520.832-331.456a96 96 0 0 0 0-161.92l-520.832-331.456z"  horiz-adv-x="1024" />

    
    <glyph glyph-name="normal77" unicode="&#59174;" d="M896 704c35.2 0 64-28.8 64-64v-640c0-35.2-28.8-64-64-64H256c-35.2 0-64 28.8-64 64V640c0 35.2 28.8 64 64 64h640zM256 640v-640h640V640H256z m359.744-221.248H436.928a38.4 38.4 0 0 0 0 76.8h271.552a38.4 38.4 0 0 0 38.4-38.4V185.6a38.4 38.4 0 1 0-76.8 0V364.416l-199.424-199.424a38.4 38.4 0 1 0-54.272 54.336L615.68 418.752zM768 768H128v-640a64 64 0 0 0-64 64V768c0 35.2 28.8 64 64 64h576a64 64 0 0 0 64-64z"  horiz-adv-x="1024" />

    
    <glyph glyph-name="normal78" unicode="&#59175;" d="M218.496 768L128 677.504V0h768V677.504L805.504 768H218.496z m0 64h587.008a64 64 0 0 0 45.248-18.752l90.496-90.496a64 64 0 0 0 18.752-45.248V0a64 64 0 0 0-64-64H128a64 64 0 0 0-64 64V677.504a64 64 0 0 0 18.752 45.248l90.496 90.496A64 64 0 0 0 218.496 832zM544 137.27999999999997a32 32 0 0 0-64 0V448a32 32 0 0 0 64 0v-310.72zM342.656 297.34400000000005a32 32 0 1 0-45.312 45.312l192 192a32 32 0 0 0 45.312 0l192-192a32 32 0 0 0-45.312-45.312L512 466.752 342.656 297.34400000000005zM96 704h832a32 32 0 1 0 0-64h-832a32 32 0 0 0 0 64z"  horiz-adv-x="1024" />

    
    <glyph glyph-name="qiehuanweidu" unicode="&#59176;" d="M677.504 624.3199999999999l131.776-132.992a32 32 0 1 1 45.44 45.056l-186.496 188.16a32 32 0 0 1-54.72-22.464V128a32 32 0 1 1 64 0V624.3199999999999zM220.16 338.88a32 32 0 0 1-45.44-45.12l186.496-188.16A32 32 0 0 1 416 128v574.08a32 32 0 1 1-64 0v-496.32L220.224 338.81600000000003z"  horiz-adv-x="1024" />

    
    <glyph glyph-name="normal79" unicode="&#58888;" d="M512-64A448 448 0 1 0 512 832a448 448 0 0 0 0-896z m0 64A384 384 0 1 1 512 768a384 384 0 0 1 0-768zM512 384h160a32 32 0 0 0 0-64h-192a32 32 0 0 0-32 32v256a32 32 0 0 0 64 0V384z"  horiz-adv-x="1024" />

    
    <glyph glyph-name="normal80" unicode="&#58889;" d="M192 768a64 64 0 0 1-64-64v-640a64 64 0 0 1 64-64h640a64 64 0 0 1 64 64V704a64 64 0 0 1-64 64H192z m0 64h640a128 128 0 0 0 128-128v-640a128 128 0 0 0-128-128H192a128 128 0 0 0-128 128V704a128 128 0 0 0 128 128zM288 608v64a32 32 0 0 0 64 0v-64h64a32 32 0 0 0 0-64h-64v-64a32 32 0 0 0-64 0v64h-64a32 32 0 0 0 0 64h64zM608 544a32 32 0 0 0 0 64h192a32 32 0 1 0 0-64h-192zM608 256a32 32 0 0 0 0 64h192a32 32 0 1 0 0-64h-192z m0-128a32 32 0 1 0 0 64h192a32 32 0 1 0 0-64h-192zM278.656 220.15999999999997l-45.312 45.184a32 32 0 1 0 45.312 45.312l45.248-45.312 45.248 45.312a32 32 0 1 0 45.248-45.312l-45.248-45.248 45.248-45.248a32 32 0 1 0-45.248-45.248l-45.248 45.248-45.248-45.248a32 32 0 1 0-45.312 45.248l45.312 45.248z"  horiz-adv-x="1024" />

    
    <glyph glyph-name="normal81" unicode="&#58890;" d="M128 832h768a64 64 0 0 0 64-64v-768a64 64 0 0 0-64-64H128a64 64 0 0 0-64 64V768a64 64 0 0 0 64 64z m0-64v-768h768V768H128z m310.4-384L262.336 620.928A32 32 0 0 0 288 672h448a32 32 0 1 0 0-64H351.68l152.32-204.928a32 32 0 0 0 0-38.144L351.616 160H736a32 32 0 1 0 0-64h-448a32 32 0 0 0-25.664 51.072L438.336 384z"  horiz-adv-x="1024" />

    
    <glyph glyph-name="normal82" unicode="&#58891;" d="M292.736-31.744000000000028v-64H128v64H804.224a64 64 0 0 1 64 64V543.36h-223.872a32 32 0 0 0-32 32V799.04H228.736a64 64 0 0 1-64-64V512h-63.936V735.04c0 70.656 57.28 127.872 127.936 127.872H640a34.688 34.688 0 0 0 31.36-9.088l249.6-249.28a34.56 34.56 0 0 0 9.728-19.648 30.72 30.72 0 0 0 1.472-9.6v-543.104a127.744 127.744 0 0 0-127.936-127.872H256v63.936h36.736z m383.616 780.864V607.36h141.952l-141.952 141.824z m-472.32-341.312c-4.864-0.96-6.592-3.072-7.68-10.112v-381.248h-64l0.256 385.152c4.48 36.8 25.152 62.336 59.136 68.992 32.384 6.336 61.184-7.04 82.304-35.776l4.16-7.808 116.992-318.016c7.936-16.064 15.872-20.48 30.464-18.048 13.12 2.176 16.96 6.912 17.216 23.104V477.76h64v-364.16c-0.704-46.784-26.24-78.464-70.848-85.76-43.136-7.168-78.08 12.16-99.52 55.936L219.904 400.256c-5.888 7.04-10.24 8.64-15.872 7.552z"  horiz-adv-x="1024" />

    
    <glyph glyph-name="normal83" unicode="&#58892;" d="M301.312 48l205.888 108.352a32 32 0 0 0 29.824 0l205.888-108.288-39.296 229.312a32 32 0 0 0 9.216 28.288l166.592 162.432-230.272 33.472a32 32 0 0 0-24.064 17.472l-103.04 208.64L419.2 519.04a32 32 0 0 0-24.064-17.472l-230.272-33.472 166.592-162.432a32 32 0 0 0 9.216-28.288l-39.296-229.312z m-27.648-86.784a32 32 0 0 0-46.4 33.728l47.424 276.672-200.96 195.904a32 32 0 0 0 17.728 54.592l277.76 40.32 124.16 251.712a32 32 0 0 0 57.408 0l124.224-251.648 277.76-40.384a32 32 0 0 0 17.728-54.592l-200.96-195.904 47.424-276.672a32 32 0 0 0-46.4-33.728l-248.448 130.624-248.448-130.56z"  horiz-adv-x="1024" />

    
    <glyph glyph-name="normal84" unicode="&#58893;" d="M831.68-0.38400000000001455V380.60799999999995a32 32 0 1 0 64 0v-412.992a32 32 0 0 0-32-32h-768a32 32 0 0 0-32 32v768a32 32 0 0 0 32 32h420.288a32 32 0 0 0 0-64H127.68v-704h704zM319.488 225.27999999999997l12.8 140.928a32 32 0 0 0 9.216 19.712l435.712 436.48a32 32 0 0 0 45.248 0l128.064-128.064a32 32 0 0 0 0-45.248l-435.648-436.48a32 32 0 0 0-19.776-9.28l-140.864-12.8a32 32 0 0 0-34.752 34.752zM384.64 353.664l-9.792-107.776 107.776 9.792 415.232 416-97.984 97.984-415.232-416z"  horiz-adv-x="1024" />

    
    <glyph glyph-name="normal85" unicode="&#58894;" d="M948.544 219.072l-1.344-4.032C884.032 48 715.072-64 524.864-64 277.824-64 76.8 123.51999999999998 76.8 354.17600000000004c0 11.008 6.464 21.12 16.896 26.24a34.112 34.112 0 0 0 32.832-1.408l110.144-68.544a29.12 29.12 0 0 0 12.608-23.936c0-16.448-14.272-29.824-32-29.824a33.792 33.792 0 0 0-16.128 4.032l-55.168 34.368c30.272-169.6 188.672-299.392 378.88-299.392 164.352 0 310.4 97.472 363.52 242.56a32.128 32.128 0 0 0 30.016 19.328c17.664 0 32-13.44 32-29.888 0-3.136-0.96-5.824-1.856-8.64zM78.656 528.768l1.344 4.288A447.744 447.744 0 0 0 502.272 832c247.04 0 448-200.896 448-448a31.872 31.872 0 0 0-49.728-26.624L790.4 430.848a32 32 0 1 0 35.52 53.248l55.168-36.8A384.64 384.64 0 0 1 502.272 768a383.872 383.872 0 0 1-363.456-259.776 32.128 32.128 0 0 0-62.016 11.264c0 3.328 0.96 6.272 1.856 9.28z m312.96 9.28c-4.8-0.96-6.528-3.072-7.616-10.112v-381.248H320l0.256 385.152c4.48 36.8 25.152 62.336 59.136 68.992 32.384 6.4 61.248-6.976 82.304-35.776l4.224-7.808 116.928-318.016c7.936-16.064 15.872-20.48 30.464-18.048 13.12 2.176 16.96 6.976 17.216 23.104V608h64v-364.16c-0.704-46.72-26.24-78.464-70.848-85.76-43.136-7.104-78.08 12.16-99.52 55.936L407.552 530.496c-5.888 7.04-10.24 8.64-15.872 7.552z"  horiz-adv-x="1024" />

    
    <glyph glyph-name="normal86" unicode="&#58895;" d="M512 429.248l105.344 105.408a32 32 0 1 0 45.312-45.312L557.248 384l105.408-105.344a32 32 0 1 0-45.312-45.312L512 338.75199999999995l-105.344-105.408a32 32 0 1 0-45.312 45.312L466.752 384 361.344 489.344a32 32 0 1 0 45.312 45.312L512 429.248z m436.544-210.176l-1.344-4.032C884.032 48 715.072-64 524.864-64 277.824-64 76.8 123.51999999999998 76.8 354.17600000000004c0 11.008 6.464 21.12 16.896 26.24a34.112 34.112 0 0 0 32.832-1.408l110.144-68.544a29.12 29.12 0 0 0 12.608-23.936c0-16.448-14.272-29.824-32-29.824a33.792 33.792 0 0 0-16.128 4.032l-55.168 34.368c30.272-169.6 188.672-299.392 378.88-299.392 164.352 0 310.4 97.472 363.52 242.56a32.128 32.128 0 0 0 30.016 19.328c17.664 0 32-13.44 32-29.888 0-3.136-0.96-5.824-1.856-8.64zM78.656 528.768l1.344 4.288A447.744 447.744 0 0 0 502.272 832c247.04 0 448-200.896 448-448a31.872 31.872 0 0 0-49.728-26.624L790.4 430.848a32 32 0 1 0 35.52 53.248l55.168-36.8A384.64 384.64 0 0 1 502.272 768a383.872 383.872 0 0 1-363.456-259.776 32.128 32.128 0 0 0-62.016 11.264c0 3.328 0.96 6.272 1.856 9.28z"  horiz-adv-x="1024" />

    
    <glyph glyph-name="normal87" unicode="&#58896;" d="M263.104 352v-248.896h99.584v-49.792H213.312V600.96h49.792v-199.104h99.584V352H263.04z m435.52 279.36l28.8-28.8c-28.352-23.936-69.76-61.184-78.336-67.84-21.696-17.088-40.96-22.592-40.96-22.592s5.504 19.2 22.528 40.96c6.72 8.576 43.968 49.92 67.968 78.272zM921.728 748.8a20.864 20.864 0 0 0-29.504-29.44l-6.144 6.08-79.36-112.448 24.768-24.896a20.864 20.864 0 0 0-29.44-29.504l-147.584 147.52a20.864 20.864 0 1 0 29.568 29.44l24.896-24.832 112.448 79.424-6.144 6.144a20.864 20.864 0 1 0 29.504 29.504l76.992-76.992z m-445.312-595.84h369.792a64 64 0 1 0 0-128H476.416a64 64 0 1 0 0 128z m0 298.688h369.792a64 64 0 1 0 0-128H476.416a64 64 0 1 0 0 128zM177.792 750.208h320a64 64 0 1 0 0-128h-320a64 64 0 1 0 0 128z"  horiz-adv-x="1024" />

    
    <glyph glyph-name="normal88" unicode="&#58897;" d="M120.448 0c-42.24 0-70.4 41.6-49.28 75.136l392.32 665.28c21.12 36.8 77.44 36.8 98.56 0l390.784-665.28c21.12-33.664-7.04-75.136-49.28-75.136H120.448z m335.168 311.232c0-72.896 112.64-72.896 112.64 0V538.752c0 74.624-112.64 74.624-112.64 0v-227.52zM512 64a64 64 0 1 1 0 128 64 64 0 0 1 0-128z"  horiz-adv-x="1024" />

    
    <glyph glyph-name="normal89" unicode="&#58898;" d="M512-102.4A486.4 486.4 0 1 0 512 870.4a486.4 486.4 0 0 0 0-972.8z m0 76.8A409.6 409.6 0 1 1 512 793.6a409.6 409.6 0 0 1 0-819.2z m-130.048 142.72a41.024 41.024 0 1 0-77.44 27.136l177.664 506.688c5.76 16.384 20.864 26.88 39.36 27.456a41.088 41.088 0 0 0 38.464-28.736l159.872-506.624a41.088 41.088 0 0 0-78.272-24.704l-41.28 130.816H428.288l-46.336-132.032z m66.112 207.744h135.04l-64 202.816-71.04-202.816z"  horiz-adv-x="1024" />

    
    <glyph glyph-name="normal111" unicode="&#58921;" d="M423.808 713.664a360.96 360.96 0 0 1-299.84-356.224c0-199.488 161.088-361.216 359.808-361.216 178.24 0 326.272 130.176 354.816 300.992H483.84a60.096 60.096 0 0 0-59.968 60.224V713.664z m479.744-356.224c0-232.704-187.968-421.44-419.776-421.44C251.968-64 64 124.73599999999999 64 357.44000000000005S251.968 778.88 483.84 778.88v-421.44h419.712zM540.224 407.04V832C772.032 832 960 641.7280000000001 960 407.04H540.16z m59.968 60.16h294.976c-25.088 153.088-144.192 273.92-294.976 299.52V467.2z"  horiz-adv-x="1024" />

    
    <glyph glyph-name="normal112" unicode="&#58922;" d="M512-64A448 448 0 1 0 512 832a448 448 0 0 0 0-896z m0 64A384 384 0 1 1 512 768a384 384 0 0 1 0-768z"  horiz-adv-x="1024" />

    
    <glyph glyph-name="normal113" unicode="&#58923;" d="M128 768h768a64 64 0 0 0 64-64v-640a64 64 0 0 0-64-64H128a64 64 0 0 0-64 64V704a64 64 0 0 0 64 64z m0-64v-640h768V704H128z"  horiz-adv-x="1024" />

    
    <glyph glyph-name="normal114" unicode="&#58924;" d="M232 384h560l-186.624-384H418.688L232 384z m222.08-329.152h115.968l133.248 274.304H320.704l133.376-274.304zM64 768h896l-156.8-329.152H215.168L64 768z m86.592-54.848l100.8-219.456h516.16l104.512 219.456H150.592z"  horiz-adv-x="1024" />

    
    <glyph glyph-name="normal115" unicode="&#58925;" d="M907.52 753.856c14.016 24.704 52.48 14.976 52.48-13.312v-713.152a27.712 27.712 0 0 0-28.032-27.456H92.032A27.712 27.712 0 0 0 64 27.392000000000053v94.592l2.432 11.136 209.92 463.872a28.288 28.288 0 0 0 43.904 9.728l341.44-287.36 245.76 434.496zM120 54.78399999999999h784V634.496l-209.984-371.2a28.352 28.352 0 0 0-42.752-7.488L312.32 541.056l-192.32-424.896v-61.376z"  horiz-adv-x="1024" />

    
    <glyph glyph-name="normal116" unicode="&#58926;" d="M512-64.19200000000001a453.504 453.504 0 0 0-205.056 49.152l-40.512 20.736 2.432 1.792a449.216 449.216 0 0 0-202.432 329.92l-0.128 1.28A447.936 447.936 0 0 0 64 384C64 630.976 264.96 832 512 832s448-200.96 448-448.064c0-247.04-200.96-448.128-448-448.128z m-65.28 61.376a389.248 389.248 0 0 1 435.968 490.688 97.792 97.792 0 0 0-3.584-10.752c-10.24-25.472-31.424-34.304-50.112-42.048-5.888-2.432-12.352-5.12-19.392-8.704a193.28 193.28 0 0 1-7.744-3.968c-0.32-2.56-0.704-5.12-1.28-7.68l1.152-1.408c3.456-4.48 8.64-11.2 12.928-21.12 10.368-23.68 10.368-29.952 10.368-64.96 0-30.72-13.44-46.08-21.504-55.296-1.28-1.408-2.56-2.624-3.392-4.16a114.048 114.048 0 0 0-25.088-63.872c-6.144-7.936-11.648-12.8-16.512-17.28-7.68-6.848-14.4-12.864-26.816-36.544-20.608-39.424-38.528-73.152-81.088-69.44-41.6 3.84-39.68 50.112-39.04 67.584 0.128 4.928 0.448 12.352 0 14.72l-2.816 11.84c-4.416 18.304-9.92 41.152-9.92 60.352 0 12.544 0 50.816-6.464 62.528-8.512 15.232-10.112 32.256-11.264 44.608-0.384 4.224-0.512 8.064-1.408 10.944-4.16 6.528-7.68 12.352-20.48 20.928a365.312 365.312 0 0 0-11.84 8.384c-14.016 10.24-31.36 22.912-46.72 22.912-40.448 0-62.912 17.664-91.328 40-19.648 15.488-24.256 33.536-24.64 46.08-0.896 31.04 23.04 55.744 33.28 64.896 7.68 6.848 14.016 11.968 19.2 16.128 5.12 4.224 9.6 7.808 11.136 9.856 6.144 8.256 15.872 14.464 26.496 20.8a143.68 143.68 0 0 0-17.92 29.76c-1.28 3.008-11.584 8.448-24.64 8.448a27.968 27.968 0 0 1-11.2-1.792c-14.336-6.528-16.512-17.792-16.512-23.936 0-29.504-10.688-43.904-27.008-62.464-0.832-1.664-1.792-8.832-2.368-13.12-1.92-14.08-5.376-40.32-31.744-49.088a46.4 46.4 0 0 0-14.784-2.56c-20.48 0-29.888 14.592-33.536 20.48a48.576 48.576 0 0 0-27.136 20.16c-21.44-27.264-64.832-30.336-83.712-31.68l-4.288-0.192a42.496 42.496 0 0 0-36.096 17.472 381.824 381.824 0 0 1-23.04-111.616c9.152 4.928 19.904 6.912 34.88 5.504 33.344-3.264 60.16-27.328 79.744-44.8 6.336-5.696 14.912-13.44 18.24-14.976 2.56-0.96 6.464-2.048 11.008-3.328 24.832-7.104 62.4-17.92 74.944-49.152 4.672-11.52 7.36-30.208-6.272-53.504-28.8-49.536-52.48-82.304-70.08-97.344-1.92-2.752-4.48-16.448-2.368-35.712 2.816-10.048 31.808-50.688 60.16-68.48l7.424-4.032 3.84-1.92c35.84-18.624 74.496-31.488 114.368-38.144zM126.08 315.072a393.088 393.088 0 0 1 78.976-175.04c2.048 17.728 7.936 35.968 21.888 47.936 4.48 3.84 22.144 21.376 58.112 83.008a15.808 15.808 0 0 1 2.432 5.76c-3.776 5.12-29.696 12.544-38.208 14.976a188.288 188.288 0 0 0-16.512 5.248c-11.904 4.8-22.4 14.208-34.624 25.152-14.464 12.928-32.448 28.992-47.424 30.72-1.536-8.192-4.16-21.632-15.808-31.36-2.56-2.112-5.504-4.416-8.832-6.4z m306.176 382.272c26.88 0 63.04-11.2 76.224-42.88 2.816-6.656 8.576-14.336 13.632-21.12 8.64-11.52 31.552-42.048 4.096-63.68a190.72 190.72 0 0 0-19.2-12.416c-4.736-2.816-12.736-7.488-14.912-9.6-4.672-6.4-11.328-11.712-19.712-18.56-4.672-3.776-10.24-8.32-17.152-14.464-10.112-8.96-14.72-18.112-14.592-21.44 0-0.704 1.408-2.24 3.264-3.712 27.136-21.312 36.672-28.096 56.768-28.096 33.6 0 60.288-19.456 79.744-33.664 3.52-2.56 6.848-5.056 9.92-7.04 23.232-15.552 31.68-29.632 38.464-40.96 5.888-9.856 7.04-21.184 8-32.128 0.832-8.32 1.728-17.792 4.48-22.784 12.48-22.464 13.568-58.048 13.568-89.6 0-12.672 4.608-31.872 8.32-47.36l3.008-12.736c1.792-7.936 1.728-16.448 1.472-24.96a364.8 364.8 0 0 1 14.528 25.856c17.088 32.64 29.184 43.52 38.976 52.288 3.2 2.88 6.336 5.568 9.728 9.984 9.92 12.736 12.672 23.168 14.272 37.952 1.856 16.064 10.56 26.048 16.256 32.64 5.568 6.272 7.68 8.64 7.68 18.368 0 29.632 0 29.632-5.696 42.624a41.664 41.664 0 0 1-6.016 9.344c-6.4 8.256-17.024 22.08-11.712 46.208 0.64 2.752 0.768 4.8 0.896 6.464 2.304 24.96 15.872 33.536 37.952 44.544 8.32 4.224 16 7.424 23.04 10.24 14.08 5.888 18.304 8.064 19.584 11.2 3.2 8 4.224 19.584 5.12 29.824 0.832 9.6 1.664 18.688 4.352 26.752 1.984 6.272 5.696 17.728 14.912 25.344A391.68 391.68 0 0 1 193.152 611.8399999999999c7.04-4.992 11.904-12.544 14.4-19.456a40.128 40.128 0 0 0-4.48-36.48c19.2 3.392 20.992 8 21.12 9.152 1.088 7.616 1.344 13.44 1.6 17.92 0.64 13.248 1.728 33.28 27.584 44.352 19.328 8.32 40.64 3.712 52.48-11.008 8.576-10.688 11.392-25.152 7.936-40.768a30.72 30.72 0 0 1 0-13.632 46.848 46.848 0 0 0 7.68-2.944c1.92 10.048 5.504 21.312 13.952 31.04 12.672 14.464 13.12 16 13.12 25.6a81.856 81.856 0 0 0 83.712 81.728z"  horiz-adv-x="1024" />

    
    <glyph glyph-name="wenben" unicode="&#58927;" d="M402.56 623.6800000000001H127.36c-17.344 0-31.424 12.48-31.424 27.904V772.096c0 15.36 14.08 27.904 31.424 27.904H896.64c17.344 0 31.424-12.48 31.424-27.904V651.52c0-15.36-14.08-27.904-31.424-27.904H617.792v-627.776c0-15.36-14.08-27.904-31.488-27.904h-152.32c-17.344 0-31.424 12.48-31.424 27.904V623.6800000000001zM158.912 744.192v-64.64H433.92c17.344 0 31.424-12.544 31.424-27.968v-627.776H554.88v627.84c0 15.36 14.08 27.84 31.424 27.84h278.784v64.64H158.912z"  horiz-adv-x="1024" />

    
    <glyph glyph-name="normal117" unicode="&#58928;" d="M312.704 508.16l338.176-324.416c13.632-13.056 34.56-8.896 43.328 8.704l262.208 528.32c7.68 15.36 2.688 34.688-11.008 43.2-13.76 8.576-31.04 3.008-38.656-12.352l-245.312-494.208L320.64 584.256c-14.464 13.824-36.736 8.192-44.48-11.264L66.432 44.799999999999955c-6.4-16.064 0.128-34.88 14.464-41.984 14.336-7.104 31.104 0.064 37.504 16.128L312.704 508.16z"  horiz-adv-x="1024" />

    
    <glyph glyph-name="normal118" unicode="&#58932;" d="M353.92 373.504h316.16c29.12 0 52.736-23.552 52.736-52.544v-52.608a52.672 52.672 0 0 0-52.672-52.608H353.856a52.672 52.672 0 0 0-52.672 52.608v52.608c0 28.992 23.616 52.544 52.672 52.544z m0-52.544v-52.608h316.16v52.608H353.92z m-79.04-303.552a68.608 68.608 0 0 0-96.704 5.376A445.184 445.184 0 0 0 64 320.96000000000004C64 567.8720000000001 264.576 768 512 768s448-200.128 448-447.04a445.248 445.248 0 0 0-113.984-298.048c-25.216-28.16-68.544-30.528-96.768-5.376a68.288 68.288 0 0 0-5.376 96.512 308.608 308.608 0 0 1 79.104 206.912A310.592 310.592 0 0 1 512 631.232a310.592 310.592 0 0 1-310.976-310.272c0-76.992 28.16-149.952 79.232-206.976 25.216-28.16 22.848-71.36-5.376-96.576zM148.352 320.96000000000004A363.264 363.264 0 0 0 512 683.84a363.264 363.264 0 0 0 363.648-362.88 361.152 361.152 0 0 0-92.48-241.92 15.808 15.808 0 0 1 23.552-21.056 392.704 392.704 0 0 1 100.544 262.976c0 217.856-176.96 394.432-395.264 394.432s-395.264-176.64-395.264-394.432c0-97.728 35.776-190.72 100.672-263.104a15.808 15.808 0 0 1 23.552 21.056 361.088 361.088 0 0 0-92.608 242.048z"  horiz-adv-x="1024" />

    
    <glyph glyph-name="normal119" unicode="&#58933;" d="M128-64a64 64 0 0 0-64 64V576a64 64 0 0 0 64 64h128a64 64 0 0 0 64-64v-576a64 64 0 0 0-64-64H128z m0 64h128V576H128v-576z m320-64a64 64 0 0 0-64 64V768a64 64 0 0 0 64 64h128a64 64 0 0 0 64-64v-768a64 64 0 0 0-64-64H448z m0 64h128V768H448v-768z m320-64a64 64 0 0 0-64 64v256a64 64 0 0 0 64 64h128a64 64 0 0 0 64-64v-256a64 64 0 0 0-64-64h-128z m0 64h128v256h-128v-256z"  horiz-adv-x="1024" />

    
    <glyph glyph-name="normal90" unicode="&#58908;" d="M832 273.728c11.328 0 22.08-4.48 30.016-12.416a42.56 42.56 0 0 0-30.592-72.064H272.96l183.104-181.312a41.344 41.344 0 0 0 0-59.456 42.304 42.304 0 0 0-60.032 0l-255.68 253.248a41.6 41.6 0 0 0-9.024 45.824 42.432 42.432 0 0 0 39.68 26.176H832zM171.008 535.936a43.072 43.072 0 0 0-42.624 42.752 42.56 42.56 0 0 0 42.624 42.24h558.464L588.928 760.064a41.344 41.344 0 0 0 0 59.456 42.24 42.24 0 0 0 60.032 0l213.12-211.712c8.128-7.744 12.672-18.56 12.544-29.696a38.72 38.72 0 0 0-2.944-16 42.432 42.432 0 0 0-39.68-26.24H171.008z"  horiz-adv-x="1024" />

    
    <glyph glyph-name="quanxianfuyong" unicode="&#58911;" d="M831.90745 31.982202v-127.985762H0V498.234331h99.892887a320.284368 320.284368 0 0 0 246.500577 262.11484 320.028397 320.028397 0 0 0 577.535749-134.129078H1023.886093V31.982202h-191.978643z m0 73.143863h118.83478v447.950165h-232.486136c6.143317-17.662035 10.750804-35.963999 13.758469-54.841899H831.90745v-393.108266z m-150.191291 521.094028h164.141739a243.23694 243.23694 0 0 1-390.356573 139.248509 319.900411 319.900411 0 0 0 226.214834-139.248509z m-304.606112-373.334467V351.946606h82.550816v-99.188965a114.291285 114.291285 0 0 0-41.467387-220.711446 114.291285 114.291285 0 0 0-41.083429 220.839431zM177.900209 498.234331h475.915054a243.23694 243.23694 0 0 1-475.915054 0z m-104.820339-521.094028h685.619725v447.950166H73.143863v-447.950166z"  horiz-adv-x="1024" />

    
    <glyph glyph-name="shouqi1" unicode="&#58913;" d="M0-128V896h1024v-1024H0z m93.090909 93.090909h837.818182V802.909091H93.090909v-837.818182z m93.090909 372.363636V430.545455h651.636364v-93.09091H186.181818z"  horiz-adv-x="1024" />

    
    <glyph glyph-name="zhankai1" unicode="&#58916;" d="M465.454545 430.545455V709.818182h93.09091v-279.272727h279.272727v-93.09091H558.545455v-279.272727H465.454545V337.454545H186.181818V430.545455h279.272727z m-465.454545-558.545455V896h1024v-1024H0z m93.090909 93.090909h837.818182V802.909091H93.090909v-837.818182z"  horiz-adv-x="1024" />

    
    <glyph glyph-name="gonggonglianjieguanbi" unicode="&#59177;" d="M896 256h-64v27.328a64 64 0 0 1-128 0V256h-64v27.328a128 128 0 1 0 256 0V256z m-288 0h320a32 32 0 0 0 32-32v-256a32 32 0 0 0-32-32h-320a32 32 0 0 0-32 32v256a32 32 0 0 0 32 32z m32-64v-192h256v192h-256zM390.848 507.264l221.696 128 32-55.424-221.696-128-32 55.424zM512 264.576v-73.92L384 264.576 416 320l96-55.424zM768 512a128 128 0 1 1 0 256 128 128 0 0 1 0-256z m0-64a192 192 0 1 0 0 384 192 192 0 0 0 0-384z m-512-192a128 128 0 1 1 0 256 128 128 0 0 1 0-256z m0-64a192 192 0 1 0 0 384 192 192 0 0 0 0-384z"  horiz-adv-x="1024" />

    
    <glyph glyph-name="gonggonglianjiedakai" unicode="&#59178;" d="M390.848 507.264l221.696 128 32-55.424-221.696-128-32 55.424zM416 320l221.696-128-32-55.424-221.696 128L416 320zM768 512a128 128 0 1 1 0 256 128 128 0 0 1 0-256z m0-512a128 128 0 1 1 0 256 128 128 0 0 1 0-256z m0 448a192 192 0 1 0 0 384 192 192 0 0 0 0-384z m0-512a192 192 0 1 0 0 384 192 192 0 0 0 0-384z m-512 320a128 128 0 1 1 0 256 128 128 0 0 1 0-256z m0-64a192 192 0 1 0 0 384 192 192 0 0 0 0-384z"  horiz-adv-x="1024" />

    
    <glyph glyph-name="kejian" unicode="&#58915;" d="M512 128c-164.928 0-314.24 85.312-448 256 133.76 170.688 283.072 256 448 256s314.24-85.312 448-256c-133.76-170.688-283.072-256-448-256z m0 96a160 160 0 1 1 0 320 160 160 0 0 1 0-320z m0 64a96 96 0 1 0 0 192 96 96 0 0 0 0-192z"  horiz-adv-x="1024" />

    
    <glyph glyph-name="bukejian" unicode="&#58917;" d="M354.816 155.52l85.44 85.44a160 160 0 0 1 214.784 214.784l109.952 109.952C833.28 523.264 898.304 462.72 960 384c-133.76-170.688-283.072-256-448-256a458.752 458.752 0 0 0-157.184 27.52z m-97.216 47.616C189.76 245.504 125.248 305.792 64 384c133.76 170.688 283.072 256 448 256 53.504 0 105.344-8.96 155.52-26.88L582.272 527.744a160 160 0 0 1-214.016-214.016l-110.656-110.656zM489.856 290.56L605.44 406.144A96 96 0 0 0 489.856 290.56z m-71.68 73.152a96 96 0 0 0 114.176 114.176L418.112 363.648z m456.576 384.896a38.4 38.4 0 0 0 0-54.272L204.992 24.512a38.4 38.4 0 1 0-54.336 54.336L820.48 748.608a38.4 38.4 0 0 0 54.336 0z"  horiz-adv-x="1024" />

    
    <glyph glyph-name="paixu_daoxu" unicode="&#58929;" d="M320 511.936h104.704a25.6 25.6 0 0 1 18.368 43.456l-136.704 140.8a25.6 25.6 0 0 1-36.736 0l-136.704-140.8a25.6 25.6 0 0 1 18.368-43.456H256v-416a32 32 0 0 1 64 0v416z m224-448h128a32 32 0 1 1 0 64h-128a32 32 0 0 1 0-64z m0 192h189.696a32 32 0 0 1 0 64H544a32 32 0 0 1 0-64z m0 192h256a32 32 0 1 1 0 64h-256a32 32 0 0 1 0-64z m0 192h320a32 32 0 1 1 0 64h-320a32 32 0 1 1 0-64z"  horiz-adv-x="1024" />

    
    <glyph glyph-name="paixu_shunxu" unicode="&#58930;" d="M320 256h104.704a25.6 25.6 0 0 0 18.368-43.456l-136.704-140.8a25.6 25.6 0 0 0-36.736 0l-136.704 140.8A25.6 25.6 0 0 0 151.296 256H256V672a32 32 0 0 0 64 0V256z m224 448h320a32 32 0 1 0 0-64h-320a32 32 0 0 0 0 64z m0-192h256a32 32 0 1 0 0-64h-256a32 32 0 0 0 0 64z m0-192h192a32 32 0 1 0 0-64h-192a32 32 0 0 0 0 64z m0-192h128a32 32 0 1 0 0-64h-128a32 32 0 1 0 0 64z"  horiz-adv-x="1024" />

    
    <glyph glyph-name="paixu_shuangjiantou" unicode="&#58931;" d="M674.304 511.936H569.6a25.6 25.6 0 0 0-18.368 43.456l136.64 140.8a25.6 25.6 0 0 0 36.8 0l136.64-140.8a25.6 25.6 0 0 0-18.368-43.456h-104.64v-416a32 32 0 1 0-64 0v416zM352.384 256h104.704a25.6 25.6 0 0 0 18.368-43.456l-136.704-140.8a25.6 25.6 0 0 0-36.736 0l-136.64 140.8A25.6 25.6 0 0 0 183.68 256h104.64V672a32 32 0 0 0 64 0V256z"  horiz-adv-x="1024" />

    
    <glyph glyph-name="normal91" unicode="&#59179;" d="M354.304 141.312l-158.4-22.656 22.592 158.4 407.296 407.296L761.6 548.608l-407.232-407.296zM166.4 58.56h691.2a38.4 38.4 0 0 0 0-76.8H166.4a38.4 38.4 0 1 0 0 76.8zM671.04 729.6l45.248 45.248a64 64 0 0 0 90.56 0l45.248-45.248a64 64 0 0 0 0-90.496l-45.248-45.248L671.04 729.6z"  horiz-adv-x="1024" />

    
    <glyph glyph-name="yewubaogengxin" unicode="&#59180;" d="M544.384 384v-224a32 32 0 1 0-64 0V384H345.6a12.8 12.8 0 0 0-10.24 20.48l166.4 221.888a12.8 12.8 0 0 0 20.48 0l166.4-221.888a12.8 12.8 0 0 0-10.24-20.48H544.384zM60.608 241.664a32 32 0 0 0-57.216 28.672l64 128C82.496 428.544 128 417.792 128 384a384 384 0 0 1 726.848-173.12 32 32 0 0 0 57.152-28.864A448.192 448.192 0 0 0 77.376 275.13599999999997l-16.768-33.472z m902.784 284.672a32 32 0 1 0 57.216-28.672l-64-128C941.504 339.456 896 350.20799999999997 896 384A384 384 0 0 1 173.44 565.376a32 32 0 0 0-56.384 30.272 448.192 448.192 0 0 0 829.632-102.72l16.64 33.408z"  horiz-adv-x="1024" />

    
    <glyph glyph-name="quanlianggengxin" unicode="&#59181;" d="M60.608 241.664a32 32 0 0 0-57.216 28.672l64 128C82.496 428.544 128 417.792 128 384a384 384 0 0 1 726.848-173.12 32 32 0 0 0 57.152-28.864A448.192 448.192 0 0 0 77.376 275.13599999999997l-16.768-33.472z m886.08 251.264l16.64 33.408a32 32 0 1 0 57.28-28.672l-64-128C941.504 339.456 896 350.20799999999997 896 384A384 384 0 0 1 173.44 565.376a32 32 0 0 0-56.384 30.272 448.192 448.192 0 0 0 829.632-102.72zM322.752 576h384a32 32 0 1 0 0-64h-384a32 32 0 1 0 0 64z m0-160h384a32 32 0 1 0 0-64h-384a32 32 0 1 0 0 64z m0-160h384a32 32 0 1 0 0-64h-384a32 32 0 1 0 0 64z"  horiz-adv-x="1024" />

    
    <glyph glyph-name="zenglianggengxin" unicode="&#59182;" d="M480 415.36V582.4a32 32 0 1 0 64 0v-167.04H704a32 32 0 1 0 0-64H544v-152.96a32 32 0 1 0-64 0V351.36H320a32 32 0 1 0 0 64h160zM60.608 241.60000000000002a32 32 0 0 0-57.216 28.672l64 128C82.496 428.544 128 417.792 128 384a384 384 0 0 1 726.848-173.12 32 32 0 0 0 57.152-28.864A448.192 448.192 0 0 0 77.376 275.13599999999997l-16.768-33.472z m886.08 251.264l16.64 33.408a32 32 0 1 0 57.28-28.672l-64-128C941.504 339.456 896 350.20799999999997 896 384A384 384 0 0 1 173.44 565.376a32 32 0 0 0-56.384 30.272 448.192 448.192 0 0 0 829.632-102.72z"  horiz-adv-x="1024" />

    
    <glyph glyph-name="dongtaishijian" unicode="&#59183;" d="M766.016 672A384 384 0 1 1 896 384a32 32 0 1 0 64 0 448 448 0 1 0-160 343.168V800a32 32 0 1 0 64 0V640a32 32 0 0 0-32-32h-160a32 32 0 1 0 0 64h94.016z m-103.36-393.344a32 32 0 0 0-45.312-45.312l-128 128A32 32 0 0 0 480 384V576a32 32 0 0 0 64 0v-178.752l118.656-118.592z"  horiz-adv-x="1024" />

    
    </font>
</defs>
</svg>
