<?xml version="1.0" standalone="no"?>
<!DOCTYPE svg PUBLIC "-//W3C//DTD SVG 1.1//EN" "http://www.w3.org/Graphics/SVG/1.1/DTD/svg11.dtd" >
<!--
2013-9-30: Created.
-->
<svg>
<metadata>
Created by iconfont
</metadata>
<defs>

<font id="iconfont" horiz-adv-x="1024" >
  <font-face
    font-family="iconfont"
    font-weight="500"
    font-stretch="normal"
    units-per-em="1024"
    ascent="896"
    descent="-128"
  />
    <missing-glyph />
    
    <glyph glyph-name="excelshujuji-chuli" unicode="&#59435;" d="M864 800a64 64 0 0 0 64-64v-704a64 64 0 0 0-64-64h-704a64 64 0 0 0-64 64v704a64 64 0 0 0 64 64h704z m-512-448h-192v-320h192v64h-128v64h128v64h-128v64h128v64z m256 0h-192v-64h64v-256h64v256h64v64z m128 0h-64v-320h192v64h-128v256z m-256 192h-320v-128h320v128z m192 0h-128v-128h128v128z m192 0h-128v-128h128v128z m-384 192h-320v-128h320v128z m64 0v-128h128v128h-128z m192-128h128v128h-128v-128zM256 768h64v-384H256z"  horiz-adv-x="1024" />

    
    <glyph glyph-name="zizhushujuji-chuli_yifenxiang" unicode="&#59436;" d="M746.688 256L960 77.568l-213.312-178.432v124.16c-74.304 0-137.6-45.376-160.96-108.608A156.032 156.032 0 0 0 576-31.04c0 89.984 76.416 162.944 170.688 162.944V256z m-10.56 576L928 639.872l0.064-408.064a254.912 254.912 0 0 1-192 54.208L736 512h-64v-242.56A256.832 256.832 0 0 1 530.56 128H160v-128h353.984c2.816-22.4 8.448-43.84 16.64-64H128a32 32 0 0 0-32 32v832A32 32 0 0 0 128 832h608.128zM352 512h-192v-320h192v64h-128V320h128V384h-128V448h128V512z m256 0h-192v-64h64v-256h64V448h64V512z m101.568 256H160v-192h704v37.376L709.568 768z"  horiz-adv-x="1024" />

    
    <glyph glyph-name="zizhushujuji-chuli" unicode="&#59437;" d="M736.128 832L928 639.872V-32a32 32 0 0 0-32-32H128a32 32 0 0 0-32 32v832A32 32 0 0 0 128 832h608.128zM864 128h-704v-128h704v128z m-128 384h-64v-320h192v64h-128V512z m-384 0h-192v-320h192v64h-128V320h128V384h-128V448h128V512z m256 0h-192v-64h64v-256h64V448h64V512z m101.568 256H160v-192h704v37.376L709.568 768z"  horiz-adv-x="1024" />

    
    <glyph glyph-name="shuzhixiala" unicode="&#59384;" d="M298.666667 682.666667l213.333333-331.861334V597.333333h-64V682.666667h170.666667v-85.333334H554.666667v-512h-42.666667L213.333333 549.930667V170.666667h64v-85.333334h-170.666666v85.333334H170.666667V597.333333H106.666667V682.666667H298.666667z m597.333333-533.333334v-42.666666h-256v42.666666h256z m0 128v-42.666666h-256v42.666666h256z m0 128v-42.666666h-256v42.666666h256z m-21.888 256a21.333333 21.333333 0 0 0 18.090667-32.682666l-84.778667-135.168a21.333333 21.333333 0 0 0-36.181333 0L686.506667 628.650667a21.333333 21.333333 0 0 0 18.090666 32.682666h169.557334z"  horiz-adv-x="1024" />

    
    <glyph glyph-name="bingtu_0" unicode="&#59386;" d="M512 832a448 448 0 1 0 0-896A448 448 0 0 0 512 832z m0-74.688a373.312 373.312 0 1 1 0-746.624A373.312 373.312 0 0 1 512 757.312z"  horiz-adv-x="1024" />

    
    <glyph glyph-name="gou1" unicode="&#59387;" d="M969.088 600.256l-565.696-565.76L64 374.016l135.744 135.744 203.648-203.648L833.344 736z"  horiz-adv-x="1024" />

    
    <glyph glyph-name="cha" unicode="&#59388;" d="M896.64 632.96L647.744 384l248.96-248.96-135.808-135.68L512 248.256l-248.96-248.96-135.68 135.808L376.256 384l-248.96 248.96 135.808 135.68L512 519.744l248.96 248.96z"  horiz-adv-x="1024" />

    
    <glyph glyph-name="kongxin_sanjiao" unicode="&#59389;" d="M512 832l448-832H64L512 832z m0-269.888L278.208 128h467.52L512 562.112z"  horiz-adv-x="1024" />

    
    <glyph glyph-name="gantanhao" unicode="&#59390;" d="M608 96v-128h-192v128h192z m0 704v-640h-192v640h192z"  horiz-adv-x="1024" />

    
    <glyph glyph-name="shixin_yuan" unicode="&#59391;" d="M960 384A448 448 0 1 0 64 384a448 448 0 0 0 896 0"  horiz-adv-x="1024" />

    
    <glyph glyph-name="bingtu_90" unicode="&#59392;" d="M512 832a448 448 0 1 0 0-896A448 448 0 0 0 512 832z m0-74.688a373.312 373.312 0 1 1 0-746.624A373.312 373.312 0 0 1 512 757.312zM512 704a320 320 0 0 0 320-320H512V704z"  horiz-adv-x="1024" />

    
    <glyph glyph-name="bingtu_360" unicode="&#59393;" d="M512 832a448 448 0 1 0 0-896A448 448 0 0 0 512 832z"  horiz-adv-x="1024" />

    
    <glyph glyph-name="sigongge_2" unicode="&#59394;" d="M928 800v-832h-832v832h832z m-448-448h-320v-320h320v320z m384 0h-320v-320h320v320zM448 320v-256H192V320h256z m384 0v-256H576V320h256zM480 736h-320v-320h320v320z m384 0h-320v-320h320v320z"  horiz-adv-x="1024" />

    
    <glyph glyph-name="kongxin_yuan" unicode="&#59395;" d="M512 800a416 416 0 1 0 0-832 416 416 0 0 0 0 832z m0-128a288 288 0 1 1 0-576 288 288 0 0 1 0 576z"  horiz-adv-x="1024" />

    
    <glyph glyph-name="sigongge_1" unicode="&#59396;" d="M928 800v-832h-832v832h832z m-448-448h-320v-320h320v320z m384 0h-320v-320h320v320zM448 320v-256H192V320h256z m32 416h-320v-320h320v320z m384 0h-320v-320h320v320z"  horiz-adv-x="1024" />

    
    <glyph glyph-name="shixin_sanjiao" unicode="&#59397;" d="M512 832l448-832H64z"  horiz-adv-x="1024" />

    
    <glyph glyph-name="bingtu_180" unicode="&#59398;" d="M512 832a448 448 0 1 0 0-896A448 448 0 0 0 512 832z m0-74.688a373.312 373.312 0 1 1 0-746.624A373.312 373.312 0 0 1 512 757.312zM512 704a320 320 0 1 0 0-640V704z"  horiz-adv-x="1024" />

    
    <glyph glyph-name="huangguan" unicode="&#59399;" d="M512.0608 832a96 96 0 0 0 14.08-190.976L672.0608 320l237.312 88.96a64 64 0 1 0 12.288-12.16L768.0608-64H256.0608L102.4608 396.8a64 64 0 1 0 12.288 12.16L352.0608 320l145.984 321.024A96 96 0 0 0 512.0608 832z"  horiz-adv-x="1024" />

    
    <glyph glyph-name="xingxing_100" unicode="&#59400;" d="M664.832 547.84L512 857.6 359.104 547.84l-341.952-49.792 247.424-241.088-58.432-340.608L512 77.184l305.856-160.832-58.496 340.608 247.488 241.088z"  horiz-adv-x="1024" />

    
    <glyph glyph-name="xiaolian_mian" unicode="&#59401;" d="M512 832a448 448 0 1 0 0-896A448 448 0 0 0 512 832zM352 320h-64l0.32-12.288A224 224 0 0 1 736 320h-64l-0.32-10.496A160 160 0 0 0 352 320zM320 576a64 64 0 1 1 0-128 64 64 0 0 1 0 128z m384 0a64 64 0 1 1 0-128 64 64 0 0 1 0 128z"  horiz-adv-x="1024" />

    
    <glyph glyph-name="sigongge_0" unicode="&#59402;" d="M928 800v-832h-832v832h832z m-448-448h-320v-320h320v320z m384 0h-320v-320h320v320z m-384 384h-320v-320h320v320z m384 0h-320v-320h320v320z"  horiz-adv-x="1024" />

    
    <glyph glyph-name="sigongge_4" unicode="&#59403;" d="M928 800v-832h-832v832h832z m-448-448h-320v-320h320v320z m384 0h-320v-320h320v320zM448 320v-256H192V320h256z m384 0v-256H576V320h256zM480 736h-320v-320h320v320z m384 0h-320v-320h320v320zM448 704v-256H192V704h256z m384 0v-256H576V704h256z"  horiz-adv-x="1024" />

    
    <glyph glyph-name="jiantou_xia" unicode="&#59404;" d="M511.872-49.152l429.888 429.952-135.744 135.744-198.08-198.08L608 812.8h-192l-0.064-494.592-198.272 198.4L81.92 380.8l429.952-429.952z"  horiz-adv-x="1024" />

    
    <glyph glyph-name="jiantou_shang" unicode="&#59405;" d="M511.872 812.8l429.888-429.952-135.744-135.68-198.08 198.016 0.064-494.336h-192L415.936 445.44l-198.272-198.336L81.92 382.848 511.872 812.8z"  horiz-adv-x="1024" />

    
    <glyph glyph-name="jiantou_youxia" unicode="&#59406;" d="M856.64 26.752h-608v192h280.128L179.2 568.192 314.944 704l349.76-349.632V634.752h192z"  horiz-adv-x="1024" />

    
    <glyph glyph-name="yuancha" unicode="&#59407;" d="M512 832a448 448 0 1 0 0-896A448 448 0 0 0 512 832z m158.336-199.04L511.936 474.624 353.536 632.96 263.04 542.464 421.376 384 263.04 225.664l90.496-90.496L512 293.568l158.4-158.4 90.496 90.496-158.336 158.4 158.336 158.4-90.496 90.496z"  horiz-adv-x="1024" />

    
    <glyph glyph-name="yuangantanhao" unicode="&#59408;" d="M512 832a448 448 0 1 0 0-896A448 448 0 0 0 512 832z m64-608H448v-128h128v128z m0 448H448v-384h128v384z"  horiz-adv-x="1024" />

    
    <glyph glyph-name="xiaolian_xian" unicode="&#59409;" d="M512 832a448 448 0 1 0 0-896A448 448 0 0 0 512 832z m0-64a384 384 0 1 1 0-768A384 384 0 0 1 512 768zM352 320a160 160 0 0 1 319.68-10.496L672 320h64a224 224 0 0 0-447.68-12.288L288 320h64zM320 576a64 64 0 1 0 0-128 64 64 0 0 0 0 128z m384 0a64 64 0 1 0 0-128 64 64 0 0 0 0 128z"  horiz-adv-x="1024" />

    
    <glyph glyph-name="zhuxingtu_0" unicode="&#59410;" d="M928 832v-896h-832v320h192V448h192V640h192V832h256z m-640-640h-128v-192h128v192z m192 192h-128v-384h128V384z m192 192h-128v-576h128V576z m192 192h-128v-768h128V768z"  horiz-adv-x="1024" />

    
    <glyph glyph-name="jiantou_you" unicode="&#59411;" d="M942.784 381.824L512.896-48 377.088 87.68l198.08 198.08-494.272-0.064v192H575.36L377.088 676.032l135.808 135.808 429.888-429.952z"  horiz-adv-x="1024" />

    
    <glyph glyph-name="bingtu_270" unicode="&#59412;" d="M512 832a448 448 0 1 0 0-896A448 448 0 0 0 512 832z m0-74.688a373.312 373.312 0 1 1 0-746.624A373.312 373.312 0 0 1 512 757.312zM512 704a320 320 0 1 0-320-320h320V704z"  horiz-adv-x="1024" />

    
    <glyph glyph-name="sigongge_3" unicode="&#59413;" d="M928 800v-832h-832v832h832z m-448-448h-320v-320h320v320z m384 0h-320v-320h320v320zM448 320v-256H192V320h256z m384 0v-256H576V320h256zM480 736h-320v-320h320v320z m384 0h-320v-320h320v320zM448 704v-256H192V704h256z"  horiz-adv-x="1024" />

    
    <glyph glyph-name="bujige" unicode="&#59414;" d="M644.16-68.8c109.696 27.136 129.344 127.68 76.928 284.736l-5.312 15.36-4.352 11.904h166.592a112 112 0 0 1 110.464 93.312l1.152 9.472 0.384 9.216c0 6.08-0.512 12.16-1.472 18.24l-1.856 8.96-96 384A112 112 0 0 1 791.552 850.752L782.08 851.2H192a112 112 0 0 1-111.616-102.784l-0.384-9.216v-384a112 112 0 0 1 102.784-111.616L192 243.2l131.328 0.128c26.56 1.856 49.152-16.192 70.912-65.728l6.528-15.552 7.168-19.072 17.408-48.64c50.56-136.704 102.912-191.808 218.88-163.136zM256 339.2H192a16 16 0 0 0-15.552 12.352L176 355.2v384a16 16 0 0 0 12.352 15.552L192 755.2h64a16 16 0 0 0 15.552-12.352l0.448-3.648v-384a16 16 0 0 0-12.352-15.552L256 339.2z m259.008-210.56l-20.544 57.216-6.208 16-6.144 14.464c-28.096 63.808-67.712 104.96-116.032 118.4l1.408 10.112 0.512 10.368v384c0 5.44-0.384 10.752-1.152 16h415.168a16 16 0 0 0 13.952-8.128l1.6-3.968 96-384a16 16 0 0 0-11.84-19.456l-3.712-0.448H640a48 48 0 0 1-43.84-67.52c72.448-163.008 70.72-235.968 24.96-247.296-49.92-12.288-71.68 9.984-106.112 104.32z"  horiz-adv-x="1024" />

    
    <glyph glyph-name="zhuxingtu_4" unicode="&#59415;" d="M928 832v-896h-832v320h192V448h192V640h192V832z"  horiz-adv-x="1024" />

    
    <glyph glyph-name="qizhi" unicode="&#59416;" d="M384 384H224v-448H128V832h448v-192h320l-128-224 128-224H384V384z m96 352h-256v-256h256v256z m0-448h250.56l-73.152 128 73.088 128H576V384L480 288z"  horiz-adv-x="1024" />

    
    <glyph glyph-name="zhuxingtu_2" unicode="&#59417;" d="M928 832v-896h-832v320h192V448h192V640h192V832h256z m-256-256h-128v-576h128V576z m192 192h-128v-768h128V768z"  horiz-adv-x="1024" />

    
    <glyph glyph-name="shang" unicode="&#59418;" d="M512 704l448-640H64z"  horiz-adv-x="1024" />

    
    <glyph glyph-name="yiban_xian" unicode="&#59419;" d="M512 832a448 448 0 1 0 0-896A448 448 0 0 0 512 832z m0-64a384 384 0 1 1 0-768A384 384 0 0 1 512 768z m192-512v-64H320v64h384zM320 576a64 64 0 1 0 0-128 64 64 0 0 0 0 128z m384 0a64 64 0 1 0 0-128 64 64 0 0 0 0 128z"  horiz-adv-x="1024" />

    
    <glyph glyph-name="kulian_mian" unicode="&#59420;" d="M512 832a448 448 0 1 0 0-896A448 448 0 0 0 512 832z m0-448a224 224 0 0 1-223.68-211.712L288 160h64a160 160 0 0 0 319.68 10.496l0.32-10.496h64A224 224 0 0 1 512 384zM320 576a64 64 0 1 1 0-128 64 64 0 0 1 0 128z m384 0a64 64 0 1 1 0-128 64 64 0 0 1 0 128z"  horiz-adv-x="1024" />

    
    <glyph glyph-name="xingxing_0" unicode="&#59421;" d="M512 857.6l152.832-309.76 342.016-49.792-247.488-241.088 58.496-340.608L512 77.184l-305.856-160.832 58.432 340.608L17.152 498.048l341.952 49.728L512 857.6z m0-144.64L401.6 489.28l-246.912-35.84 178.688-174.208-42.24-245.76L512 149.376l220.8-116.032-42.176 245.824 178.624 174.208-246.848 35.84L512 712.96z"  horiz-adv-x="1024" />

    
    <glyph glyph-name="waifangneiyuan" unicode="&#59422;" d="M960 832v-896H64V832h896z m-64-64H128v-768h768V768zM512 704a320 320 0 1 0 0-640A320 320 0 0 0 512 704z"  horiz-adv-x="1024" />

    
    <glyph glyph-name="yuangou" unicode="&#59423;" d="M512 832a448 448 0 1 0 0-896A448 448 0 0 0 512 832z m258.304-235.008l-316.8-316.8L317.696 416 227.2 325.504l226.304-226.304 407.296 407.296-90.496 90.496z"  horiz-adv-x="1024" />

    
    <glyph glyph-name="zhuxingtu_1" unicode="&#59424;" d="M928 832v-896h-832v320h192V448h192V640h192V832h256z m-448-448h-128v-384h128V384z m192 192h-128v-576h128V576z m192 192h-128v-768h128V768z"  horiz-adv-x="1024" />

    
    <glyph glyph-name="zhong" unicode="&#59425;" d="M64 512h896v-256H64z"  horiz-adv-x="1024" />

    
    <glyph glyph-name="xingxing_50" unicode="&#59426;" d="M512 857.6l17.152-34.88 135.68-274.944 342.016-49.728-247.488-241.088 58.496-340.608L512 77.184l-305.856-160.832 58.432 340.608L17.152 498.048l341.952 49.728L512 857.6z m17.152-179.456v-537.664l203.648-107.072-42.176 245.824 178.624 174.208-246.848 35.84-93.248 188.864z"  horiz-adv-x="1024" />

    
    <glyph glyph-name="shixin_lingxing" unicode="&#59427;" d="M512 836.544L964.544 384 512-68.544 59.456 384z"  horiz-adv-x="1024" />

    
    <glyph glyph-name="yiban_mian" unicode="&#59428;" d="M512 832a448 448 0 1 0 0-896A448 448 0 0 0 512 832z m192-576H320v-64h384v64zM320 576a64 64 0 1 1 0-128 64 64 0 0 1 0 128z m384 0a64 64 0 1 1 0-128 64 64 0 0 1 0 128z"  horiz-adv-x="1024" />

    
    <glyph glyph-name="kulian_xian" unicode="&#59429;" d="M512 832a448 448 0 1 0 0-896A448 448 0 0 0 512 832z m0-64a384 384 0 1 1 0-768A384 384 0 0 1 512 768z m0-384a224 224 0 0 0 224-224h-64l-0.32 10.496A160 160 0 0 1 352 160h-64l0.32 12.288A224 224 0 0 0 512 384zM320 576a64 64 0 1 0 0-128 64 64 0 0 0 0 128z m384 0a64 64 0 1 0 0-128 64 64 0 0 0 0 128z"  horiz-adv-x="1024" />

    
    <glyph glyph-name="jige" unicode="&#59430;" d="M512 816c67.2 0 132.16-15.36 191.04-44.416l17.472-9.152-46.4-84.032a336 336 0 1 1 173.632-308.224L848 384h96A432 432 0 1 0 512 816z m390.848-80l90.496-90.496-497.792-497.792L224 419.2l90.496 90.496 181.056-180.992L902.848 736z"  horiz-adv-x="1024" />

    
    <glyph glyph-name="xia" unicode="&#59431;" d="M512 64l448 640H64z"  horiz-adv-x="1024" />

    
    <glyph glyph-name="kongxin_lingxing" unicode="&#59432;" d="M964.544 384L512-68.544 59.456 384 512 836.544 964.544 384z m-180.992 0L512 655.552 240.448 384 512 112.448 783.552 384z"  horiz-adv-x="1024" />

    
    <glyph glyph-name="youxiu" unicode="&#59433;" d="M644.16 843.84c109.696-27.136 129.344-127.68 76.928-284.736l-5.312-15.36-4.352-11.904h166.592c55.488 0 101.568-40.32 110.464-93.312l1.152-9.472 0.384-9.216c0-6.08-0.512-12.16-1.472-18.176l-1.856-8.96-96-384a112 112 0 0 0-99.136-84.48l-9.536-0.384H192a112 112 0 0 0-111.616 102.848l-0.384 9.152v384a112 112 0 0 0 102.784 111.616L192 531.84l131.328-0.128c26.56-1.856 49.152 16.192 70.912 65.728l6.528 15.552 7.168 19.072 17.408 48.64c50.56 136.704 102.912 191.808 218.88 163.136zM256 435.84H192a16 16 0 0 1-15.552-12.352l-0.448-3.648v-384a16 16 0 0 1 12.352-15.552L192 19.84h64a16 16 0 0 1 15.552 12.352l0.448 3.648v384a16 16 0 0 1-12.352 15.616L256 435.84zM515.008 646.4l-20.544-57.216-6.208-16-6.144-14.464c-28.096-63.744-67.712-104.96-116.032-118.4l1.408-10.048 0.512-10.432v-384c0-5.44-0.384-10.752-1.152-16h415.168a16 16 0 0 1 13.952 8.128l1.6 3.968 96 384a16 16 0 0 1-11.84 19.52l-3.712 0.384H640a48 48 0 0 0-43.84 67.52c72.448 163.008 70.72 235.968 24.96 247.296-49.92 12.352-71.68-9.984-106.112-104.32z"  horiz-adv-x="1024" />

    
    <glyph glyph-name="zhuxingtu_3" unicode="&#59434;" d="M928 832v-896h-832v320h192V448h192V640h192V832h256z m-64-64h-128v-768h128V768z"  horiz-adv-x="1024" />

    
    <glyph glyph-name="jiantou_youshang" unicode="&#59385;" d="M856.576 704.128v-608h-192V376.192l-349.44-349.568-135.808 135.808 349.632 349.76-280.384-0.064v192z"  horiz-adv-x="1024" />

    
    <glyph glyph-name="ziduanleixingzhuanhuan" unicode="&#59383;" d="M960 480a32 32 0 0 0 31.488-26.24L992 448v-384a32 32 0 0 0-26.24-31.488L960 32H141.248l73.408-73.344a32 32 0 0 0 3.648-40.832l-3.648-4.48a32 32 0 0 0-40.832-3.648l-4.48 3.648-128 128a32 32 0 0 0 17.152 54.208L64 96h864V448a32 32 0 0 0 26.24 31.488L960 480z m-320 123.776v-137.024h153.472c51.84 0 92.8-42.56 92.8-93.888v-123.52c0-51.264-40.96-93.824-92.8-93.824H668.8c-51.84 0-92.8 42.56-92.8 93.888V603.776h64z m-263.872-4.928c28.672-9.6 51.2-32.064 60.672-60.8l127.488-382.336H496.96l-42.688 128.064h-216.96l-42.56-127.872H127.296l127.36 382.208a96 96 0 0 0 121.472 60.736z m417.344-196.16H668.8a29.376 29.376 0 0 1-28.8-29.824v-123.52c0-16.448 12.864-29.824 28.8-29.824h124.672c15.936 0 28.8 13.44 28.8 29.888V372.864a29.376 29.376 0 0 1-28.8 29.824z m51.84 458.432l4.864-2.816 4.48-3.648 128-128a32 32 0 0 0-17.152-54.208L960 672H96V320a32 32 0 0 0-26.24-31.488L64 288a32 32 0 0 0-31.488 26.24L32 320V704a32 32 0 0 0 26.24 31.488L64 736h818.752l-73.408 73.344a32 32 0 0 0-3.648 40.832l3.648 4.48a32 32 0 0 0 35.968 6.4z m-529.92-343.232l-56.704-170.112h174.208l-56.768 170.112a32 32 0 0 1-60.736 0z"  horiz-adv-x="1024" />

    
    <glyph glyph-name="wodezizhushujuji-shouqi" unicode="&#59381;" d="M896 79.36a32 32 0 1 0 0-64H128a32 32 0 1 0 0 64h768z m0 225.28a32 32 0 1 0 0-64H128a32 32 0 1 0 0 64h768zM160 805.76a32 32 0 0 0 17.152-5.056l260.48-165.76a32 32 0 0 0 0-53.952L177.088 415.36A32 32 0 0 0 128 442.304V773.696a32 32 0 0 0 32 32zM896 529.92a32 32 0 1 0 0-64H608a32 32 0 0 0 0 64H896z m0 225.28a32 32 0 1 0 0-64H608a32 32 0 0 0 0 64H896z"  horiz-adv-x="1024" />

    
    <glyph glyph-name="wodezizhushujuji-zhankai" unicode="&#59382;" d="M896 79.36a32 32 0 1 0 0-64H128a32 32 0 1 0 0 64h768z m0 225.28a32 32 0 1 0 0-64H128a32 32 0 1 0 0 64h768zM450.56 755.2a32 32 0 0 0 26.24-50.368L314.24 472.64a32 32 0 0 0-52.48 0L99.2 704.832a32 32 0 0 0 26.24 50.368h325.12zM896 529.92a32 32 0 1 0 0-64H608a32 32 0 0 0 0 64H896z m0 225.28a32 32 0 1 0 0-64H608a32 32 0 0 0 0 64H896z"  horiz-adv-x="1024" />

    
    <glyph glyph-name="shujutiao" unicode="&#59380;" d="M896 832a64 64 0 0 0 64-64v-768a64 64 0 0 0-64-64H128a64 64 0 0 0-64 64V768a64 64 0 0 0 64 64h768z m0-64H128v-768h768V768z m-192-576v-64H512v64h192z m128 128v-64H512V320h320z m-64 128v-64H512V448h256zM512 512v-64H192V512h320z m0 128v-64H320V640h192z"  horiz-adv-x="1024" />

    
    <glyph glyph-name="guanlixitong_ziyuanjiaojie" unicode="&#59379;" d="M416 320a32 32 0 0 0 32-32v-320a32 32 0 0 0-32-32h-320a32 32 0 0 0-32 32v320a32 32 0 0 0 32 32zM960 384a448 448 0 0 0-432.64-447.744L512-64v64a384 384 0 0 1 383.744 369.6L896 384h64z m-576-128H128v-256h256v256z m128 576v-64a384 384 0 0 1-383.744-369.6L128 384H64a448 448 0 0 0 448 448z m416 0a32 32 0 0 0 32-32v-320a32 32 0 0 0-32-32h-320a32 32 0 0 0-32 32v320a32 32 0 0 0 32 32zM896 768h-256v-256h256V768z"  horiz-adv-x="1024" />

    
    <glyph glyph-name="jiantou" unicode="&#59378;" d="M551.68 796.288l5.568-4.992 362.048-362.048a64 64 0 0 0 4.992-84.928l-4.992-5.568-362.048-362.048a64 64 0 0 0-95.488 84.928l4.992 5.568L719.552 320H132.48a64 64 0 0 0-7.424 127.552L132.48 448h587.008l-252.8 252.8a64 64 0 0 0-4.928 84.928l4.992 5.568a64 64 0 0 0 84.928 4.992z"  horiz-adv-x="1024" />

    
    <glyph glyph-name="shuzhijisuanzhibiaoziduan" unicode="&#59366;" d="M755.2 320l-10.688-64h140.8L896 320h51.2l-10.688-64h55.488v-51.2h-64l-23.488-140.8H960v-51.2h-64l-12.8-76.8H832l12.8 76.8H704l-12.8-76.8H640l12.8 76.8H576V64h85.312l23.488 140.8H608V256h85.312L704 320h51.2z m121.6-115.2h-140.8l-23.488-140.8h140.8l23.488 140.8zM420.032 829.504l8.512-0.896c15.552-1.664 49.792-4.8 46.208-39.04-2.752-27.2-42.56-24.384-53.184-24.384-62.272 0-129.728 31.168-168.064-90.944l-3.84-13.184-17.408-86.4h88.64a29.44 29.44 0 0 0 5.312-58.432l-5.312-0.448H219.648l-79.616-391.232s-7.68-62.848-46.272-60.48c-41.6 2.56-26.24 58.496-24.256 65.088l0.192 0.64 79.04 385.92H28.864A29.12 29.12 0 0 0 0 542.72c1.088 25.088 11.392 30.976 24.832 31.872l4.096 0.128h132.544l18.496 88.128c13.056 62.336 40.128 114.56 87.168 145.152 43.648 28.288 113.536 25.472 152.896 21.504z m148.48-402.048a32 32 0 0 0 3.904-45.12l-106.176-126.464 53.76-64.064a254.528 254.528 0 0 1-6.4-35.2l-0.768-7.744A258.496 258.496 0 0 1 512 128l0.256-11.392 0.128-2.816 0.128-2.176c0.192-3.2 0.448-6.528 0.768-9.728l0.256-2.048-89.024 106.24-98.944-117.888a32 32 0 0 0-49.024 41.152l106.176 126.528-106.176 126.464a32 32 0 0 0 49.024 41.152l98.944-117.888 98.88 117.888a32 32 0 0 0 45.12 3.968z m129.536 294.4a23.04 23.04 0 0 0 13.44-5.12 16 16 0 0 0 6.528-9.792l0.448-4.288-3.2-45.44 39.68 15.424a32.896 32.896 0 0 0 17.664 1.856 21.44 21.44 0 0 0 15.616-8.32c3.456-5.12 4.16-10.752 2.24-16.96a18.304 18.304 0 0 0-6.656-10.112l-3.2-1.664-50.56-13.44 33.216-42.944a14.528 14.528 0 0 0 1.92-8 34.88 34.88 0 0 0-6.08-19.2 17.28 17.28 0 0 0-7.296-6.08 24.064 24.064 0 0 0-18.24 3.2 30.848 30.848 0 0 0-8.32 7.424l-2.304 4.096v-0.64l-25.6 42.88-34.56-49.216c-0.832-2.176-2.752-3.776-5.76-4.864a24 24 0 0 0-7.04-1.6 41.536 41.536 0 0 0-10.496 1.28 10.752 10.752 0 0 0-5.44 3.456l-1.92 2.944v-0.64a26.816 26.816 0 0 0-2.56 24.96l2.56 5.12 29.44 37.12h-0.64l-0.64 0.192-0.704 0.512h-2.56a172.544 172.544 0 0 0-16.64 4.416 1833.92 1833.92 0 0 1-21.12 6.464c-4.672 1.664-7.808 6.336-9.216 14.016a29.44 29.44 0 0 0 1.536 19.2 16.256 16.256 0 0 0 12.16 6.4 21.888 21.888 0 0 0 9.984-1.408l4.736-2.432h-0.64l19.84-7.04c4.48-1.92 8.96-3.584 13.44-4.8l6.4-1.6v10.88a15.872 15.872 0 0 1-0.256 2.88l-0.256 1.536-0.064 1.344v28.8c0 6.016 1.92 10.688 6.016 14.08a22.528 22.528 0 0 0 15.104 5.12z"  horiz-adv-x="1024" />

    
    <glyph glyph-name="shuzhijisuanzhibiaoziduanfuzhi" unicode="&#59367;" d="M819.2 320l-10.688-64h108.8l10.688 64h51.2l-10.688-64H1024v-51.2h-64l-23.488-140.8h55.488v-51.2h-64l-12.8-76.8h-51.2l12.8 76.8H768l-12.8-76.8H704l12.736 76.8H640V64l85.312 0.064 23.488 140.736h-76.8V256h85.312L768 320h51.2z m89.6-115.2h-108.8l-23.488-140.736 108.8-0.064 23.488 140.8zM548.032 893.504l8.512-0.896c15.552-1.664 49.792-4.8 46.208-39.04-2.752-27.2-42.56-24.384-53.184-24.384-62.272 0-129.728 31.168-168.064-90.944l-3.84-13.184-17.408-86.4h88.64a29.44 29.44 0 0 0 5.312-58.432l-5.312-0.448H347.648l-79.616-391.232s-7.68-62.848-46.272-60.48c-41.6 2.56-26.24 58.496-24.256 65.088l0.192 0.64 79.04 385.92H156.864A29.12 29.12 0 0 0 128 606.72c1.088 25.088 11.392 30.976 24.832 31.872l4.096 0.128h132.544l18.496 88.128c13.056 62.336 40.128 114.56 87.168 145.152 43.648 28.288 113.536 25.472 152.896 21.504z m148.48-402.048a32 32 0 0 0 3.904-45.12L594.24 319.872l22.4-26.688c-16-14.72-29.888-31.744-41.088-50.56l-23.04 27.456-98.944-117.888a32 32 0 0 0-49.024 41.152L510.72 319.872 404.544 446.336a32 32 0 1 0 49.024 41.152l98.944-117.888 98.88 117.888a32 32 0 0 0 45.12 3.968zM192 384v-64H0V384h192z m0 128v-64H0V512h192z m664.896 256a23.04 23.04 0 0 0 13.44-5.12 16.384 16.384 0 0 0 6.912-14.08l-3.2-45.44 39.68 15.424a32.896 32.896 0 0 0 17.728 1.856 21.44 21.44 0 0 0 15.552-8.32c3.456-5.12 4.224-10.752 2.24-16.96-1.856-6.144-5.12-10.112-9.856-11.776l-50.56-13.44 33.28-42.944a14.528 14.528 0 0 0 1.92-8c0-3.2-0.512-6.528-1.664-9.856a34.88 34.88 0 0 0-4.416-9.344 17.28 17.28 0 0 0-7.296-6.08 24.064 24.064 0 0 0-18.24 3.2 25.6 25.6 0 0 0-10.688 11.52v-0.64l-25.6 42.88-34.56-49.216c-0.768-2.176-2.752-3.776-5.76-4.864a24 24 0 0 0-6.912-1.6 41.536 41.536 0 0 0-10.56 1.28 11.328 11.328 0 0 0-7.424 6.4v-0.64a27.328 27.328 0 0 0 0 30.08l29.44 37.12h-0.64c-0.384 0-0.896 0.256-1.28 0.704h-2.56a172.544 172.544 0 0 0-16.64 4.416 1833.92 1833.92 0 0 1-21.12 6.464c-4.672 1.664-7.808 6.336-9.216 14.016a29.44 29.44 0 0 0 1.536 19.2 16.256 16.256 0 0 0 12.16 6.4 22.784 22.784 0 0 0 14.72-3.84h-0.64l19.84-7.04c6.848-2.944 13.44-5.12 19.84-6.4v10.88a15.872 15.872 0 0 1-0.32 2.88 12.032 12.032 0 0 0-0.32 2.88V748.8c0 6.016 1.984 10.688 6.08 14.08a22.528 22.528 0 0 0 15.104 5.12z"  horiz-adv-x="1024" />

    
    <glyph glyph-name="wenbenjisuanzhibiaoziduan_feijuhefuzhi" unicode="&#59368;" d="M1024 256v-51.2h-140.8V-128H832v332.8h-128V256h320zM548.032 893.504l8.512-0.896c15.552-1.664 49.792-4.8 46.208-39.04-2.752-27.2-42.56-24.384-53.184-24.384-62.272 0-129.728 31.168-168.064-90.944l-3.84-13.184-17.408-86.4h88.64a29.44 29.44 0 0 0 5.312-58.432l-5.312-0.448H347.648l-79.616-391.232s-7.68-62.848-46.272-60.48c-41.6 2.56-26.24 58.496-24.256 65.088l0.192 0.64 79.04 385.92H156.864A29.12 29.12 0 0 0 128 606.72c1.088 25.088 11.392 30.976 24.832 31.872l4.096 0.128h132.544l18.496 88.128c13.056 62.336 40.128 114.56 87.168 145.152 43.648 28.288 113.536 25.472 152.896 21.504z m148.48-402.048a32 32 0 0 0 3.904-45.12L594.24 319.872l22.4-26.688c-16-14.72-29.888-31.744-41.088-50.56l-23.04 27.456-98.944-117.888a32 32 0 0 0-49.024 41.152L510.72 319.872 404.544 446.336a32 32 0 1 0 49.024 41.152l98.944-117.888 98.88 117.888a32 32 0 0 0 45.12 3.968zM192 384v-64H0V384h192z m0 128v-64H0V512h192z"  horiz-adv-x="1024" />

    
    <glyph glyph-name="wenbenjisuanzhibiaoziduan" unicode="&#59369;" d="M1024 320v-51.2h-140.8V-64H832V268.8h-128V320h320zM484.032 829.504l8.512-0.896c15.552-1.664 49.792-4.8 46.208-39.04-2.752-27.2-42.56-24.384-53.184-24.384-62.272 0-129.728 31.168-168.064-90.944l-3.84-13.184-17.408-86.4h88.64a29.44 29.44 0 0 0 5.312-58.432l-5.312-0.448H283.648l-79.616-391.232s-7.68-62.848-46.272-60.48c-41.6 2.56-26.24 58.496-24.256 65.088l0.192 0.64 79.04 385.92H92.864A29.12 29.12 0 0 0 64 542.72c1.088 25.088 11.392 30.976 24.832 31.872l4.096 0.128h132.544l18.496 88.128c13.056 62.336 40.128 114.56 87.168 145.152 43.648 28.288 113.536 25.472 152.896 21.504z m148.48-402.048a32 32 0 0 0 3.904-45.12l-106.176-126.464 53.76-64.064a254.528 254.528 0 0 1-6.4-35.2l-0.768-7.744A258.496 258.496 0 0 1 576 128l0.256-11.392 0.128-2.816 0.128-2.176c0.192-3.2 0.448-6.528 0.768-9.728l0.256-2.048-89.024 106.24-98.944-117.888a32 32 0 0 0-49.024 41.152l106.176 126.528-106.176 126.464a32 32 0 1 0 49.024 41.152l98.944-117.888 98.88 117.888a32 32 0 0 0 45.12 3.968z m129.536 294.4a23.04 23.04 0 0 0 13.44-5.12 16 16 0 0 0 6.528-9.792l0.448-4.288-3.2-45.44 39.68 15.424a32.896 32.896 0 0 0 17.664 1.856 21.44 21.44 0 0 0 15.616-8.32c3.456-5.12 4.16-10.752 2.24-16.96a18.304 18.304 0 0 0-6.656-10.112l-3.2-1.664-50.56-13.44 33.216-42.944a14.528 14.528 0 0 0 1.92-8 34.88 34.88 0 0 0-6.08-19.2 17.28 17.28 0 0 0-7.296-6.08 24.064 24.064 0 0 0-18.24 3.2 30.848 30.848 0 0 0-8.32 7.424l-2.304 4.096v-0.64l-25.6 42.88-34.56-49.216c-0.832-2.176-2.752-3.776-5.76-4.864a24 24 0 0 0-7.04-1.6 41.536 41.536 0 0 0-10.496 1.28 10.752 10.752 0 0 0-5.44 3.456l-1.92 2.944v-0.64a26.816 26.816 0 0 0-2.56 24.96l2.56 5.12 29.44 37.12h-0.64l-0.64 0.192-0.704 0.512h-2.56a172.544 172.544 0 0 0-16.64 4.416 1833.92 1833.92 0 0 1-21.12 6.464c-4.672 1.664-7.808 6.336-9.216 14.016a29.44 29.44 0 0 0 1.536 19.2 16.256 16.256 0 0 0 12.16 6.4 21.888 21.888 0 0 0 9.984-1.408l4.736-2.432h-0.64l19.84-7.04c4.48-1.92 8.96-3.584 13.44-4.8l6.4-1.6v10.88a15.872 15.872 0 0 1-0.256 2.88l-0.256 1.536-0.064 1.344v28.8c0 6.016 1.92 10.688 6.016 14.08a22.528 22.528 0 0 0 15.104 5.12z"  horiz-adv-x="1024" />

    
    <glyph glyph-name="wenbenjisuanzhibiaoziduan_feijuhe" unicode="&#59370;" d="M960 320v-51.2h-140.8V-64H768V268.8h-128V320h320zM420.032 829.504l8.512-0.896c15.552-1.664 49.792-4.8 46.208-38.976-2.752-27.264-42.56-24.448-53.184-24.448-62.272 0-129.728 31.168-168.064-90.944l-3.84-13.184-17.408-86.336h88.64a29.44 29.44 0 0 0 5.312-58.496l-5.312-0.448H219.648l-79.616-391.232s-7.68-62.848-46.272-60.48c-41.6 2.56-26.24 58.496-24.256 65.088l0.192 0.64 79.04 385.984H28.864A29.12 29.12 0 0 0 0 542.72c1.088 25.088 11.392 30.976 24.832 31.872l4.096 0.128h132.544l18.496 88.128c13.056 62.336 40.128 114.624 87.168 145.152 43.648 28.288 113.536 25.536 152.896 21.504z m-63.168-340.8l4.096-4.096L469.056 355.84l108.096 128.768a31.936 31.936 0 0 0 52.288-36.352l-3.264-4.736-115.328-137.472 38.08-45.44a254.528 254.528 0 0 1-28.16-65.984l-51.712 61.696-108.16-128.832a31.808 31.808 0 0 0-44.992-3.904 32 32 0 0 0-7.296 40.32l3.328 4.736 115.328 137.408L311.936 443.52a32 32 0 0 0 44.928 45.184z"  horiz-adv-x="1024" />

    
    <glyph glyph-name="shijianjisuanzhibiaoziduan" unicode="&#59371;" d="M768 345.6a217.6 217.6 0 1 0 0-435.2 217.6 217.6 0 0 0 0 435.2z m0-51.2a166.4 166.4 0 1 1 0-332.8 166.4 166.4 0 0 1 0 332.8zM420.032 829.504l8.512-0.896c15.552-1.664 49.792-4.8 46.208-39.04-2.752-27.2-42.56-24.384-53.184-24.384-62.272 0-129.728 31.168-168.064-90.944l-3.84-13.184-17.408-86.4h88.64a29.44 29.44 0 0 0 5.312-58.432l-5.312-0.448H219.648l-79.616-391.232s-7.68-62.848-46.272-60.48c-41.6 2.56-26.24 58.496-24.256 65.088l0.192 0.64 79.04 385.92H28.864A29.12 29.12 0 0 0 0 542.72c1.088 25.088 11.392 30.976 24.832 31.872l4.096 0.128h132.544l18.496 88.128c13.056 62.336 40.128 114.56 87.168 145.152 43.648 28.288 113.536 25.472 152.896 21.504z m148.48-402.048a32 32 0 0 0 3.904-45.12l-106.176-126.464 29.12-34.752c-8.768-25.728-14.016-53.12-15.104-81.536l-55.744 66.496-98.944-117.888a32 32 0 0 0-49.024 41.152l106.176 126.528-106.176 126.464a32 32 0 1 0 49.024 41.152l98.944-117.888 98.88 117.888a32 32 0 0 0 45.12 3.968zM768 230.4a25.6 25.6 0 0 0 25.088-20.48l0.512-5.12v-72.192h67.84a25.6 25.6 0 0 0 25.024-20.48l0.512-5.12a25.6 25.6 0 0 0-20.48-25.152l-5.12-0.512H768a25.6 25.6 0 0 0-25.088 20.48l-0.512 5.12V204.8c0 14.08 11.52 25.6 25.6 25.6z m-69.952 491.456a23.04 23.04 0 0 0 13.44-5.12 16 16 0 0 0 6.528-9.792l0.448-4.288-3.2-45.44 39.68 15.424a32.896 32.896 0 0 0 17.664 1.856 21.44 21.44 0 0 0 15.616-8.32c3.456-5.12 4.16-10.752 2.24-16.96a18.304 18.304 0 0 0-6.656-10.112l-3.2-1.664-50.56-13.44 33.216-42.944a14.528 14.528 0 0 0 1.92-8 34.88 34.88 0 0 0-6.08-19.2 17.28 17.28 0 0 0-7.296-6.08 24.064 24.064 0 0 0-18.24 3.2 30.848 30.848 0 0 0-8.32 7.424l-2.304 4.096v-0.64l-25.6 42.88-34.56-49.216c-0.832-2.176-2.752-3.776-5.76-4.864a24 24 0 0 0-7.04-1.6 41.536 41.536 0 0 0-10.496 1.28 10.752 10.752 0 0 0-5.44 3.456l-1.92 2.944v-0.64a26.816 26.816 0 0 0-2.56 24.96l2.56 5.12 29.44 37.12h-0.64l-0.64 0.192-0.704 0.512h-2.56a172.544 172.544 0 0 0-16.64 4.416 1833.92 1833.92 0 0 1-21.12 6.464c-4.672 1.664-7.808 6.336-9.216 14.016a29.44 29.44 0 0 0 1.536 19.2 16.256 16.256 0 0 0 12.16 6.4 21.888 21.888 0 0 0 9.984-1.408l4.736-2.432h-0.64l19.84-7.04c4.48-1.92 8.96-3.584 13.44-4.8l6.4-1.6v10.88a15.872 15.872 0 0 1-0.256 2.88l-0.256 1.536-0.064 1.344v28.8c0 6.016 1.92 10.688 6.016 14.08a22.528 22.528 0 0 0 15.104 5.12z"  horiz-adv-x="1024" />

    
    <glyph glyph-name="wenbenjisuanzhibiaoziduanfuzhi" unicode="&#59372;" d="M1024 256v-51.2h-140.8V-128H832v332.8h-128V256h320zM548.032 893.504l8.512-0.896c15.552-1.664 49.792-4.8 46.208-39.04-2.752-27.2-42.56-24.384-53.184-24.384-62.272 0-129.728 31.168-168.064-90.944l-3.84-13.184-17.408-86.4h88.64a29.44 29.44 0 0 0 5.312-58.432l-5.312-0.448H347.648l-79.616-391.232s-7.68-62.848-46.272-60.48c-41.6 2.56-26.24 58.496-24.256 65.088l0.192 0.64 79.04 385.92H156.864A29.12 29.12 0 0 0 128 606.72c1.088 25.088 11.392 30.976 24.832 31.872l4.096 0.128h132.544l18.496 88.128c13.056 62.336 40.128 114.56 87.168 145.152 43.648 28.288 113.536 25.472 152.896 21.504z m148.48-402.048a32 32 0 0 0 3.904-45.12L594.24 319.872l22.4-26.688c-16-14.72-29.888-31.744-41.088-50.56l-23.04 27.456-98.944-117.888a32 32 0 0 0-49.024 41.152L510.72 319.872 404.544 446.336a32 32 0 1 0 49.024 41.152l98.944-117.888 98.88 117.888a32 32 0 0 0 45.12 3.968zM192 384v-64H0V384h192z m0 128v-64H0V512h192z m664.896 256a23.04 23.04 0 0 0 13.44-5.12 16.384 16.384 0 0 0 6.912-14.08l-3.2-45.44 39.68 15.424a32.896 32.896 0 0 0 17.728 1.856 21.44 21.44 0 0 0 15.552-8.32c3.456-5.12 4.224-10.752 2.24-16.96-1.856-6.144-5.12-10.112-9.856-11.776l-50.56-13.44 33.28-42.944a14.528 14.528 0 0 0 1.92-8c0-3.2-0.512-6.528-1.664-9.856a34.88 34.88 0 0 0-4.416-9.344 17.28 17.28 0 0 0-7.296-6.08 24.064 24.064 0 0 0-18.24 3.2 25.6 25.6 0 0 0-10.688 11.52v-0.64l-25.6 42.88-34.56-49.216c-0.768-2.176-2.752-3.776-5.76-4.864a24 24 0 0 0-6.912-1.6 41.536 41.536 0 0 0-10.56 1.28 11.328 11.328 0 0 0-7.424 6.4v-0.64a27.328 27.328 0 0 0 0 30.08l29.44 37.12h-0.64c-0.384 0-0.896 0.256-1.28 0.704h-2.56a172.544 172.544 0 0 0-16.64 4.416 1833.92 1833.92 0 0 1-21.12 6.464c-4.672 1.664-7.808 6.336-9.216 14.016a29.44 29.44 0 0 0 1.536 19.2 16.256 16.256 0 0 0 12.16 6.4 22.784 22.784 0 0 0 14.72-3.84h-0.64l19.84-7.04c6.848-2.944 13.44-5.12 19.84-6.4v10.88a15.872 15.872 0 0 1-0.32 2.88 12.032 12.032 0 0 0-0.32 2.88V748.8c0 6.016 1.984 10.688 6.08 14.08a22.528 22.528 0 0 0 15.104 5.12z"  horiz-adv-x="1024" />

    
    <glyph glyph-name="shuzhijisuanzhibiaoziduan_feijuhefuzhi" unicode="&#59373;" d="M819.2 320l-10.688-64h108.8l10.688 64h51.2l-10.688-64H1024v-51.2h-64l-23.488-140.8h55.488v-51.2h-64l-12.8-76.8h-51.2l12.8 76.8H768l-12.8-76.8H704l12.8 76.8H640V64l85.312 0.064 23.488 140.736h-76.8V256h85.312L768 320h51.2z m89.6-115.2h-108.8l-23.488-140.736 108.8-0.064 23.488 140.8zM548.032 893.504l8.512-0.896c15.552-1.664 49.792-4.8 46.208-39.04-2.752-27.2-42.56-24.384-53.184-24.384-62.272 0-129.728 31.168-168.064-90.944l-3.84-13.184-17.408-86.4h88.64a29.44 29.44 0 0 0 5.312-58.432l-5.312-0.448H347.648l-79.616-391.232s-7.68-62.848-46.272-60.48c-41.6 2.56-26.24 58.496-24.256 65.088l0.192 0.64 79.04 385.92H156.864A29.12 29.12 0 0 0 128 606.72c1.088 25.088 11.392 30.976 24.832 31.872l4.096 0.128h132.544l18.496 88.128c13.056 62.336 40.128 114.56 87.168 145.152 43.648 28.288 113.536 25.472 152.896 21.504z m148.48-402.048a32 32 0 0 0 3.904-45.12L594.24 319.872l22.4-26.688c-16-14.72-29.888-31.744-41.088-50.56l-23.04 27.456-98.944-117.888a32 32 0 0 0-49.024 41.152L510.72 319.872 404.544 446.336a32 32 0 1 0 49.024 41.152l98.944-117.888 98.88 117.888a32 32 0 0 0 45.12 3.968zM192 384v-64H0V384h192z m0 128v-64H0V512h192z"  horiz-adv-x="1024" />

    
    <glyph glyph-name="shijianjisuanzhibiaoziduanfuzhi" unicode="&#59374;" d="M793.6 320a217.6 217.6 0 1 0 0-435.2 217.6 217.6 0 0 0 0 435.2z m0-51.2a166.4 166.4 0 1 1 0-332.8 166.4 166.4 0 0 1 0 332.8z m-10.56-57.6c12.416 0 22.72-8.512 25.152-19.84l0.512-5.12v-70.208l68.032-0.064c12.416 0 22.72-8.576 25.152-19.84l0.512-5.12a25.152 25.152 0 0 0-20.48-24.32l-5.184-0.576h-93.696a25.536 25.536 0 0 0-25.216 19.904l-0.512 5.056V186.24c0 13.76 11.52 24.896 25.728 24.896zM548.032 893.504l8.512-0.896c15.552-1.664 49.792-4.8 46.208-39.04-2.752-27.2-42.56-24.384-53.184-24.384-62.272 0-129.728 31.168-168.064-90.944l-3.84-13.184-17.408-86.4h88.64a29.44 29.44 0 0 0 5.312-58.432l-5.312-0.448H347.648l-79.616-391.232s-7.68-62.848-46.272-60.48c-41.6 2.56-26.24 58.496-24.256 65.088l0.192 0.64 79.04 385.92H156.864A29.12 29.12 0 0 0 128 606.72c1.088 25.088 11.392 30.976 24.832 31.872l4.096 0.128h132.544l18.496 88.128c13.056 62.336 40.128 114.56 87.168 145.152 43.648 28.288 113.536 25.472 152.896 21.504z m148.48-402.048a32 32 0 0 0 3.904-45.12L594.24 319.872l22.4-26.688c-16-14.72-29.888-31.744-41.088-50.56l-23.04 27.456-98.944-117.888a32 32 0 0 0-49.024 41.152L510.72 319.872 404.544 446.336a32 32 0 1 0 49.024 41.152l98.944-117.888 98.88 117.888a32 32 0 0 0 45.12 3.968zM192 384v-64H0V384h192z m0 128v-64H0V512h192z m664.896 256a23.04 23.04 0 0 0 13.44-5.12 16.384 16.384 0 0 0 6.912-14.08l-3.2-45.44 39.68 15.424a32.896 32.896 0 0 0 17.728 1.856 21.44 21.44 0 0 0 15.552-8.32c3.456-5.12 4.224-10.752 2.24-16.96-1.856-6.144-5.12-10.112-9.856-11.776l-50.56-13.44 33.28-42.944a14.528 14.528 0 0 0 1.92-8c0-3.2-0.512-6.528-1.664-9.856a34.88 34.88 0 0 0-4.416-9.344 17.28 17.28 0 0 0-7.296-6.08 24.064 24.064 0 0 0-18.24 3.2 25.6 25.6 0 0 0-10.688 11.52v-0.64l-25.6 42.88-34.56-49.216c-0.768-2.176-2.752-3.776-5.76-4.864a24 24 0 0 0-6.912-1.6 41.536 41.536 0 0 0-10.56 1.28 11.328 11.328 0 0 0-7.424 6.4v-0.64a27.328 27.328 0 0 0 0 30.08l29.44 37.12h-0.64c-0.384 0-0.896 0.256-1.28 0.704h-2.56a172.544 172.544 0 0 0-16.64 4.416 1833.92 1833.92 0 0 1-21.12 6.464c-4.672 1.664-7.808 6.336-9.216 14.016a29.44 29.44 0 0 0 1.536 19.2 16.256 16.256 0 0 0 12.16 6.4 22.784 22.784 0 0 0 14.72-3.84h-0.64l19.84-7.04c6.848-2.944 13.44-5.12 19.84-6.4v10.88a15.872 15.872 0 0 1-0.32 2.88 12.032 12.032 0 0 0-0.32 2.88V748.8c0 6.016 1.984 10.688 6.08 14.08a22.528 22.528 0 0 0 15.104 5.12z"  horiz-adv-x="1024" />

    
    <glyph glyph-name="shijianjisuanzhibiaoziduan_feijuhefuzhi" unicode="&#59375;" d="M793.6 320a217.6 217.6 0 1 0 0-435.2 217.6 217.6 0 0 0 0 435.2z m0-51.2a166.4 166.4 0 1 1 0-332.8 166.4 166.4 0 0 1 0 332.8z m-10.56-57.6c12.416 0 22.72-8.512 25.152-19.84l0.512-5.12v-70.208l68.032-0.064c12.416 0 22.72-8.576 25.152-19.84l0.512-5.12a25.152 25.152 0 0 0-20.48-24.32l-5.184-0.576h-93.696a25.536 25.536 0 0 0-25.216 19.904l-0.512 5.056V186.24c0 13.76 11.52 24.896 25.728 24.896zM548.032 893.504l8.512-0.896c15.552-1.664 49.792-4.8 46.208-39.04-2.752-27.2-42.56-24.384-53.184-24.384-62.272 0-129.728 31.168-168.064-90.944l-3.84-13.184-17.408-86.4h88.64a29.44 29.44 0 0 0 5.312-58.432l-5.312-0.448H347.648l-79.616-391.232s-7.68-62.848-46.272-60.48c-41.6 2.56-26.24 58.496-24.256 65.088l0.192 0.64 79.04 385.92H156.864A29.12 29.12 0 0 0 128 606.72c1.088 25.088 11.392 30.976 24.832 31.872l4.096 0.128h132.544l18.496 88.128c13.056 62.336 40.128 114.56 87.168 145.152 43.648 28.288 113.536 25.472 152.896 21.504z m148.48-402.048a32 32 0 0 0 3.904-45.12L594.24 319.872l22.4-26.688c-16-14.72-29.888-31.744-41.088-50.56l-23.04 27.456-98.944-117.888a32 32 0 0 0-49.024 41.152L510.72 319.872 404.544 446.336a32 32 0 1 0 49.024 41.152l98.944-117.888 98.88 117.888a32 32 0 0 0 45.12 3.968zM192 384v-64H0V384h192z m0 128v-64H0V512h192z"  horiz-adv-x="1024" />

    
    <glyph glyph-name="shijianjisuanzhibiaoziduan_feijuhe" unicode="&#59376;" d="M768 345.6a217.6 217.6 0 1 0 0-435.2 217.6 217.6 0 0 0 0 435.2z m0-51.2a166.4 166.4 0 1 1 0-332.8 166.4 166.4 0 0 1 0 332.8zM420.032 829.504l8.512-0.896c15.552-1.664 49.792-4.8 46.208-39.04-2.752-27.2-42.56-24.384-53.184-24.384-62.272 0-129.728 31.168-168.064-90.944l-3.84-13.184-17.408-86.4h88.64a29.44 29.44 0 0 0 5.312-58.432l-5.312-0.448H219.648l-79.616-391.232s-7.68-62.848-46.272-60.48c-41.6 2.56-26.24 58.496-24.256 65.088l0.192 0.64 79.04 385.92H28.864A29.12 29.12 0 0 0 0 542.72c1.088 25.088 11.392 30.976 24.832 31.872l4.096 0.128h132.544l18.496 88.128c13.056 62.336 40.128 114.56 87.168 145.152 43.648 28.288 113.536 25.472 152.896 21.504z m148.48-402.048a32 32 0 0 0 3.904-45.12l-106.176-126.464 29.12-34.752c-8.768-25.728-14.016-53.12-15.104-81.472l-55.744 66.432-98.944-117.888a32 32 0 0 0-49.024 41.152l106.176 126.528-106.176 126.464a32 32 0 1 0 49.024 41.152l98.944-117.888 98.88 117.888a32 32 0 0 0 45.12 3.968zM768 230.4a25.6 25.6 0 0 0 25.088-20.48l0.512-5.12v-72.192h67.84a25.6 25.6 0 0 0 25.024-20.48l0.512-5.12a25.6 25.6 0 0 0-20.48-25.152l-5.12-0.512H768a25.6 25.6 0 0 0-25.088 20.48l-0.512 5.12V204.8c0 14.08 11.52 25.6 25.6 25.6z"  horiz-adv-x="1024" />

    
    <glyph glyph-name="shuzhijisuanzhibiaoziduan_feijuhe" unicode="&#59377;" d="M755.2 320l-10.688-64h140.8L896 320h51.2l-10.688-64h55.488v-51.2h-64l-23.488-140.8H960v-51.2h-64l-12.8-76.8H832l12.8 76.8H704l-12.8-76.8H640l12.8 76.8H576V64h85.312l23.488 140.8H608V256h85.312L704 320h51.2z m121.6-115.2h-140.8l-23.488-140.8h140.8l23.488 140.8zM420.032 829.504l8.512-0.896c15.552-1.664 49.792-4.8 46.208-39.04-2.752-27.2-42.56-24.384-53.184-24.384-62.272 0-129.728 31.168-168.064-90.944l-3.84-13.184-17.408-86.4h88.64a29.44 29.44 0 0 0 5.312-58.432l-5.312-0.448H219.648l-79.616-391.232s-7.68-62.848-46.272-60.48c-41.6 2.56-26.24 58.496-24.256 65.088l0.192 0.64 79.04 385.92H28.864A29.12 29.12 0 0 0 0 542.72c1.088 25.088 11.392 30.976 24.832 31.872l4.096 0.128h132.544l18.496 88.128c13.056 62.336 40.128 114.56 87.168 145.152 43.648 28.288 113.536 25.472 152.896 21.504z m148.48-402.048a32 32 0 0 0 3.904-45.12l-106.176-126.464 53.76-64.064a256.448 256.448 0 0 1-6.464-91.968l-89.024 106.24-98.944-117.888a32 32 0 0 0-49.024 41.152l106.176 126.528-106.176 126.464a32 32 0 0 0 49.024 41.152l98.944-117.888 98.88 117.888a32 32 0 0 0 45.12 3.968z"  horiz-adv-x="1024" />

    
    <glyph glyph-name="tianjiazujian_yibiaobangongnenglan" unicode="&#59365;" d="M512 832a448 448 0 1 0 0-896A448 448 0 0 0 512 832z m0-192a32 32 0 0 1-32-32v-192h-192a32 32 0 0 1 0-64h192v-192a32 32 0 1 1 64 0v192h192a32 32 0 1 1 0 64h-192v192A32 32 0 0 1 512 640z"  horiz-adv-x="1024" />

    
    <glyph glyph-name="wenti" unicode="&#59364;" d="M512 832a448 448 0 1 0 0-896A448 448 0 0 0 512 832z m0-64a384 384 0 1 1 0-768A384 384 0 0 1 512 768z m30.72-579.584v-78.336H468.224v78.336H542.72z m-29.184 480c46.592 0 85.376-13.696 116.352-41.088 30.976-27.392 46.464-63.872 46.464-109.44 0-20.48-3.968-39.04-11.904-55.68s-24.832-37.376-50.688-62.208-43.008-42.496-51.456-52.992c-8.448-10.496-14.848-23.04-19.2-37.632-4.352-14.592-6.272-34.176-5.76-58.752H469.76l0.192 13.824a243.84 243.84 0 0 0 6.72 54.912c4.608 17.152 11.52 32.128 20.736 44.928 9.216 12.8 25.856 31.616 49.92 56.448s39.552 42.88 46.464 54.144c6.912 11.264 10.368 28.032 10.368 50.304a84.48 84.48 0 0 1-23.808 59.136c-15.872 17.152-38.912 25.728-69.12 25.728-68.096 0-102.144-40.448-102.144-121.344H341.504l0.64 15.232c1.664 29.44 5.824 52.416 12.416 68.864 7.68 19.2 19.968 36.352 36.864 51.456 16.896 15.104 35.712 26.24 56.448 33.408a199.552 199.552 0 0 0 65.664 10.752z"  horiz-adv-x="1024" />

    
    <glyph glyph-name="fenxibiao_yifenxiang" unicode="&#59363;" d="M640 480l320-267.648-320-267.648v186.24c-111.488 0-206.272-68.032-241.408-162.944A234.048 234.048 0 0 0 384 49.47199999999998c0 134.976 114.56 244.352 256 244.352V480zM257.92 591.616c42.24-2.752 78.976-32 90.944-72.768 8.064-27.328 4.608-53.504-10.24-77.888-3.904-6.4-2.752-9.28 2.944-13.44 42.24-30.592 84.48-61.248 126.72-92.032a330.496 330.496 0 0 1-14.976-25.408l-6.656-13.184-30.784 22.4c-35.84 26.048-71.552 52.16-107.264 78.336-5.952 4.352-10.432 5.312-17.472 1.92-16.32-7.616-34.048-10.496-51.968-7.936-7.744 1.152-10.944-1.344-14.464-7.232a8896 8896 0 0 0-64.64-108.608c-4.032-6.656-4.224-10.624 1.152-17.408 24.064-30.272 27.136-63.36 9.024-97.28a89.6 89.6 0 0 0-89.024-45.568c-38.272 4.992-64.768 25.536-76.8 61.632-20.864 62.912 35.456 124.928 102.4 112.832 7.488-1.408 10.944 0.64 14.528 6.784 20.16 34.56 40.576 69.12 61.44 103.36 4.608 7.424 4.48 11.328-2.56 17.536a97.28 97.28 0 0 0-24.96 113.856c17.472 39.104 58.24 62.976 102.72 60.096zM885.376 800c71.936 0.192 132.48-53.76 138.24-123.2 5.76-70.464-44.416-132.032-116.8-143.68-16.64-2.688-33.024-2.368-49.28 1.28-6.4 1.408-8.768-0.448-11.52-5.12l-34.56-58.24a319.232 319.232 0 0 1-47.04 7.68l38.848 64.96c4.48 7.616 4.736 11.328-3.008 17.216a131.2 131.2 0 0 0-44.544 148.864c18.944 53.568 71.488 90.112 129.664 90.24z"  horiz-adv-x="1024" />

    
    <glyph glyph-name="wenziyanse1" unicode="&#59362;" d="M628.736 716.8v-110.208h-188.16v-552.832H307.968V606.592H121.6V716.8h507.136z m275.136-284.16v-62.976h-107.52v-315.904h-75.776V369.664H614.08V432.64h289.792z"  horiz-adv-x="1024" />

    
    <glyph glyph-name="normal105" unicode="&#59361;" d="M547.072 110.84799999999996a166.08 166.08 0 0 1 319.552-4.8 32 32 0 0 0 61.312-18.496 230.144 230.144 0 0 0-400.192-77.376l-5.44 7.168-11.84-36.8a32 32 0 0 0-34.624-21.952l-5.632 1.28a32 32 0 0 0-21.952 34.624l1.28 5.696 36.224 112.192c9.792 30.4 53.12 29.312 61.312-1.536zM832 864a32 32 0 0 0 32-32v-352h-64v320h-704v-768h256v-64H64a32 32 0 0 0-32 32V832A32 32 0 0 0 64 864z m55.36-566.528l5.376-7.104 11.84 36.8a32 32 0 0 0 34.688 21.888l5.632-1.28a32 32 0 0 0 21.888-34.56l-1.28-5.696-36.16-112.192c-9.792-30.4-53.12-29.312-61.44 1.536a166.08 166.08 0 0 1-318.912 6.528 32 32 0 1 0-61.12 19.2 230.144 230.144 0 0 0 399.424 74.944zM416 448a32 32 0 0 0 0-64h-192a32 32 0 0 0 0 64h192z m256 192a32 32 0 1 0 0-64h-448a32 32 0 0 0 0 64h448z"  horiz-adv-x="1024" />

    
    <glyph glyph-name="daohang_BIgongju" unicode="&#59355;" d="M153.941333 716.16a2416.341333 2416.341333 0 0 1 162.005334 39.210667 2200.192 2200.192 0 0 1 147.541333 46.805333 143.829333 143.829333 0 0 0 96.298667 0.384 2495.274667 2495.274667 0 0 1 309.802666-86.314667 60.032 60.032 0 0 0 47.146667-59.050666l0.597333-249.472v-2.986667c0-185.770667-134.954667-349.141333-405.034666-490.069333-270.122667 128.853333-405.034667 292.266667-405.034667 490.069333L106.666667 656.810667a60.074667 60.074667 0 0 0 47.274666 59.349333z m288.213334-237.397333l97.322666-318.890667c3.712-12.330667 14.592-20.864 27.050667-21.205333a29.184 29.184 0 0 1 28.074667 19.669333l64.298666 177.450667h127.36c13.056 0 25.088 7.253333 31.573334 18.986666a39.253333 39.253333 0 0 1 0 37.930667 36.224 36.224 0 0 1-31.573334 18.944h-157.610666a29.184 29.184 0 0 1-27.306667-19.712l-30.506667-84.053333-100.096 327.765333a29.312 29.312 0 0 1-27.605333 21.034667 29.269333 29.269333 0 0 1-27.818667-20.736l-68.522666-215.509334H237.738667a36.266667 36.266667 0 0 1-31.573334-18.986666 39.253333 39.253333 0 0 1 0-37.973334 36.224 36.224 0 0 1 31.573334-18.944h161.749333l42.666667 134.314667v-0.042667z"  horiz-adv-x="1024" />

    
    <glyph glyph-name="fuwuqixinxi" unicode="&#59356;" d="M896 800a32 32 0 0 0 32-32v-768a32 32 0 0 0-32-32H170.666667a32 32 0 0 0-32 32V768A32 32 0 0 0 170.666667 800z m-32-565.333333H202.666667v-202.666667h661.333333V234.666667z m-74.666667-85.333334a21.333333 21.333333 0 1 0 0-42.666666h-170.666666a21.333333 21.333333 0 1 0 0 42.666666h170.666666z m-512 0a21.333333 21.333333 0 1 0 0-42.666666 21.333333 21.333333 0 0 0 0 42.666666z m85.333334 0a21.333333 21.333333 0 1 0 0-42.666666 21.333333 21.333333 0 0 0 0 42.666666z m501.333333 341.333334H202.666667v-213.333334h661.333333v213.333334z m-74.666667-85.333334a21.333333 21.333333 0 1 0 0-42.666666h-170.666666a21.333333 21.333333 0 1 0 0 42.666666h170.666666z m-512 0a21.333333 21.333333 0 1 0 0-42.666666 21.333333 21.333333 0 0 0 0 42.666666z m85.333334 0a21.333333 21.333333 0 1 0 0-42.666666 21.333333 21.333333 0 0 0 0 42.666666z m501.333333 330.666667H202.666667V533.333333h661.333333V736zM789.333333 661.333333a21.333333 21.333333 0 1 0 0-42.666666h-170.666666a21.333333 21.333333 0 1 0 0 42.666666h170.666666z m-512 0a21.333333 21.333333 0 1 0 0-42.666666 21.333333 21.333333 0 0 0 0 42.666666z m85.333334 0a21.333333 21.333333 0 1 0 0-42.666666 21.333333 21.333333 0 0 0 0 42.666666z"  horiz-adv-x="1024" />

    
    <glyph glyph-name="zangshujuqingli" unicode="&#59357;" d="M864-42.666667a32 32 0 1 0 0-64H160a32 32 0 1 0 0 64h704zM640 842.666667a32 32 0 0 0 31.701333-27.648L672 810.666667v-224H853.333333a32 32 0 0 0 31.701334-27.648L885.333333 554.666667v-469.333334a32 32 0 0 0-27.648-31.701333L853.333333 53.333333H170.666667a32 32 0 0 0-31.701334 27.648L138.666667 85.333333V554.666667a32 32 0 0 0 27.648 31.701333L170.666667 586.666667h181.333333V810.666667a32 32 0 0 0 27.648 31.701333L384 842.666667h256zM821.333333 298.666667H202.666667v-181.333334H298.666667V192a21.333333 21.333333 0 1 0 42.666666 0v-74.666667h149.333334V192a21.333333 21.333333 0 1 0 42.666666 0v-74.666667H682.666667V192a21.333333 21.333333 0 1 0 42.666666 0v-74.666667h96V298.666667z m-213.333333 480h-192V554.666667a32 32 0 0 0-27.648-31.701334L384 522.666667H202.666667V341.333333h618.666666V522.666667H640a32 32 0 0 0-31.701333 27.648L608 554.666667V778.666667z"  horiz-adv-x="1024" />

    
    <glyph glyph-name="gengxinrenwuchakan" unicode="&#59358;" d="M661.333333 369.066667a177.066667 177.066667 0 0 0 141.312-283.776l62.122667-62.122667a32 32 0 0 0-45.226667-45.226667l-64.085333 64.042667A177.066667 177.066667 0 1 0 661.333333 369.066667z m81.066667 430.933333c53.504 0 96.554667-43.349333 100.053333-97.408l0.213334-7.125333v-242.944a32 32 0 0 0-63.701334-4.352l-0.298666 4.352V695.466667c0 21.034667-14.208 37.76-31.786667 40.234666L742.4 736H196.266667c-18.090667 0-33.706667-15.104-35.968-35.370667L160 695.466667v-580.266667c0-21.034667 14.208-37.76 31.786667-40.234667l4.48-0.298666h224.042666a32 32 0 0 0 4.352-63.701334l-4.352-0.298666H196.266667c-53.504 0-96.554667 43.349333-100.053334 97.408L96 115.2V695.466667c0 54.912 40.832 100.565333 93.354667 104.277333L196.266667 800h546.133333z m-81.066667-486.4a121.6 121.6 0 1 1 0-243.2 121.6 121.6 0 0 1 0 243.2zM405.333333 256a21.333333 21.333333 0 1 0 0-42.666667h-128a21.333333 21.333333 0 1 0 0 42.666667h128z m85.333334 170.666667a21.333333 21.333333 0 1 0 0-42.666667h-213.333334a21.333333 21.333333 0 1 0 0 42.666667h213.333334z m170.666666 170.666666a21.333333 21.333333 0 1 0 0-42.666666h-384a21.333333 21.333333 0 0 0 0 42.666666h384z"  horiz-adv-x="1024" />

    
    <glyph glyph-name="yibiaobanxingnengfenxi" unicode="&#59359;" d="M896 757.333333a32 32 0 0 0 32-32v-554.666666a32 32 0 0 0-32-32h-362.666667V42.666667h160a32 32 0 1 0 0-64h-362.666666a32 32 0 1 0 0 64H469.333333v96H128a32 32 0 0 0-31.701333 27.648L96 170.666667V725.333333A32 32 0 0 0 128 757.333333z m-32-64H160v-490.666666h704V693.333333z m-396.928-86.4l1.450667-3.754666 68.138666-238.634667 62.208 155.392a21.333333 21.333333 0 0 0 36.693334 5.12l2.176-3.498667 36.778666-73.557333H789.333333a21.333333 21.333333 0 0 0 20.992-17.493333L810.666667 426.666667a21.333333 21.333333 0 0 0-17.493334-20.992l-3.84-0.341334h-128a21.333333 21.333333 0 0 0-16.981333 8.405334l-2.133333 3.413333-21.418667 42.837333-67.669333-169.258666a21.333333 21.333333 0 0 0-38.912-1.578667l-1.408 3.669333-70.272 245.930667-60.8-121.6a21.333333 21.333333 0 0 0-15.104-11.434667L362.666667 405.333333h-128a21.333333 21.333333 0 0 0-3.84 42.325334l3.84 0.341333h114.773333l79.488 158.890667a21.333333 21.333333 0 0 0 38.144 0.042666z"  horiz-adv-x="1024" />

    
    <glyph glyph-name="gengxinrizhifenxi" unicode="&#59360;" d="M704 369.066667a219.733333 219.733333 0 1 0 0-439.466667 219.733333 219.733333 0 0 0 0 439.466667zM672 810.666667a32 32 0 0 0 32-32v-21.333334h38.4c53.504 0 96.554667-43.349333 100.053333-97.408l0.213334-7.125333v-200.277333a32 32 0 0 0-63.701334-4.352l-0.298666 4.352V652.8c0 21.034667-14.208 37.76-31.786667 40.234667L742.4 693.333333h-38.4v-21.333333a32 32 0 1 0-64 0v21.333333H362.666667v-21.333333a32 32 0 0 0-64 0v21.333333H196.266667c-18.090667 0-33.706667-15.104-35.968-35.370666L160 652.8v-580.266667c0-21.034667 14.208-37.76 31.786667-40.234666l4.48-0.298667h224.042666a32 32 0 0 0 4.352-63.701333l-4.352-0.298667H196.266667c-53.504 0-96.554667 43.349333-100.053334 97.408L96 72.533333V652.8c0 54.912 40.832 100.565333 93.354667 104.277333L196.266667 757.333333H298.666667v21.333334a32 32 0 0 0 64 0v-21.333334H640v21.333334a32 32 0 0 0 32 32z m32-497.066667a164.266667 164.266667 0 1 1 0-328.533333 164.266667 164.266667 0 0 1 0 328.533333z m0-57.6a21.333333 21.333333 0 0 0 21.333333-21.333333V170.666667h64a21.333333 21.333333 0 1 0 0-42.666667h-85.333333a21.333333 21.333333 0 0 0-21.333333 21.333333v85.333334a21.333333 21.333333 0 0 0 21.333333 21.333333z m-298.666667-42.666667a21.333333 21.333333 0 1 0 0-42.666666h-128a21.333333 21.333333 0 1 0 0 42.666666h128z m42.666667 170.666667a21.333333 21.333333 0 1 0 0-42.666667h-170.666667a21.333333 21.333333 0 1 0 0 42.666667h170.666667z m213.333333 170.666667a21.333333 21.333333 0 1 0 0-42.666667h-384a21.333333 21.333333 0 0 0 0 42.666667h384z"  horiz-adv-x="1024" />

    
    <glyph glyph-name="yincang1" unicode="&#59353;" d="M720.832 731.2a32 32 0 0 0 10.368-44.032L327.04 34.176000000000045a32 32 0 0 0-54.4 33.664l28.032 45.184c-86.912 44.48-160.192 119.04-218.752 222.08l-10.304 18.752L55.488 384l16 30.08C173.312 604.736 322.24 704 512 704c50.112 0 97.28-6.912 141.632-20.608l23.168 37.44a32 32 0 0 0 44.032 10.368zM761.6 632.96c70.4-45.44 130.752-112.448 180.544-200.064l10.304-18.752 16.064-30.144-16-30.08C850.688 163.264 701.76 64 512 64a495.168 495.168 0 0 0-96.768 9.28l36.416 58.752c19.52-2.688 39.68-4.032 60.352-4.032 164.928 0 292.928 85.312 384 256-46.4 87.04-102.4 151.808-168 194.432l33.6 54.528zM512 640C347.072 640 219.072 554.688 128 384c55.232-103.488 124.032-175.616 206.4-216.32l46.848 75.712A192 192 0 0 0 579.52 563.8399999999999l39.04 63.04A419.968 419.968 0 0 1 512 640z m160.64-150.848a192 192 0 0 0-183.168-295.808l39.616 63.808a128 128 0 0 1 104.128 168.128l39.488 63.872zM512 512a128 128 0 0 1-96.064-212.608l128.896 208.384A128.192 128.192 0 0 1 512 512z"  horiz-adv-x="1024" />

    
    <glyph glyph-name="xianshi1" unicode="&#59354;" d="M512 704c189.824 0 338.816-99.328 440.448-289.92l16.064-30.08-16-30.08C850.688 163.264 701.76 64 512 64s-338.816 99.328-440.448 289.92L55.488 384l16 30.08C173.312 604.736 322.24 704 512 704z m0-64C347.072 640 219.072 554.688 128 384c91.072-170.688 219.072-256 384-256s292.928 85.312 384 256c-91.072 170.688-219.072 256-384 256z m0-64a192 192 0 1 0 0-384 192 192 0 0 0 0 384z m0-64a128 128 0 1 1 0-256 128 128 0 0 1 0 256z"  horiz-adv-x="1024" />

    
    <glyph glyph-name="hangliezhuanhuan" unicode="&#59351;" d="M928 832a32 32 0 0 0 32-32v-832a32 32 0 0 0-32-32h-320a32 32 0 0 0-32 32v832a32 32 0 0 0 32 32zM512 320v-64H128v-256h384v-64H96a32 32 0 0 0-31.488 26.24L64-32v320a32 32 0 0 0 26.24 31.488L96 320H512z m384 448h-256v-768h256V768zM320 832l192-128-192-128V669.76a224.064 224.064 0 0 1-191.68-209.472L128 448v-64H64V448a288 288 0 0 0 256 286.272V832z"  horiz-adv-x="1024" />

    
    <glyph glyph-name="zixunhuanlie" unicode="&#59352;" d="M486.016 305.28l19.648-44.224 5.76-11.968a224 224 0 0 1 185.728-120.704L710.4 128H800v96l192-128-192-128V64h-89.6l-14.208 0.32a288 288 0 0 0-242.944 157.888l-2.112 4.544 34.88 78.528zM800 800l192-128-192-128V640h-89.6a224 224 0 0 1-199.04-121.088l-5.696-11.968-54.656-122.88V384L416 305.28l-31.168-70.272a288 288 0 0 0-249.024-170.688L121.6 64H32v64h89.6a224 224 0 0 1 199.04 121.088l5.696 11.968L380.928 384v0.064l35.008 78.72 31.232 70.208a288 288 0 0 0 249.024 170.688L710.4 704H800V800zM121.6 704l14.208-0.32a288 288 0 0 0 248.96-170.688l-3.968 8.32-34.88-78.528-19.584 44.16-5.76 11.968a224 224 0 0 1-185.728 120.704L121.6 640H32V704h89.6z"  horiz-adv-x="1024" />

    
    <glyph glyph-name="ziduanfenzu" unicode="&#59350;" d="M384 352a64 64 0 0 0 64-64v-256a64 64 0 0 0-64-64H128a64 64 0 0 0-64 64v256a64 64 0 0 0 64 64z m544-256a32 32 0 1 0 0-64h-384a32 32 0 1 0 0 64h384zM384 288H128v-256h256v256z m416 0a32 32 0 1 0 0-64h-256a32 32 0 1 0 0 64h256zM384 800a64 64 0 0 0 64-64v-256a64 64 0 0 0-64-64H128a64 64 0 0 0-64 64v256a64 64 0 0 0 64 64z m544-256a32 32 0 1 0 0-64h-384a32 32 0 0 0 0 64h384zM384 736H128v-256h256v256z m416 0a32 32 0 1 0 0-64h-256a32 32 0 0 0 0 64h256z"  horiz-adv-x="1024" />

    
    <glyph glyph-name="shujujieru" unicode="&#59347;" d="M896 789.333333a21.333333 21.333333 0 0 0 20.992-17.493333L917.333333 768v-256a21.333333 21.333333 0 0 0-17.493333-20.992L896 490.666667H320v-85.333334h426.666667v-128H896a21.333333 21.333333 0 0 0 20.992-17.493333l0.341333-3.84v-256a21.333333 21.333333 0 0 0-17.493333-20.992L896-21.333333H128a21.333333 21.333333 0 0 0-20.992 17.493333L106.666667 0v256a21.333333 21.333333 0 0 0 17.493333 20.992L128 277.333333h576v85.333334h-426.666667v128H128a21.333333 21.333333 0 0 0-20.992 17.493333L106.666667 512V768a21.333333 21.333333 0 0 0 17.493333 20.992L128 789.333333h768z m-21.333333-554.666666h-725.333334v-213.333334h725.333334v213.333334z m-149.333334-85.333334a21.333333 21.333333 0 0 0 3.84-42.325333L725.333333 106.666667H298.666667a21.333333 21.333333 0 0 0-3.84 42.325333L298.666667 149.333333h426.666666z m149.333334 597.333334h-725.333334v-213.333334h725.333334v213.333334z m-149.333334-85.333334a21.333333 21.333333 0 0 0 3.84-42.325333L725.333333 618.666667H298.666667a21.333333 21.333333 0 0 0-3.84 42.325333L298.666667 661.333333h426.666666z"  horiz-adv-x="1024" />

    
    <glyph glyph-name="yibiaobanzhizuo" unicode="&#59348;" d="M512 448a21.333333 21.333333 0 0 0 20.992-17.493333l0.341333-3.84v-426.666667a21.333333 21.333333 0 0 0-17.493333-20.992L512-21.333333H213.333333a106.666667 106.666667 0 0 0-106.453333 99.669333L106.666667 85.333333v341.333334a21.333333 21.333333 0 0 0 17.493333 20.992L128 448h384z m384-128a21.333333 21.333333 0 0 0 20.992-17.493333l0.341333-3.84v-213.333334a106.666667 106.666667 0 0 0-99.669333-106.453333L810.666667-21.333333h-213.333334a21.333333 21.333333 0 0 0-20.992 17.493333L576 0v298.666667a21.333333 21.333333 0 0 0 17.493333 20.992L597.333333 320h298.666667z m-405.333333 85.333333h-341.333334V85.333333a64 64 0 0 1 51.84-62.848l5.973334-0.853333L213.333333 21.333333h277.333334v384z m384-128h-256v-256H810.666667a64 64 0 0 1 62.848 51.84l0.853333 5.973334L874.666667 85.333333v192zM810.666667 789.333333a106.666667 106.666667 0 0 0 106.453333-99.669333L917.333333 682.666667v-298.666667a21.333333 21.333333 0 0 0-17.493333-20.992L896 362.666667h-298.666667a21.333333 21.333333 0 0 0-20.992 17.493333L576 384V768a21.333333 21.333333 0 0 0 17.493333 20.992L597.333333 789.333333h213.333334z m0-42.666666h-192v-341.333334h256V682.666667a64 64 0 0 1-51.84 62.848l-5.973334 0.853333L810.666667 746.666667z m-298.666667 42.666666a21.333333 21.333333 0 0 0 20.992-17.493333L533.333333 768v-256a21.333333 21.333333 0 0 0-17.493333-20.992L512 490.666667H128a21.333333 21.333333 0 0 0-20.992 17.493333L106.666667 512V682.666667a106.666667 106.666667 0 0 0 99.669333 106.453333L213.333333 789.333333h298.666667z m-21.333333-42.666666H213.333333a64 64 0 0 1-63.701333-57.856L149.333333 682.666667v-149.333334h341.333334v213.333334z"  horiz-adv-x="1024" />

    
    <glyph glyph-name="shujuzhanshi" unicode="&#59349;" d="M810.666667 789.333333a106.666667 106.666667 0 0 0 106.453333-99.669333L917.333333 682.666667v-426.666667a106.666667 106.666667 0 0 0-99.669333-106.453333L810.666667 149.333333h-277.333334v-128H725.333333a21.333333 21.333333 0 0 0 3.84-42.325333L725.333333-21.333333H298.666667a21.333333 21.333333 0 0 0-3.84 42.325333L298.666667 21.333333h192v128H213.333333a106.666667 106.666667 0 0 0-106.453333 99.669334L106.666667 256V682.666667a106.666667 106.666667 0 0 0 99.669333 106.453333L213.333333 789.333333h597.333334z m0-42.666666H213.333333a64 64 0 0 1-63.701333-57.856L149.333333 682.666667v-426.666667a64 64 0 0 1 57.856-63.701333L213.333333 192h597.333334a64 64 0 0 1 63.701333 57.856L874.666667 256V682.666667A64 64 0 0 1 810.666667 746.666667zM341.333333 469.333333a21.333333 21.333333 0 0 0 20.992-17.493333l0.341334-3.84v-128a21.333333 21.333333 0 0 0-42.325334-3.84L320 320v128A21.333333 21.333333 0 0 0 341.333333 469.333333z m170.666667 85.333334a21.333333 21.333333 0 0 0 20.992-17.493334l0.341333-3.84v-213.333333a21.333333 21.333333 0 0 0-42.325333-3.84l-0.341333 3.84v213.333333A21.333333 21.333333 0 0 0 512 554.666667z m170.666667 85.333333a21.333333 21.333333 0 0 0 20.992-17.493333l0.341333-3.84v-298.666667a21.333333 21.333333 0 0 0-42.325333-3.84l-0.341334 3.84v298.666667A21.333333 21.333333 0 0 0 682.666667 640z"  horiz-adv-x="1024" />

    
    <glyph glyph-name="shoujichakanerweima" unicode="&#59346;" d="M768 180.16h96V352a64 64 0 0 0 64-64v-192H704v128H608v-256a64 64 0 0 0-64 64v256a64 64 0 0 0 64 64H768v-171.84zM160 800h256a64 64 0 0 0 64-64v-256a64 64 0 0 0-64-64h-256a64 64 0 0 0-64 64v256a64 64 0 0 0 64 64z m0-64v-256h256v256h-256z m0-384h256a64 64 0 0 0 64-64v-256a64 64 0 0 0-64-64h-256a64 64 0 0 0-64 64v256a64 64 0 0 0 64 64z m0-64v-256h256v256h-256z m64 384h128v-128h-128v128z m0-448h128v-128h-128v128z m448 448h128v-128h-128v128z m-64 128h256a64 64 0 0 0 64-64v-256a64 64 0 0 0-64-64h-256a64 64 0 0 0-64 64v256a64 64 0 0 0 64 64z m0-64v-256h256v256h-256z m64-704h64v-64h-64v64z m128 0h128a64 64 0 0 0-64-64h-64v64z"  horiz-adv-x="1024" />

    
    <glyph glyph-name="bendichakan" unicode="&#59345;" d="M928 411.968a254.784 254.784 0 0 1-64 109.568V710.4c0 13.312-13.632 25.6-32 25.6H192c-18.368 0-32-12.288-32-25.6v-477.056c0-13.312 13.632-25.6 32-25.6h271.552A256.64 256.64 0 0 1 544 125.952V64h128a32 32 0 1 0 0-64h-320a32 32 0 1 0 0 64h128v79.744H192c-52.288 0-96 39.36-96 89.6V710.4c0 50.304 43.712 89.6 96 89.6h640c52.288 0 96-39.296 96-89.6v-298.432z m-71.168-199.68a32.448 32.448 0 0 0 1.664-1.536l90.496-90.496a32 32 0 1 0-45.248-45.248l-90.496 90.496a32.448 32.448 0 0 0-1.536 1.664 224 224 0 1 0 45.12 45.12z m-66.176 21.12a160 160 0 1 1-226.304 226.24 160 160 0 0 1 226.304-226.304z"  horiz-adv-x="1024" />

    
    <glyph glyph-name="lan1" unicode="&#59344;" d="M448 576v-224a32 32 0 0 0-64 0V576H288a32 32 0 0 0 0 64h256a32 32 0 0 0 0-64H448zM192 800h640A96 96 0 0 0 928 704v-640a96 96 0 0 0-96-96H192A96 96 0 0 0 96 64V704A96 96 0 0 0 192 800z m0-64a32 32 0 0 1-32-32v-640a32 32 0 0 1 32-32h640a32 32 0 0 1 32 32V704a32 32 0 0 1-32 32H192zM288 192h448a32 32 0 1 0 0-64h-448a32 32 0 1 0 0 64z"  horiz-adv-x="1024" />

    
    <glyph glyph-name="yuyanpeizhi" unicode="&#59343;" d="M97.216 352a413.888 413.888 0 0 1 83.52-219.648c49.856 22.912 113.024 40 184.192 49.92A1441.536 1441.536 0 0 0 352.32 352H97.216z m0 64h255.104c0.96 54.4 4.608 106.24 10.56 154.048-74.56 10.56-140.224 28.992-190.848 53.76A413.76 413.76 0 0 1 97.152 416z m829.568 0a413.76 413.76 0 0 1-74.816 207.744c-50.56-24.704-116.288-43.136-190.848-53.696 5.952-47.808 9.6-99.648 10.56-154.048h255.104z m0-64h-255.104a1441.6 1441.6 0 0 0-12.608-169.792c71.168-9.856 134.4-26.944 184.192-49.856A413.888 413.888 0 0 1 926.784 352z m-510.464 0c1.28-58.432 6.016-113.6 13.056-163.008a1125.44 1125.44 0 0 0 165.248 0c7.04 49.408 11.712 104.576 13.056 163.008h-191.36z m0 64h191.36a1399.04 1399.04 0 0 1-10.88 147.2 1124.032 1124.032 0 0 0-169.6 0 1399.04 1399.04 0 0 1-10.88-147.2z m-190.592-333.824a415.04 415.04 0 0 1 196.032-104.32c-19.008 36.224-34.56 84.288-46.08 140.928-58.112-8.064-109.376-20.992-149.952-36.608z m-11.52 592.32c41.6-17.472 96-31.936 158.464-40.832 11.776 63.36 28.352 116.992 49.088 156.544a415.36 415.36 0 0 1-207.552-115.712z m595.584 0A415.36 415.36 0 0 1 602.24 790.208c20.736-39.552 37.312-93.184 49.088-156.544 62.464 8.896 116.928 23.36 158.464 40.832z m-11.52-592.32c-40.576 15.616-91.84 28.544-149.952 36.608-11.52-56.64-27.072-104.704-46.08-140.992a415.04 415.04 0 0 1 196.032 104.32z m-358.016 43.328C459.712 29.76 487.744-32 512-32c24.32 0 52.288 61.76 71.744 157.44a1023.36 1023.36 0 0 1-143.488 0z m-3.072 501.248a1022.336 1022.336 0 0 1 149.632 0C567.296 731.392 537.536 800 512 800c-25.6 0-55.296-68.608-74.816-173.248zM512-96a480 480 0 1 0 0 960 480 480 0 0 0 0-960z"  horiz-adv-x="1024" />

    
    <glyph glyph-name="lv" unicode="&#59342;" d="M703.872 358.976l-55.872-55.104a370.176 370.176 0 0 1-148.992 31.04c-202.752 0-379.52-162.112-379.52-362.112a37.12 37.12 0 0 0-37.376-36.8 37.12 37.12 0 0 0-37.312 36.8c0 191.744 133.504 354.56 311.168 412.8a244.224 244.224 0 0 0-105.856 200.96C250.112 722.048 361.6 832 499.072 832c137.408 0 248.832-109.888 248.832-245.504 0-83.2-41.984-156.8-106.24-201.152 21.504-7.232 42.304-16.064 62.208-26.368z m-204.8 55.68c96.192 0 174.144 76.992 174.144 171.84 0 94.912-77.952 171.84-174.208 171.84-96.192 0-174.208-76.928-174.208-171.84 0-94.848 78.016-171.84 174.208-171.84z m94.592-400.192A38.4 38.4 0 0 0 620.8 80h317.056a38.4 38.4 0 1 0 0-76.8h-224.32l30.4-30.464a38.4 38.4 0 0 0-54.272-54.272l-96 96z m374.272 204.672A38.4 38.4 0 0 0 940.8 153.6H623.744a38.4 38.4 0 0 0 0 76.8h224.32l-30.4 30.464a38.4 38.4 0 0 0 54.272 54.272l96-96z"  horiz-adv-x="1024" />

    
    <glyph glyph-name="jiazai" unicode="&#59341;" d="M928 384A416 416 0 0 1 512 800v-64A352 352 0 0 0 864 384h64z"  horiz-adv-x="1024" />

    
    <glyph glyph-name="shujulianjieguanli" unicode="&#59340;" d="M800 448v-96a32 32 0 0 0-32-32H288v-64H896a32 32 0 0 0 32-32v-256a32 32 0 0 0-32-32H128a32 32 0 0 0-32 32v256A32 32 0 0 0 128 256h96V352A32 32 0 0 0 256 384h480V448H128a32 32 0 0 0-32 32v256A32 32 0 0 0 128 768h768a32 32 0 0 0 32-32v-256a32 32 0 0 0-32-32h-96z m-640 256v-192h704V704h-704z m0-512v-192h704v192h-704zM576 640h192a32 32 0 1 0 0-64H576a32 32 0 0 0 0 64zM256 640a32 32 0 1 0 0-64 32 32 0 0 0 0 64z m320-512h192a32 32 0 1 0 0-64H576a32 32 0 1 0 0 64z m-320 0a32 32 0 1 0 0-64 32 32 0 0 0 0 64z"  horiz-adv-x="1024" />

    
    <glyph glyph-name="fuwuqishujuji" unicode="&#59339;" d="M480 384V448h-320a32 32 0 0 0-32 32v256a32 32 0 0 0 32 32h704a32 32 0 0 0 32-32v-256a32 32 0 0 0-32-32h-320v-64H896a32 32 0 0 0 32-32V192h64a32 32 0 0 0 32-32v-192a32 32 0 0 0-32-32h-192a32 32 0 0 0-32 32v192a32 32 0 0 0 32 32h64V320h-320v-128h64a32 32 0 0 0 32-32v-192a32 32 0 0 0-32-32h-192a32 32 0 0 0-32 32v192a32 32 0 0 0 32 32h64V320h-320v-128h64a32 32 0 0 0 32-32v-192a32 32 0 0 0-32-32h-192a32 32 0 0 0-32 32v192a32 32 0 0 0 32 32h64V352A32 32 0 0 0 128 384h352z m448-256H832v-128h128v128h-32z m-384 0H448v-128h128v128h-32zM192 704v-192h640V704H192z m-128-576v-128h128v128H64z m224 512a32 32 0 1 0 0-64 32 32 0 0 0 0 64z m256 0h192a32 32 0 1 0 0-64h-192a32 32 0 0 0 0 64z"  horiz-adv-x="1024" />

    
    <glyph glyph-name="shushujuji" unicode="&#59338;" d="M288 96h128v-64h-192v576H128a32 32 0 0 0-32 32V768a32 32 0 0 0 32 32h448a32 32 0 0 0 32-32v-128a32 32 0 0 0-32-32H288v-192h128v-64h-128v-256z m-128 640v-64h384v64h-384z m384-320v-64h320v64h-320z m-32 64h384a32 32 0 0 0 32-32v-128a32 32 0 0 0-32-32H512a32 32 0 0 0-32 32V448a32 32 0 0 0 32 32z m32-384v-64h320v64h-320z m-32 64h384a32 32 0 0 0 32-32v-128a32 32 0 0 0-32-32H512a32 32 0 0 0-32 32v128a32 32 0 0 0 32 32z"  horiz-adv-x="1024" />

    
    <glyph glyph-name="qitaleixingshujuji" unicode="&#59272;" d="M566.656 320a257.152 257.152 0 0 1-52.416-64H224a64 64 0 0 0-64 64V448a64 64 0 0 0 64 64h576a64 64 0 0 0 64-64v-98.24a254.4 254.4 0 0 1-64 26.176V448h-576v-128h342.656z m-52.416-320c13.952-24.064 31.68-45.696 52.48-64H224a64 64 0 0 0-64 64v128a64 64 0 0 0 64 64h264.064c-5.248-20.48-8.064-41.92-8.064-64h-256v-128h290.24zM224 768v-128h576V768h-576z m0 64h576a64 64 0 0 0 64-64v-128a64 64 0 0 0-64-64h-576a64 64 0 0 0-64 64V768a64 64 0 0 0 64 64zM320 416a32 32 0 1 0 0-64 32 32 0 0 0 0 64z m0-320a32 32 0 1 0 0-64 32 32 0 0 0 0 64z m0 640a32 32 0 1 0 0-64 32 32 0 0 0 0 64z m327.744-741.504a160 160 0 0 1 221.696 221.696l-221.696-221.696z m-45.248 45.248l221.76 221.76a160 160 0 0 1-221.696-221.696zM736-96a224 224 0 1 0 0 448 224 224 0 0 0 0-448z"  horiz-adv-x="1024" />

    
    <glyph glyph-name="yuan" unicode="&#59337;" d="M832 384A320 320 0 1 0 192 384a320 320 0 0 0 640 0"  horiz-adv-x="1024" />

    
    <glyph glyph-name="moban_tianjia" unicode="&#59336;" d="M800 512h-192a64 64 0 0 0-64 64V768h-384v-768h256v-64h-256a64 64 0 0 0-64 64V768a64 64 0 0 0 64 64h485.568a64 64 0 0 0 45.312-18.752l154.432-154.688a64 64 0 0 0 18.688-45.184V384h-64V512z m0 64v37.376L645.568 768H608v-192h192z m-256-256v-64H256a32 32 0 0 0 0 64h288z m-128-128v-64H256a32 32 0 1 0 0 64h160zM256 448h192a32 32 0 0 0 0-64H256a32 32 0 0 0 0 64z m448-275.2v128a32 32 0 1 0 64 0v-128h128a32 32 0 1 0 0-64h-128v-128a32 32 0 1 0-64 0v128H576a32 32 0 1 0 0 64h128z"  horiz-adv-x="1024" />

    
    <glyph glyph-name="H" unicode="&#59335;" d="M192 832h640a64 64 0 0 0 64-64v-541.76a64 64 0 0 0-28.48-53.248l-320-213.312a64 64 0 0 0-71.04 0l-320 213.312A64 64 0 0 0 128 226.24V768a64 64 0 0 0 64 64z m0-64v-541.76l320-213.312 320 213.312V768H192z m457.088-469.504l12.608 124.032H347.712a32 32 0 0 0-31.808 28.48l-21.312 191.872A32 32 0 0 0 326.4 678.4h370.752a32 32 0 1 0 0-64H362.176l14.144-127.872h320.832a32 32 0 0 0 31.808-35.2l-17.728-174.336a32 32 0 0 0-14.08-23.36l-149.888-99.84a32 32 0 0 0-34.56-0.512l-161.472 99.776a32 32 0 0 0-15.232 27.2v61.76a32 32 0 0 0 64 0v-43.904l128.832-79.616 120.256 80z"  horiz-adv-x="1024" />

    
    <glyph glyph-name="weixin" unicode="&#59320;" d="M839.488 30.08000000000004A316.16 316.16 0 0 0 704 0c-136.448 0-251.776 84.48-280.96 199.168A355.2 355.2 0 0 0 352 192a346.944 346.944 0 0 0-155.84 36.352l-82.368-44.608a12.8 12.8 0 0 0-18.752 13.184l14.144 95.36C61.184 342.592 32 408.128 32 480 32 640 176 768 352 768c164.672 0 301.44-112.192 318.272-257.728C681.344 511.36 692.608 512 704 512c158.208 0 288-113.6 288-256 0-66.56-28.352-126.848-74.752-172.16l11.712-78.912a12.8 12.8 0 0 0-18.752-13.184l-70.72 38.272zM607.232 497.152C597.248 612.096 487.488 704 352 704c-142.144 0-256-101.184-256-224s113.856-224 256-224c22.144 0 43.648 2.432 64.128 7.04 3.264 108.8 82.368 199.68 191.104 234.176zM704 64c124.608 0 224 87.04 224 192S828.608 448 704 448s-224-87.04-224-192 99.392-192 224-192zM246.4 531.2a38.4 38.4 0 1 0 0 76.8 38.4 38.4 0 0 0 0-76.8z m224 0a38.4 38.4 0 1 0 0 76.8 38.4 38.4 0 0 0 0-76.8z m144-256a38.4 38.4 0 1 0 0 76.8 38.4 38.4 0 0 0 0-76.8z m192 0a38.4 38.4 0 1 0 0 76.8 38.4 38.4 0 0 0 0-76.8z"  horiz-adv-x="1024" />

    
    <glyph glyph-name="dingding" unicode="&#59319;" d="M247.936 572.352l-71.424 26.304a32 32 0 0 0-16.32 13.568c-44.096 73.28-58.752 153.536-43.776 239.36A32 32 0 0 0 163.072 874.24a1774.08 1774.08 0 0 1 103.424-51.136c127.744-58.24 505.28-186.368 544.384-204.864 51.328-24.32 82.048-48 93.632-79.616 18.56-52.672-22.016-142.592-120.32-281.792h62.464a32 32 0 0 0 24.96-52.032l-234.368-292.352c-21.376-26.624-64-5.824-56.128 27.392l35.84 150.592h-53.824a32 32 0 0 0-30.528 41.664l25.984 81.856-75.84-20.096a32 32 0 0 0-14.272-0.448c-61.12 11.904-115.712 50.304-163.648 113.472a32 32 0 0 0 6.912 45.44H309.76a32 32 0 0 0-18.624 5.952C220.416 408.96 175.104 469.312 156.672 539.008a32 32 0 0 0 34.624 40l56.64-6.656z m-38.4 82.368l313.536-115.456c35.584-13.12 22.848-66.24-14.784-61.824L236.8 509.248c17.984-33.6 45.696-64.512 83.456-92.928h207.232c36.928 0 44.48-52.288 9.024-62.72l-149.44-44.032c27.712-27.328 56.64-44.48 86.784-51.84l124.672 32.96a32 32 0 0 0 38.656-40.576l-30.336-95.68h50.56a32 32 0 0 0 31.104-39.36l-12.224-51.648 103.68 129.408h-58.496a32 32 0 0 0-25.728 51.008c109.696 148.096 158.528 244.928 148.544 273.152-3.84 10.56-23.616 25.856-60.736 43.392-34.816 16.448-411.776 144.384-543.68 204.544-22.208 10.112-43.904 20.48-65.024 31.104a270.016 270.016 0 0 1 34.688-141.312z"  horiz-adv-x="1024" />

    
    <glyph glyph-name="tubiaoshezhi" unicode="&#59333;" d="M832 469.248h-64v269.44A29.312 29.312 0 0 1 738.688 768H93.312A29.312 29.312 0 0 1 64 738.688v-645.376c0-16.192 13.12-29.312 29.312-29.312h317.056l34.56-64h-355.84C40 0 0 39.936000000000035 0 89.15200000000004V742.848C0 792.128 39.936 832 89.152 832h653.696C792.128 832 832 792.064 832 742.848v-273.6zM293.312 576C272.704 576 256 590.336 256 608s16.704 32 37.312 32h309.376c20.608 0 37.312-14.336 37.312-32s-16.704-32-37.312-32H293.312zM160 576a32 32 0 1 0 0 64 32 32 0 0 0 0-64z m0-192a32 32 0 1 0 0 64 32 32 0 0 0 0-64z m0-192a32 32 0 1 0 0 64 32 32 0 0 0 0-64z m128 192a32 32 0 0 0 0 64h192a32 32 0 0 0 0-64h-192z m0-192a32 32 0 1 0 0 64h64a32 32 0 1 0 0-64h-64z m337.92 158.848l-112-199.04 112-199.168h220.16l112 199.104-112 199.104H625.92z m272.448 24.32l107.968-192a64 64 0 0 0 0-62.784l-107.968-192a64 64 0 0 0-55.808-32.64h-213.12a64 64 0 0 0-55.808 32.64l-107.968 192a64 64 0 0 0 0 62.72l107.968 192a64 64 0 0 0 55.808 32.64h213.12a64 64 0 0 0 55.808-32.64z m-162.368-280.32c20.608 0 39.616 10.88 49.92 28.48a56.32 56.32 0 0 1 0 56.896 57.728 57.728 0 0 1-49.92 28.416c-31.808 0-57.6-25.472-57.6-56.896 0-31.36 25.792-56.896 57.6-56.896z m0-56.896c-63.616 0-115.2 50.944-115.2 113.792s51.584 113.792 115.2 113.792 115.2-50.944 115.2-113.792-51.584-113.792-115.2-113.792z"  horiz-adv-x="1024" />

    
    <glyph glyph-name="fengmianshezhi" unicode="&#59334;" d="M412.352 128l36.992-64H96A96 96 0 0 0 0 160v576A96 96 0 0 0 96 832h640A96 96 0 0 0 832 736v-197.12h-64V736a32 32 0 0 1-32 32h-640a32 32 0 0 1-32-32v-509.248l221.376 184.576 138.56-87.296-30.4-56.448L290.56 332.352l-223.424-186.24A32 32 0 0 1 96 128h316.352zM204.864 626.1120000000001a96 96 0 1 0 166.272-96 96 96 0 0 0-166.272 96zM288 546.1120000000001a32 32 0 1 1 0 64 32 32 0 0 1 0-64z m337.92-131.2L513.92 215.67999999999995l112-199.04h220.16l112 199.04-112 199.104H625.92z m272.448 24.256l107.968-192a64 64 0 0 0 0-62.784l-107.968-192a64 64 0 0 0-55.808-32.64h-213.12a64 64 0 0 0-55.808 32.64l-107.968 192a64 64 0 0 0 0 62.72l107.968 192a64 64 0 0 0 55.808 32.64h213.12a64 64 0 0 0 55.808-32.64z m-162.368-280.32c20.608 0 39.616 10.88 49.92 28.48a56.32 56.32 0 0 1 0 56.896 57.728 57.728 0 0 1-49.92 28.416c-31.808 0-57.6-25.472-57.6-56.896 0-31.36 25.792-56.896 57.6-56.896z m0-56.896c-63.616 0-115.2 50.944-115.2 113.792s51.584 113.792 115.2 113.792 115.2-50.944 115.2-113.792-51.584-113.792-115.2-113.792z"  horiz-adv-x="1024" />

    
    <glyph glyph-name="suoxiao1" unicode="&#59331;" d="M415.552 528.704v177.92a32 32 0 1 0 64 0v-251.52a32.064 32.064 0 0 0-2.368-16.448 32 32 0 0 0-29.632-20.032h-256a32 32 0 1 0 0 64h179.52L108.352 745.344a32 32 0 1 0 45.248 45.312L415.552 528.64zM611.2 241.91999999999996V64a32 32 0 1 0-64 0V315.52a32.064 32.064 0 0 0 2.304 16.448 32 32 0 0 0 29.696 20.032h256a32 32 0 1 0 0-64h-179.52l262.72-262.72a32 32 0 0 0-45.248-45.248L611.2 241.91999999999996z"  horiz-adv-x="1024" />

    
    <glyph glyph-name="fangda1" unicode="&#59332;" d="M163.2 689.92V512a32 32 0 1 0-64 0V763.52a32.064 32.064 0 0 0 2.304 16.448 32 32 0 0 0 29.696 20.032h256a32 32 0 1 0 0-64H207.68L470.4 473.28a32 32 0 1 0-45.248-45.248L163.2 689.92z m700.352-609.216v177.92a32 32 0 1 0 64 0v-251.52a32.064 32.064 0 0 0-2.368-16.448 32 32 0 0 0-29.632-20.032h-256a32 32 0 1 0 0 64h179.52L556.352 297.34400000000005a32 32 0 0 0 45.248 45.312l261.952-261.952z"  horiz-adv-x="1024" />

    
    <glyph glyph-name="queshizhitianchong" unicode="&#59330;" d="M960 704h-64V768H64v-768h832v64h64v-64a64 64 0 0 0-64-64H64a64 64 0 0 0-64 64V768a64 64 0 0 0 64 64h832a64 64 0 0 0 64-64v-64zM226.496 170.49599999999998V504L128 484.992v61.056l119.232 24.192h52.992v-399.744H226.496z m149.12 0v67.968c150.336 119.808 188.352 165.888 188.352 215.424 0 48.384-32.832 61.632-74.88 61.632-25.92 0-55.296-3.456-88.128-13.248v61.056C430.336 571.9680000000001 464.896 576 501.76 576c84.672 0 135.936-35.712 135.936-113.472 0-67.968-27.648-111.168-148.608-207.36l-24.768-19.584v-4.608h185.472v-60.48H375.616z m436.608-5.76a476.16 476.16 0 0 0-91.008 7.488v62.784c30.528-6.912 57.024-9.792 87.552-9.792 51.84 0 92.736 13.248 92.736 61.632 0 47.808-37.44 61.632-103.68 61.632h-31.104v55.872h30.528c60.48 0 96.768 17.28 96.768 59.328 0 39.744-28.224 52.992-77.184 52.992-23.616 0-55.872-4.608-78.912-11.52V564.48c19.008 6.336 54.144 11.52 86.976 11.52 86.976 0 140.544-28.8 140.544-107.712 0-46.08-22.464-73.728-66.816-88.128v-3.456c52.416-9.792 77.184-43.776 77.184-94.464 0-78.336-54.72-117.504-163.584-117.504z"  horiz-adv-x="1024" />

    
    <glyph glyph-name="xinshouyindao" unicode="&#59329;" d="M898.752 654.912C843.136 687.488 780.416 704 712.384 704a451.904 451.904 0 0 1-176.256-36.992v-485.824a25.6 25.6 0 0 0-26.112-24.96 25.6 25.6 0 0 0-26.112 24.96V666.88A451.84 451.84 0 0 1 307.648 704c-68.032 0-130.752-16.512-186.368-49.088a54.272 54.272 0 0 1-27.264-46.4v-537.984c0-19.648 11.2-37.824 29.184-47.488 17.728-9.472 40.32-9.024 57.728 1.088a246.976 246.976 0 0 0 126.72 33.024c57.216 0 118.4-17.408 172.544-49.024a59.008 59.008 0 0 1 59.648 0c54.08 31.616 115.392 49.024 172.544 49.024 46.72 0 89.344-11.072 126.784-33.024 17.28-10.112 39.872-10.56 57.728-1.024a54.016 54.016 0 0 1 29.12 47.424V608.448a54.272 54.272 0 0 1-27.264 46.4v0.064z"  horiz-adv-x="1024" />

    
    <glyph glyph-name="gou" unicode="&#59328;" d="M1222.434595 874.025514L514.490811 365.152865a110.702703 110.702703 0 0 0-126.311784-2.048l-225.28 151.109189a103.119568 103.119568 0 0 1-130.629189-12.92454 95.647135 95.647135 0 0 1-7.001946-126.920649l349.322378-439.406703a110.702703 110.702703 0 0 1 165.168433-9.132973l811.727567 816.819892a85.600865 85.600865 0 0 1 0 120.665946 99.798486 99.798486 0 0 1-129.024 10.710487z"  horiz-adv-x="1383" />

    
    <glyph glyph-name="yulangongjulan_tupianchicun" unicode="&#59327;" d="M416 544h192a64 64 0 0 0 64-64v-192a64 64 0 0 0-64-64h-192a64 64 0 0 0-64 64v192a64 64 0 0 0 64 64z m0-64v-192h192v192h-192zM64 576V640h192V832h64v-192a64 64 0 0 0-64-64H64z m896 0h-192a64 64 0 0 0-64 64V832h64v-192h192v-64zM64 192h192a64 64 0 0 0 64-64v-192H256v192H64v64z m896 0v-64h-192v-192h-64v192a64 64 0 0 0 64 64h192z"  horiz-adv-x="1024" />

    
    <glyph glyph-name="baocunbinggengxin" unicode="&#59326;" d="M576 0a32 32 0 0 0-32-32h-384a64 64 0 0 0-64 64v704a64 64 0 0 0 64 64h704a64 64 0 0 0 64-64v-320a32 32 0 1 0-64 0v320h-128l-5.12-257.28a64 64 0 0 0-64-62.72H352a64 64 0 0 0-64 64v256h-128v-704h384a32 32 0 0 0 32-32zM352 736v-256h320v256h-320z m454.4-608v-153.6a38.4 38.4 0 1 0-76.8 0V128h-128a12.8 12.8 0 0 0-10.24 20.48l166.4 221.888a12.8 12.8 0 0 0 20.48 0l166.4-221.888a12.8 12.8 0 0 0-10.24-20.48h-128zM608 704a32 32 0 0 0 32-32v-128a32 32 0 0 0-64 0v128a32 32 0 0 0 32 32z"  horiz-adv-x="1024" />

    
    <glyph glyph-name="bukeliandong" unicode="&#59229;" d="M192 832h640a128 128 0 0 0 128-128v-640a128 128 0 0 0-128-128H192a128 128 0 0 0-128 128V704a128 128 0 0 0 128 128z m0-64a64 64 0 0 1-64-64v-640a64 64 0 0 1 64-64h640a64 64 0 0 1 64 64V704a64 64 0 0 1-64 64H192z"  horiz-adv-x="1024" />

    
    <glyph glyph-name="bukeliandong_kedanxiangliandong" unicode="&#59321;" d="M557.248 139.00800000000004H928a32 32 0 1 0 0-64H557.248l81.152-81.152a32 32 0 1 0-45.248-45.248l-135.808 135.744a32 32 0 0 0 0 45.248l135.808 135.744a32 32 0 1 0 45.248-45.248l-81.152-81.088zM960 320h-64V704a64 64 0 0 1-64 64H192a64 64 0 0 1-64-64v-640a64 64 0 0 1 64-64h192v-64H192a128 128 0 0 0-128 128V704a128 128 0 0 0 128 128h640a128 128 0 0 0 128-128v-384z"  horiz-adv-x="1024" />

    
    <glyph glyph-name="keliandong" unicode="&#59322;" d="M423.936 280.32000000000005l294.08 294.144a32 32 0 1 0 45.248-45.248l-314.24-314.24a32 32 0 0 0-49.152-1.024L265.6 348.03200000000004a32 32 0 0 0 45.248 45.248L423.936 280.32000000000005zM192 832h640a128 128 0 0 0 128-128v-640a128 128 0 0 0-128-128H192a128 128 0 0 0-128 128V704a128 128 0 0 0 128 128z m0-64a64 64 0 0 1-64-64v-640a64 64 0 0 1 64-64h640a64 64 0 0 1 64 64V704a64 64 0 0 1-64 64H192z"  horiz-adv-x="1024" />

    
    <glyph glyph-name="shuangxiangkeliandong" unicode="&#59325;" d="M960 320h-64V704a64 64 0 0 1-64 64H192a64 64 0 0 1-64-64v-640a64 64 0 0 1 64-64h320v-64H192a128 128 0 0 0-128 128V704a128 128 0 0 0 128 128h640a128 128 0 0 0 128-128v-384z m-536.256-39.744l294.208 294.208a32 32 0 1 0 45.248-45.248L447.232 213.12a32 32 0 0 0-46.08-0.832L265.344 348.096a32 32 0 1 0 45.312 45.248L423.68 280.32000000000005z m290.304-51.328H992a32 32 0 1 0 0-64H636.8a31.872 31.872 0 0 0-22.656 54.592l90.56 90.56a32 32 0 0 0 45.248-45.248l-35.84-35.904zM914.752 0H636.8a32 32 0 1 0 0 64h355.2a31.872 31.872 0 0 0 22.656-54.656l-90.56-90.496a32 32 0 0 0-45.248 45.248l35.84 35.904z"  horiz-adv-x="1024" />

    
    <glyph glyph-name="zhibiaomingchengziduan" unicode="&#59324;" d="M947.008 712.3199999999999a21.44 21.44 0 0 1-15.616 8.32 32.896 32.896 0 0 1-17.664-1.856l-39.68-15.424 3.2 45.44a16.384 16.384 0 0 1-6.976 14.08 23.04 23.04 0 0 1-13.44 5.12 22.528 22.528 0 0 1-15.104-5.12 17.344 17.344 0 0 1-5.952-14.08v-28.8c0-0.896 0-1.792 0.32-2.88a15.872 15.872 0 0 0 0.32-2.88v-10.88c-6.4 1.28-13.12 3.456-19.968 6.4l-19.84 7.04h0.64a22.784 22.784 0 0 1-14.656 3.84 16.256 16.256 0 0 1-12.16-6.4 29.44 29.44 0 0 1-1.536-19.2c1.408-7.68 4.48-12.352 9.216-14.016l21.12-6.464c6.848-2.112 12.416-3.584 16.64-4.416h2.56c0.384-0.448 0.896-0.704 1.28-0.704h0.64l-29.44-37.12a27.328 27.328 0 0 1 0-30.08v0.64a11.328 11.328 0 0 1 7.36-6.4c3.2-0.832 6.656-1.28 10.56-1.28a24 24 0 0 1 7.04 1.6c2.944 1.088 4.928 2.688 5.76 4.864l34.56 49.216 25.6-42.88v0.64a25.6 25.6 0 0 1 10.56-11.52c5.376-3.456 11.392-4.48 18.304-3.2a17.28 17.28 0 0 1 7.36 6.08 34.88 34.88 0 0 1 4.416 9.344 31.872 31.872 0 0 1 1.6 9.856 14.528 14.528 0 0 1-1.92 8l-33.28 42.944 50.56 13.44c4.672 1.664 8 5.632 9.856 11.776a18.88 18.88 0 0 1-2.24 16.96M704 704v-70.4H448V0H384V633.6H128V704h576z"  horiz-adv-x="1024" />

    
    <glyph glyph-name="youhuazhanshicengjibeifen-copy" unicode="&#59323;" d="M480 0V768h-384v-128h-64V800A32 32 0 0 0 64 832h896a32 32 0 0 0 32-32v-159.872h-64V768h-384v-768h384v128.064h64V-32a32 32 0 0 0-32-32H64a32 32 0 0 0-32 32V128h64v-128h384zM274.752 416L193.6 497.152a32 32 0 1 0 45.248 45.248l135.808-135.744a32 32 0 0 0 0-45.312l-135.808-135.68a32 32 0 1 0-45.248 45.184L274.752 352H96a32 32 0 0 0 0 64h178.752z m474.816 0.128H928a32 32 0 1 0 0-64h-179.008l81.408-81.408a32 32 0 1 0-45.248-45.312l-135.808 135.808A31.872 31.872 0 0 0 640 384.128a32 32 0 0 0 12.096 25.024l133.056 133.12a32 32 0 1 0 45.248-45.312l-80.832-80.832z"  horiz-adv-x="1170" />

    
    <glyph glyph-name="qiehuan" unicode="&#59228;" d="M512 576H320a192 192 0 0 1-1.792-384l-42.496-59.392C155.136 155.32799999999997 64 259.264 64 384c0 141.44 116.992 256 261.312 256h314.304L512 461.376V576z m-102.72-384l81.92 114.688V192H704a192 192 0 0 1 0 384h-20.096l44.608 62.336C858.88 623.808 960 515.456 960 384c0-141.44-116.992-256-261.312-256H363.52l45.76 64z"  horiz-adv-x="1024" />

    
    <glyph glyph-name="shouqi2" unicode="&#59226;" d="M186.181818 337.45454500000005h651.636364V430.545455H186.181818z"  horiz-adv-x="1024" />

    
    <glyph glyph-name="zhankai2" unicode="&#59227;" d="M465.454545 430.545455V709.818182h93.09091v-279.272727h279.272727v-93.09091H558.545455v-279.272727H465.454545V337.45454500000005H186.181818V430.545455h279.272727z"  horiz-adv-x="1024" />

    
    <glyph glyph-name="huifuquanxianjichengfuzhi" unicode="&#59145;" d="M295.232 619.392L374.4 540.288a19.2 19.2 0 0 0-13.568-32.768H170.304a19.2 19.2 0 0 0-19.2 19.2V717.184a19.2 19.2 0 0 0 32.832 13.568l66.048-66.048a384 384 0 1 0-29.504-530.56 32 32 0 1 0 48.832 41.28 320 320 0 1 1 25.92 444.032z"  horiz-adv-x="1024" />

    
    <glyph glyph-name="danyonghuxianzhi" unicode="&#59224;" d="M630.784 374.03306699999996c-110.3872-51.882667-155.101867-173.124267-155.101867-314.299734v-102.4H34.133333a443.938133 443.938133 0 0 0 291.566934 416.9728 273.066667 273.066667 0 1 0 304.264533 0l0.750933-0.273066zM648.533333 230.39999999999998v34.133333a136.533333 136.533333 0 1 0 273.066667 0v-34.133333h34.133333a34.133333 34.133333 0 0 0 34.133334-34.133333V76.79999999999995a187.733333 187.733333 0 0 0-187.733334-187.733333h-34.133333A187.733333 187.733333 0 0 0 580.266667 76.79999999999995v119.466667a34.133333 34.133333 0 0 0 34.133333 34.133333H648.533333z m68.266667 0h136.533333v34.133333a68.266667 68.266667 0 0 1-136.533333 0v-34.133333z m68.266667-98.986667a34.133333 34.133333 0 0 1-34.133334-34.133333v-68.266667a34.133333 34.133333 0 1 1 68.266667 0v68.266667a34.133333 34.133333 0 0 1-34.133333 34.133333z"  horiz-adv-x="1024" />

    
    <glyph glyph-name="jiejuecuoshi" unicode="&#59142;" d="M656.128 319.616l147.712-147.712a96 96 0 0 0-135.744-135.744L520.32 183.87199999999996l-133.12-133.12A128 128 0 1 0 206.08 231.67999999999995L384.64 410.176l-104.96 104.96a96 96 0 0 0-109.312 18.816L102.4 601.7919999999999l135.744 135.808 67.904-67.84a96 96 0 0 0 18.752-109.312l105.024-105.024 47.872 47.872 1.28 1.216a223.744 223.744 0 0 0 62.08 197.888 223.744 223.744 0 0 0 197.888 62.08l-17.472-17.472 17.472 17.472a410.24 410.24 0 0 0 68.992-21.504c-19.2-16.128-34.176-29.696-45.056-40.576-7.168-7.168-19.264-20.736-36.288-40.768a64 64 0 1 1 90.496-90.496c17.92 17.152 31.488 30.336 40.768 39.616 8.832 8.832 22.4 22.784 40.64 41.792 11.328-23.68 18.496-46.72 21.44-69.056l-17.472-17.472 17.472 17.472a223.744 223.744 0 0 0-62.08-197.888 223.744 223.744 0 0 0-197.888-62.08 130.688 130.688 0 0 0-1.28-1.28l-2.56-2.56zM352 287.10400000000004l-100.672-100.608A64 64 0 1 1 341.952 96l271.488 271.488 0.64 0.64 4.288 4.416 7.552 7.552c1.28 1.28 2.432 2.56 3.52 3.84l8.32 8.512 33.408-5.952a159.744 159.744 0 0 1 141.44 44.352c25.536 25.6 40.576 57.6 45.248 90.752a128 128 0 0 0-180.8 180.864 159.296 159.296 0 0 1-90.752-45.312 159.744 159.744 0 0 1-44.352-141.44l5.952-33.408-7.04-6.848a64.64 64.64 0 0 1-5.44-4.864L354.368 289.53599999999994a65.024 65.024 0 0 1-2.304-2.432z m258.816-12.736l-45.312-45.248 147.776-147.712a32 32 0 1 1 45.248 45.248L610.88 274.36800000000005z m-417.92 327.424l22.592-22.592a32 32 0 1 1 45.248 45.248l-22.656 22.656-45.248-45.312z"  horiz-adv-x="1024" />

    
    <glyph glyph-name="yindao" unicode="&#59143;" d="M440 336V480H190.928a38.688 38.688 0 0 0-38.928 38.4V633.6c0 21.216 17.424 38.4 38.928 38.4H440V720a48 48 0 0 0 48 48h48a48 48 0 0 0 48-48v-48H800c9.12 0 17.952-3.168 24.96-8.88l88.032-72.384a19.008 19.008 0 0 0 0-29.472l-88.08-72.384A39.264 39.264 0 0 0 800 480h-216v-144h249.072c21.504 0 38.928-17.184 38.928-38.4v-115.2c0-21.216-17.424-38.4-38.928-38.4H584v-96a48 48 0 0 0-48-48h-48a48 48 0 0 0-48 48v96H224a39.264 39.264 0 0 0-24.96 8.88l-88.032 72.384a19.008 19.008 0 0 0 0 29.472l88.08 72.384A39.264 39.264 0 0 0 224 336h216z"  horiz-adv-x="1024" />

    
    <glyph glyph-name="yichangxiangqing" unicode="&#59144;" d="M255.744 0V320a256 256 0 1 0 512 0v-320h96a32 32 0 1 0 0-64h-704a32 32 0 1 0 0 64h96z m64 0h384V320a192 192 0 0 1-384 0v-320z m177.28 256h84.288c8.576 0 16.384-3.392 22.144-8.896a32 32 0 0 0 5.76-39.296l-64-110.848a32 32 0 0 0-55.424 32L526.208 192H445.888a32 32 0 0 0-32.256 47.68l64 110.848a32 32 0 0 0 55.424-32L496.96 256z m14.72 576a32 32 0 0 0 32-32v-128a32 32 0 0 0-64 0v128a32 32 0 0 0 32 32z m-240-51.264a32 32 0 0 0 43.712-11.712l64-110.848a32 32 0 1 0-55.424-32l-64 110.848a32 32 0 0 0 11.712 43.712zM95.808 611.2a32 32 0 0 0 43.712 11.712l110.848-64a32 32 0 0 0-32-55.424l-110.848 64a32 32 0 0 0-11.712 43.712z m831.872 0a32 32 0 0 0-11.712-43.712l-110.848-64a32 32 0 0 0-32 55.424l110.848 64a32 32 0 0 0 43.712-11.712z m-175.936 169.536a32 32 0 0 0 11.712-43.712l-64-110.848a32 32 0 0 0-55.424 32l64 110.848a32 32 0 0 0 43.712 11.712z"  horiz-adv-x="1024" />

    
    <glyph glyph-name="yichang" unicode="&#59062;" d="M512 833.992125a440.99228232 440.99228232 0 0 1-175.21568349-35.15563477 451.56709776 451.56709776 0 0 1-143.32249161-96.29831425A451.56709776 451.56709776 0 0 1 97.16350977 559.21568349 440.99228232 440.99228232 0 0 1 62.007875 384a440.99228232 440.99228232 0 0 1 35.15563477-175.21568349 451.56709776 451.56709776 0 0 1 96.29831513-143.32249248 451.56709776 451.56709776 0 0 1 143.32249161-96.29831426A440.99228232 440.99228232 0 0 1 512-65.99212499999999a440.99228232 440.99228232 0 0 1 175.21568349 35.15563477 451.56709776 451.56709776 0 0 1 143.32249248 96.29831425 451.56709776 451.56709776 0 0 1 96.29831426 143.32249249A440.99228232 440.99228232 0 0 1 961.992125 384a440.99228232 440.99228232 0 0 1-35.15563477 175.21568349 451.56709776 451.56709776 0 0 1-96.29831425 143.32249248A451.56709776 451.56709776 0 0 1 687.21568349 798.83649023 440.99228232 440.99228232 0 0 1 512 833.992125z m0-705.25015839a50.06162373 50.06162373 0 0 0-36.78685576 15.13098544 50.06162373 50.06162373 0 0 0-15.18723457 36.78685664 50.06162373 50.06162373 0 0 0 15.18723457 36.73060664 50.06162373 50.06162373 0 0 0 36.78685576 15.18723457 50.06162373 50.06162373 0 0 0 36.78685664-15.18723457c10.12482246-10.06857422 15.18723457-22.33085888 15.18723369-36.73060664a50.06162373 50.06162373 0 0 0-15.18723369-36.78685664 50.06162373 50.06162373 0 0 0-36.78685664-15.18723369z m51.91784121 224.99606337a50.06162373 50.06162373 0 0 0-15.18723369-36.78685664 50.06162373 50.06162373 0 0 0-36.73060752-15.18723457 50.06162373 50.06162373 0 0 0-36.78685576 15.18723457 50.06162373 50.06162373 0 0 0-15.18723457 36.78685664V596.0025401299999a50.06162373 50.06162373 0 0 0 15.18723457 36.78685576 50.06162373 50.06162373 0 0 0 36.78685576 15.18723458 50.06162373 50.06162373 0 0 0 36.78685664-15.18723458c10.12482246-10.12482246 15.18723457-22.33085888 15.18723369-36.78685576v-242.26451015z"  horiz-adv-x="1024" />

    
    <glyph glyph-name="chenggong1" unicode="&#59102;" d="M336.78431651 798.83649023a451.56709776 451.56709776 0 0 1-143.32249161-96.29831426A451.56709776 451.56709776 0 0 1 97.16350977 559.21568349 440.99228232 440.99228232 0 0 1 62.007875 384a440.99228232 440.99228232 0 0 1 35.15563477-175.21568349 451.56709776 451.56709776 0 0 1 96.29831513-143.32249248 451.56709776 451.56709776 0 0 1 143.32249161-96.29831426A440.99228232 440.99228232 0 0 1 512-65.99212499999999a440.99228232 440.99228232 0 0 1 175.21568349 35.15563477 451.56709776 451.56709776 0 0 1 143.32249248 96.29831425 451.56709776 451.56709776 0 0 1 96.29831426 143.32249249A440.99228232 440.99228232 0 0 1 961.992125 384a440.99228232 440.99228232 0 0 1-35.15563477 175.21568349 451.56709776 451.56709776 0 0 1-96.29831425 143.32249248A451.56709776 451.56709776 0 0 1 687.21568349 798.83649023 440.99228232 440.99228232 0 0 1 512 833.992125a440.99228232 440.99228232 0 0 1-175.21568349-35.15563477z m119.64165644-633.70140996A21.59962208 21.59962208 0 0 0 441.12624013 159.0039375a21.59962208 21.59962208 0 0 0-15.24348281 6.1873919l-6.52488574 6.13114277L237.27980761 343.5007084A19.12466513 19.12466513 0 0 0 230.75492187 357.90045703a19.12466513 19.12466513 0 0 0 6.52488575 14.39974776l44.71796777 42.01801435a21.59962208 21.59962208 0 0 0 15.24348281 6.1873919c5.84989805 0 10.91230928-2.08121396 15.2434837-6.1873919L441.12624013 292.31410488999995l270.38901885 254.35804833a21.59962208 21.59962208 0 0 0 15.1872337 6.13114277c5.84989805 0 10.9685584-2.02496484 15.29973281-6.18739188l44.71796689-42.01801437a19.12466513 19.12466513 0 0 0 6.52488574-14.34349951 19.12466513 19.12466513 0 0 0-6.52488574-14.34349862l-330.29421943-310.71956221z"  horiz-adv-x="1024" />

    
    <glyph glyph-name="yichangbaocuo" unicode="&#59141;" d="M512-65.99212499999999a440.99228232 440.99228232 0 0 0-175.21568349 35.15563477 451.56709776 451.56709776 0 0 0-143.32249161 96.29831425 451.56709776 451.56709776 0 0 0-96.29831513 143.32249249A440.99228232 440.99228232 0 0 0 62.007875 384a440.99228232 440.99228232 0 0 0 35.15563477 175.21568349 451.56709776 451.56709776 0 0 0 96.29831513 143.32249248A451.56709776 451.56709776 0 0 0 336.78431651 798.83649023 440.99228232 440.99228232 0 0 0 512 833.992125a440.99228232 440.99228232 0 0 0 175.21568349-35.15563477 451.56709776 451.56709776 0 0 0 143.32249248-96.29831425 451.56709776 451.56709776 0 0 0 96.29831426-143.32249249A440.99228232 440.99228232 0 0 0 961.992125 384a440.99228232 440.99228232 0 0 0-35.15563477-175.21568349 451.56709776 451.56709776 0 0 0-96.29831425-143.32249248 451.56709776 451.56709776 0 0 0-143.32249249-96.29831426A440.99228232 440.99228232 0 0 0 512-65.99212499999999z m206.60263417 580.88358457a21.37462559 21.37462559 0 0 1 6.46863751 15.6934749 21.37462559 21.37462559 0 0 1-6.4686375 15.69347579l-46.51793525 45.39295546a20.75588701 20.75588701 0 0 1-30.2619709 0L512 461.90488682 381.10854043 591.67136572a20.75588701 20.75588701 0 0 1-30.26197002 0l-46.51793614-45.39295546a23.68083516 23.68083516 0 0 1-5.39990507-15.7497249c0-6.07489365 1.79996836-11.30605224 5.39990507-15.63722579l130.89145958-129.82272803-130.89145957-129.76647891a23.68083516 23.68083516 0 0 1-5.39990508-15.7497249c0-6.07489365 1.79996836-11.30605224 5.39990507-15.63722666l46.51793614-45.44920459a20.75588701 20.75588701 0 0 1 30.26197001 0L512 308.28882451000004l129.82272803-129.82272803a20.75588701 20.75588701 0 0 1 30.2619709 0l46.51793525 45.44920459a21.37462559 21.37462559 0 0 1 6.4686375 15.69347578 21.37462559 21.37462559 0 0 1-6.4686375 15.69347578L587.71117549 385.06873154l130.89145869 129.82272803z"  horiz-adv-x="1024" />

    
    <glyph glyph-name="tianjiayewubao1" unicode="&#59318;" d="M576 27.456000000000017v-59.456h320H128c-35.328 0-64 26.624-64 59.456V740.48c0 32.832 28.672 59.456 64 59.456h320l128-118.848h320c35.328 0 64-26.624 64-59.456v-432V352h-64V448H128v-420.544h448zM896 512V621.696H549.504l-128 118.848H128V512h768zM224 384H448a32 32 0 0 0 0-64H224a32 32 0 0 0 0 64z m0-128H320a32 32 0 1 0 0-64H224a32 32 0 1 0 0 64z m512-64V320a32 32 0 1 0 64 0v-128h128a32 32 0 1 0 0-64h-128v-128a32 32 0 1 0-64 0v128h-128a32 32 0 1 0 0 64h128z"  horiz-adv-x="1024" />

    
    <glyph glyph-name="kuaijieshezhi" unicode="&#59058;" d="M597.76-60.60799999999995a437.12 437.12 0 0 0-8.256-2.24 36.992 36.992 0 0 0-42.56 20.224A74.112 74.112 0 0 1 480 0a74.112 74.112 0 0 1-66.944-42.688 36.928 36.928 0 0 0-42.56-20.16 443.968 443.968 0 0 0-211.968 125.888 39.232 39.232 0 0 0-4.352 48c15.872 24.448 16.768 55.488 2.496 80.896a74.24 74.24 0 0 1-69.44 38.272 37.312 37.312 0 0 0-38.272 27.84A471.872 471.872 0 0 0 32 384c0 42.56 5.632 84.928 16.96 125.888a36.864 36.864 0 0 0 38.272 27.84c28.352-1.984 55.296 12.8 69.44 38.208a78.272 78.272 0 0 1-2.496 80.96 39.232 39.232 0 0 0 4.352 48 444.48 444.48 0 0 0 211.968 125.952 36.992 36.992 0 0 0 42.56-20.224c12.544-26.24 38.528-42.816 66.944-42.688 28.416-0.128 54.4 16.448 66.944 42.688a36.928 36.928 0 0 0 42.56 20.224 444.608 444.608 0 0 0 211.968-125.952c12.16-12.992 14.016-32.896 4.288-48-15.808-24.256-16.768-55.68-2.496-80.896h-70.016a162.176 162.176 0 0 0 3.968 103.872 381.952 381.952 0 0 1-136.576 81.28 151.808 151.808 0 0 0-241.28 0 382.272 382.272 0 0 1-136.576-81.28 161.92 161.92 0 0 0-10.176-137.152 153.344 153.344 0 0 0-110.528-77.632 412.16 412.16 0 0 1 0-162.176c46.464-7.104 87.232-35.712 110.528-77.696 23.616-41.728 27.328-92.16 10.176-137.088a382.464 382.464 0 0 1 136.512-81.216 151.872 151.872 0 0 0 241.344 0 377.6 377.6 0 0 1 13.312 4.736l-16.256-72.32z m26.56 571.264l-30.464-68.096a128 128 0 1 1-81.6-182.464L481.792 192H480a192 192 0 1 0 144.32 318.656zM734.592 422.4l-87.744-204.8h125.696a25.6 25.6 0 0 0 25.088-30.976l-31.488-146.752 173.44 222.72h-112.192a25.6 25.6 0 0 0-20.992 40.256L889.792 422.4h-155.2z m-126.592-256a25.6 25.6 0 0 0-23.552 35.712l109.76 256a25.6 25.6 0 0 0 23.488 15.488h221.12a25.6 25.6 0 0 0 20.992-40.256l-83.328-119.552H992a25.6 25.6 0 0 0 20.224-41.344l-274.304-352.192c-16.704-21.44-50.944-5.504-45.248 21.12l48.256 225.024H608z"  horiz-adv-x="1024" />

    
    <glyph glyph-name="tezhengtiaoyong" unicode="&#59317;" d="M429.568 7.04l-0.768-1.344-296.32 171.008a64 64 0 0 0-32 55.424V574.272a64 64 0 0 0 32 55.424L428.8 800.64a64 64 0 0 0 64 0L627.136 723.2A64 64 0 0 0 640 717.44l296.32-171.008a64 64 0 0 0 32-55.424v-342.144a64 64 0 0 0-32-55.424L640-77.44a64 64 0 0 0-64 0l-146.432 84.48z m-181.824 177.088V491.072a64 64 0 0 0 32 55.424l262.72 151.68L460.8 745.28 164.48 574.272v-342.144l83.2-48z m510.08 391.488l-0.768-1.344L606.464 661.12 311.68 491.072v-342.144L608-22.08l296.32 171.008V491.072l-146.496 84.48zM608 224a96 96 0 1 0 0 192 96 96 0 0 0 0-192z"  horiz-adv-x="1024" />

    
    <glyph glyph-name="tishi_chenggong" unicode="&#59316;" d="M780.48 599.530667a38.464 38.464 0 0 0 49.738667-4.117334 32.992 32.992 0 0 0 0-46.506666l-312.853334-314.826667a42.666667 42.666667 0 0 0-63.658666 3.52L319.072 406.954667a36.864 36.864 0 0 0 2.709333 48.917333 39.744 39.744 0 0 0 50.336 4.992l86.826667-58.250667a42.666667 42.666667 0 0 1 48.672 0.789334l272.874667 196.128zM669.696 634.666667a26.666667 26.666667 0 1 0-29.973333-44.106667A254.656 254.656 0 0 1 496 634.666667c-141.386667 0-256-114.613333-256-256s114.613333-256 256-256 256 114.613333 256 256a26.666667 26.666667 0 1 0 53.333333 0c0-170.837333-138.496-309.333333-309.333333-309.333334s-309.333333 138.496-309.333333 309.333334 138.496 309.333333 309.333333 309.333333c62.784 0 122.837333-18.773333 173.685333-53.333333z"  horiz-adv-x="1024" />

    
    <glyph glyph-name="normal104" unicode="&#59055;" d="M315.648 257.15200000000004H928a32 32 0 1 0 0-64H316.16A128.512 128.512 0 0 0 192 96c-70.4 0-128 57.6-128 128s57.6 128 128 128c58.944 0 108.928-40.384 123.648-94.848z m0 448H928a32 32 0 1 0 0-64H316.224A128.512 128.512 0 0 0 192 544c-70.4 0-128 57.6-128 128s57.6 128 128 128c58.944 0 108.928-40.32 123.584-94.848zM544 480h384a32 32 0 1 0 0-64h-384a32 32 0 0 0 0 64z m0-448h384a32 32 0 1 0 0-64h-384a32 32 0 1 0 0 64zM192 736c-38.4 0-64-25.6-64-64s25.6-64 64-64 64 25.6 64 64-25.6 64-64 64z m0-448c-38.4 0-64-25.6-64-64s25.6-64 64-64 64 25.6 64 64-25.6 64-64 64z"  horiz-adv-x="1024" />

    
    <glyph glyph-name="fenxiangguanbi" unicode="&#59053;" d="M896 256h-64v27.328a64 64 0 0 1-128 0V256h-64v27.328a128 128 0 1 0 256 0V256z m-288 0h320a32 32 0 0 0 32-32v-256a32 32 0 0 0-32-32h-320a32 32 0 0 0-32 32v256a32 32 0 0 0 32 32z m32-64v-192h256v192h-256zM390.848 507.264l221.696 128 32-55.424-221.696-128-32 55.424zM512 264.576v-73.92L384 264.576 416 320l96-55.424zM768 512a128 128 0 1 1 0 256 128 128 0 0 1 0-256z m0-64a192 192 0 1 0 0 384 192 192 0 0 0 0-384z m-512-192a128 128 0 1 1 0 256 128 128 0 0 1 0-256z m0-64a192 192 0 1 0 0 384 192 192 0 0 0 0-384z"  horiz-adv-x="1024" />

    
    <glyph glyph-name="qiehuansuanfa" unicode="&#59052;" d="M720.32 218.49599999999998l-132.992-131.776a32 32 0 0 1 45.056-45.44l188.16 186.496a32 32 0 0 1-22.464 54.72H224a32 32 0 1 1 0-64h496.32zM434.88 675.84a32 32 0 0 1-45.12 45.44L201.6 534.72A32 32 0 0 1 224 480h574.08a32 32 0 1 1 0 64H301.824l132.992 131.776z"  horiz-adv-x="1024" />

    
    <glyph glyph-name="guanlianguize" unicode="&#59304;" d="M704 576h-64V704H192v-384h448V384h64v-64a64 64 0 0 0-64-64H192a64 64 0 0 0-64 64V704a64 64 0 0 0 64 64h448a64 64 0 0 0 64-64v-128z m-384-384h64v-128h448V448H384v-64H320V448a64 64 0 0 0 64 64h448a64 64 0 0 0 64-64v-384a64 64 0 0 0-64-64H384a64 64 0 0 0-64 64v128z"  horiz-adv-x="1024" />

    
    <glyph glyph-name="guiyihuabiaozhunhua" unicode="&#59305;" d="M704 64h192V704h-192V768h192a64 64 0 0 0 64-64v-640a64 64 0 0 0-64-64h-192v64zM320 704H128v-640h192v-64H128a64 64 0 0 0-64 64V704a64 64 0 0 0 64 64h192v-64z m0-192a32 32 0 0 0 32-32v-320a32 32 0 1 0-64 0v320A32 32 0 0 0 320 512z m192 128a32 32 0 0 0 32-32v-448a32 32 0 1 0-64 0v448A32 32 0 0 0 512 640z m192-192a32 32 0 0 0 32-32v-256a32 32 0 1 0-64 0v256A32 32 0 0 0 704 448z"  horiz-adv-x="1024" />

    
    <glyph glyph-name="fenlei" unicode="&#59306;" d="M546.304 307.84v-174.912L704 41.92l157.696 91.008V315.072l-152.128 87.808a64 64 0 0 0-7.872-5.376L546.304 307.84z m187.392 154.944l2.304-1.28 157.696-91.008a64 64 0 0 0 32-55.424v-182.144a64 64 0 0 0-32-55.424L736-13.44a64 64 0 0 0-64 0L514.304 77.44A64.192 64.192 0 0 0 512 78.912a64.192 64.192 0 0 0-2.304-1.408L352-13.44a64 64 0 0 0-64 0L130.304 77.44a64 64 0 0 0-32 55.424V315.072a64 64 0 0 0 32 55.424L288 461.44l2.304 1.28V635.072a64 64 0 0 0 32 55.424L480 781.44a64 64 0 0 0 64 0l157.696-91.008a64 64 0 0 0 32-55.424V462.72z m-64-2.56V635.072L512 726.08 354.304 635.072V460.16l155.392-89.728 2.304-1.408 2.304 1.408 155.392 89.728z m-192-152.448L322.304 397.504a64 64 0 0 0-7.872 5.376L162.304 315.072v-182.144L320 41.92l157.696 91.008V307.84z"  horiz-adv-x="1024" />

    
    <glyph glyph-name="julei" unicode="&#59307;" d="M141.184-29.184a32 32 0 0 0-42.368 42.368A64 64 0 0 0 96 32v704a64 64 0 0 0 64 64h704a64 64 0 0 0 18.816-2.816 32 32 0 0 0 42.368-42.368 64 64 0 0 0 2.816-18.816v-704a64 64 0 0 0-64-64h-704a64 64 0 0 0-18.816 2.816z m18.816 106.432L818.752 736H160v-658.752z m704 613.504L205.248 32H864V690.752zM544 576a64 64 0 1 0 0 128 64 64 0 0 0 0-128z m192-256a64 64 0 1 0 0 128 64 64 0 0 0 0-128z m-448 224a64 64 0 1 0 0 128 64 64 0 0 0 0-128z m-32-256a64 64 0 1 0 0 128 64 64 0 0 0 0-128z m256-192a64 64 0 1 0 0 128 64 64 0 0 0 0-128z"  horiz-adv-x="1024" />

    
    <glyph glyph-name="xiangguanxingfenxi" unicode="&#59308;" d="M733.44 305.536A160 160 0 1 0 643.2 128h-262.4a160 160 0 1 0-90.24 177.536l130.56 234.816a160 160 0 1 0 181.888 0l130.368-234.88z m-52.096-38.208L543.744 515.2a160.768 160.768 0 0 0-63.424 0L342.656 267.328c18.88-20.8 32.32-46.72 38.144-75.328h262.4c5.76 28.672 19.264 54.528 38.144 75.328zM512 576a96 96 0 1 1 0 192 96 96 0 0 1 0-192z m-288-512a96 96 0 1 1 0 192 96 96 0 0 1 0-192z m576 0a96 96 0 1 1 0 192 96 96 0 0 1 0-192z"  horiz-adv-x="1024" />

    
    <glyph glyph-name="huigui" unicode="&#59309;" d="M192 96.768c147.584 19.776 244.8 82.24 295.616 187.776 12.8 26.56 22.208 55.68 30.464 91.84 3.904 17.024 6.016 27.712 12.8 63.168 36.8 194.432 94.4 269.888 296.96 296.192a32 32 0 0 0 8.32-63.488c-170.24-22.08-210.176-74.496-242.432-244.608-6.912-36.288-9.088-47.36-13.248-65.6-9.28-40.448-20.096-73.856-35.2-105.28C501.312 165.44 428.352 101.12 327.936 64H864a32 32 0 1 0 0-64H192a64 64 0 0 0-64 64V736a32 32 0 0 0 64 0v-639.232zM832 448a64 64 0 1 0 0 128 64 64 0 0 0 0-128zM448 640a64 64 0 1 0 0 128 64 64 0 0 0 0-128z m256-448a64 64 0 1 0 0 128 64 64 0 0 0 0-128zM320 384a64 64 0 1 0 0 128 64 64 0 0 0 0-128z"  horiz-adv-x="1024" />

    
    </font>
</defs>
</svg>
