<?xml version="1.0" standalone="no"?>
<!DOCTYPE svg PUBLIC "-//W3C//DTD SVG 1.1//EN" "http://www.w3.org/Graphics/SVG/1.1/DTD/svg11.dtd" >
<!--
2013-9-30: Created.
-->
<svg>
<metadata>
Created by iconfont
</metadata>
<defs>

<font id="bi" horiz-adv-x="1024" >
  <font-face
    font-family="bi"
    font-weight="500"
    font-stretch="normal"
    units-per-em="1024"
    ascent="896"
    descent="-128"
  />
    <missing-glyph />
    
    <glyph glyph-name="x" unicode="x" horiz-adv-x="1001"
d="M281 543q-27 -1 -53 -1h-83q-18 0 -36.5 -6t-32.5 -18.5t-23 -32t-9 -45.5v-76h912v41q0 16 -0.5 30t-0.5 18q0 13 -5 29t-17 29.5t-31.5 22.5t-49.5 9h-133v-97h-438v97zM955 310v-52q0 -23 0.5 -52t0.5 -58t-10.5 -47.5t-26 -30t-33 -16t-31.5 -4.5q-14 -1 -29.5 -0.5
t-29.5 0.5h-32l-45 128h-439l-44 -128h-29h-34q-20 0 -45 1q-25 0 -41 9.5t-25.5 23t-13.5 29.5t-4 30v167h911zM163 247q-12 0 -21 -8.5t-9 -21.5t9 -21.5t21 -8.5q13 0 22 8.5t9 21.5t-9 21.5t-22 8.5zM316 123q-8 -26 -14 -48q-5 -19 -10.5 -37t-7.5 -25t-3 -15t1 -14.5
t9.5 -10.5t21.5 -4h37h67h81h80h64h36q23 0 34 12t2 38q-5 13 -9.5 30.5t-9.5 34.5q-5 19 -11 39h-368zM336 498v228q0 11 2.5 23t10 21.5t20.5 15.5t34 6h188q31 0 51.5 -14.5t20.5 -52.5v-227h-327z" />
    

    
    <glyph glyph-name="sousuo" unicode="&#58884;" d="M894.3872-7.013632 655.1552 235.39072c52.4288 55.12704 72.761344 122.871808 72.761344 205.053952 0 169.146368-130.610176 305.958912-298.596352 305.958912-167.962624 0-304.633856-137.617408-304.633856-306.763776 0-169.147392 134.541312-299.305984 302.50496-299.305984 70.132736 0 136.737792 16.780288 188.269568 57.020416l240.959488-244.130816c4.405248-4.451328 10.180608-6.677504 15.954944-6.677504 5.776384 0 15.337472 6.816768 19.739648 11.266048C900.921344-33.33248 903.1936-15.913216 894.3872-7.013632zM172.831744 443.427584c0 140.362752 113.378304 254.498816 252.724224 254.498816 139.368448 0 252.7488-114.136064 252.7488-254.498816 0-140.316672-113.381376-254.49984-252.7488-254.49984C286.210048 188.927744 172.831744 303.110912 172.831744 443.427584z"  horiz-adv-x="1024" />

    
    <glyph glyph-name="dian" unicode="&#58886;" d="M352.328 287.653c0-88.364 71.634-159.998 159.998-159.998s159.998 71.634 159.998 159.998c0 88.364-71.634 159.998-159.998 159.998-88.364 0-159.998-71.634-159.998-159.998z"  horiz-adv-x="1024" />

    
    <glyph glyph-name="jinzhi" unicode="&#59100;" d="M512 709.322479c-226.067037 0-409.33966-183.257767-409.33966-409.322479 0-226.062666 183.272623-409.322479 409.33966-409.322479s409.33966 183.259814 409.33966 409.322479C921.33966 526.064712 738.067037 709.322479 512 709.322479zM819.004745 300c0-66.138326-21.098389-127.401622-56.808158-177.573301L334.423339 550.192226c50.167645 35.710316 111.440676 56.800657 177.575638 56.800657C681.281393 606.99186 819.004745 469.274288 819.004745 300zM204.995255 300c0 66.61007 21.397207 128.284735 57.585903 178.656983l428.083323-428.070472c-50.368222-36.181037-112.050592-57.57837-178.664481-57.57837C342.718607-6.99186 204.995255 130.725712 204.995255 300z"  horiz-adv-x="1024" />

    
    <glyph glyph-name="ordinaryset" unicode="&#59031;" d="M955.136 436.524h-44.416c-20.288 0-41.792 15.872-47.872 35.264l-25.408 61.824c-9.536 17.92-5.696 44.288 8.64 58.688l31.488 31.36c14.4 14.464 14.4 37.952 0 52.288l-52.288 52.16c-14.4 14.4-37.888 14.4-52.224 0l-31.488-31.36c-14.336-14.336-40.768-18.304-58.688-8.64l-61.76 25.408c-19.328 6.016-35.264 27.584-35.264 47.872v44.352c0 20.288-16.64 36.928-36.928 36.928h-73.792c-20.352 0-36.992-16.64-36.992-36.928v-44.352c0-20.352-15.808-41.92-35.264-47.936l-61.824-25.344c-17.92-9.6-44.224-5.696-58.624 8.64l-31.488 31.424c-14.336 14.4-37.824 14.4-52.16 0l-52.224-52.16c-14.4-14.4-14.4-37.888 0-52.224l31.36-31.424c14.4-14.4 18.304-40.768 8.704-58.688l-25.472-61.888c-6.016-19.392-27.584-35.264-47.872-35.264h-44.288c-20.352 0-36.992-16.576-36.992-36.928v-73.792c0-20.352 16.64-36.928 36.928-36.928h44.352c20.288-0.064 41.792-15.936 47.808-35.328l25.536-61.824c9.536-17.92 5.696-44.416-8.704-58.688l-31.424-31.36c-14.336-14.464-14.336-37.952 0-52.288l52.288-52.224c14.336-14.4 37.824-14.4 52.16 0l31.488 31.424c14.272 14.336 40.64 18.24 58.496 8.576l61.952-25.408c19.456-6.080 35.264-27.584 35.264-47.872v-44.16c0-20.288 16.64-36.928 36.992-36.928h73.792c20.224 0 36.928 16.64 36.928 36.928v44.16c0 20.288 15.936 41.792 35.264 47.872l61.888 25.408c17.856 9.664 44.352 5.76 58.688-8.576l31.296-31.424c14.4-14.4 37.888-14.4 52.224 0l52.288 52.224c14.4 14.4 14.4 37.888 0 52.288l-31.488 31.36c-14.336 14.272-18.176 40.768-8.64 58.688l25.408 61.824c6.080 19.392 27.648 35.264 47.872 35.264h44.352c20.224 0 36.864 16.576 36.864 36.928v73.856c0.128 20.352-16.512 36.928-36.736 36.928M696.704 362.732c0-102.016-82.624-184.576-184.576-184.576-102.016 0-184.64 82.56-184.64 184.576 0 101.952 82.688 184.576 184.64 184.576 101.952 0 184.576-82.624 184.576-184.576z"  horiz-adv-x="1024" />

    
    <glyph glyph-name="zuojiantou" unicode="&#58881;" d="M287.39 301.032l434.134 434.133c8.991 8.992 23.57 8.992 32.561 0 8.992-8.992 8.992-23.57 0-32.561l-417.851-417.852 414.142-414.142c8.992-8.992 8.992-23.57 0-32.562-4.496-4.496-10.388-6.744-16.281-6.744-5.891 0-11.785 2.248-16.281 6.744l-430.424 430.423c-8.991 8.992-8.991 23.57 0 32.561z"  horiz-adv-x="1024" />

    
    <glyph glyph-name="youjiantou" unicode="&#58882;" d="M754.086 301.032l-434.134 434.133c-8.991 8.992-23.57 8.992-32.561 0-8.992-8.992-8.992-23.57 0-32.561l417.852-417.852-414.142-414.142c-8.992-8.992-8.992-23.57 0-32.562 4.496-4.496 10.388-6.744 16.281-6.744 5.891 0 11.785 2.248 16.281 6.744l430.424 430.423c8.99 8.992 8.99 23.57-0.001 32.561z"  horiz-adv-x="1024" />

    
    <glyph glyph-name="guanbi" unicode="&#58880;" d="M551.563064 299.115863l231.774761 231.774761c10.665921 10.667967 10.665921 27.963888 0 38.629809-10.667967 10.666944-27.962865 10.666944-38.629809 0L512.933255 337.745672 281.157471 569.521456c-10.66899 10.666944-27.963888 10.666944-38.629809 0-10.667967-10.665921-10.667967-27.961842 0-38.629809L474.302423 299.115863 242.527662 67.341103c-10.667967-10.667967-10.667967-27.963888 0-38.630832 10.665921-10.665921 27.960819-10.665921 38.629809 0L512.933255 260.486054l231.775784-231.775784c10.666944-10.665921 27.961842-10.665921 38.629809 0 10.665921 10.666944 10.665921 27.962865 0 38.630832L551.563064 299.115863z"  horiz-adv-x="1024" />

    
    <glyph glyph-name="xiala" unicode="&#58888;" d="M761.53117 446.46377 542.546713 124.143806c-15.226796-22.411429-48.25605-22.411429-63.482847 0L260.07941 446.46377c-14.104229 20.759813 3.526313 46.708811 31.733749 46.708811l437.983239 0C758.00588 493.173604 775.635399 467.223582 761.53117 446.46377z"  horiz-adv-x="1024" />

    
    <glyph glyph-name="wenhao" unicode="&#59034;" d="M511.997953 812.999768C229.234457 812.999768 0.010233 583.774521 0.010233 301.012048c0-282.763497 229.224224-511.988744 511.98772-511.988744s511.98772 229.225247 511.98772 511.988744C1023.985674 583.774521 794.762474 812.999768 511.997953 812.999768M511.997953-146.857481c-247.351033 0-447.869529 200.517472-447.869529 447.869529 0 247.351033 200.518495 447.868505 447.869529 447.868505 247.351033 0 447.869529-200.517472 447.869529-447.868505C959.867482 53.659991 759.348987-146.857481 511.997953-146.857481M412.334269 409.628621c0 0 16.059735 98.830715 114.89045 87.711492 98.829692-11.1182 76.593293-85.241236 66.709198-100.06482-9.882048-24.707679-101.300971-84.006108-116.124555-119.831986-14.824607-35.825878-13.589479-102.537123-13.589479-102.537123l88.947644 0c0 0-4.941536 70.416629 44.473822 100.065843 49.415358 29.649215 133.420442 116.125579 96.359436 198.896558-59.298429 95.124307-117.360707 105.007379-192.718871 102.536099-75.358164-2.470256-154.422737-39.532286-180.365543-154.422737C382.685054 413.335028 412.334269 409.628621 412.334269 409.628621M462.984754 141.551585l92.653028 0 0-101.287668-92.653028 0 0 101.287668Z"  horiz-adv-x="1024" />

    
    <glyph glyph-name="iconfontcolor91" unicode="&#59026;" d="M512 812C229.248 812 0 582.752 0 300s229.248-512 512-512c282.784 0 512 229.248 512 512S794.784 812 512 812zM800.432 268 544 268l0-256.432C544-5.872 529.664-20 512-20c-17.68 0-32 14.128-32 31.568L480 268 223.568 268C206.128 268 192 282.336 192 300c0 17.68 14.16 32 31.568 32L480 332 480 588.464C480 605.872 494.32 620 512 620c17.664 0 32-14.128 32-31.536L544 332l256.432 0C817.904 332 832 317.68 832 300 832 282.336 817.904 268 800.432 268z"  horiz-adv-x="1024" />

    
    <glyph glyph-name="xiala1" unicode="&#58883;" d="M512 40.096 233.344 318.752 278.656 364 512 130.656 745.344 364 790.656 318.752Z"  horiz-adv-x="1024" />

    
    <glyph glyph-name="shujuku" unicode="&#59027;" d="M802.122145 681.882524c-76.971046 33.062-180.719968 51.27071-292.1355 51.27071-111.419625 0-215.170594-18.207687-292.140617-51.27071-78.878488-33.881668-122.31886-80.337723-122.31886-130.811278l0-505.482563c0-50.475602 43.440371-96.931656 122.319883-130.812301 76.971046-33.060977 180.720991-51.268664 292.140617-51.268664 111.415532 0 215.165478 18.207687 292.134477 51.268664 78.879512 33.880645 122.319883 80.338746 122.320906 130.812301l0 505.482563C924.442028 601.544801 881.001657 648.000855 802.122145 681.882524zM756.015038 459.671583c-68.6311-23.537066-160.604838-37.589107-246.029416-37.589107-86.703711 0-176.380126 13.701047-246.035556 37.589107-73.178673 25.096585-113.479541 57.555857-113.479541 91.399663 0 33.843806 40.300868 66.303079 113.479541 91.39864 69.654406 23.88806 159.330822 37.588083 246.035556 37.588083 85.423555 0 177.396269-14.051017 246.029416-37.58706 73.181743-25.096585 113.482611-57.555857 113.482611-91.399663C869.497649 517.22744 829.196781 484.768167 756.015038 459.671583zM756.015038 304.134157c-68.632123-23.538089-160.605861-37.589107-246.029416-37.589107-86.703711 0-176.379103 13.700023-246.035556 37.589107-73.178673 25.096585-113.480564 57.557904-113.480564 91.40171l0 62.943564c34.903951-26.709315 85.219917-48.963155 146.0524-64.541969 63.723324-16.319687 137.53747-24.946159 213.46372-24.946159 75.92318 0 149.736303 8.626471 213.459626 24.947182 60.832484 15.579837 111.148449 37.833677 146.053424 64.542992l0-62.945611C869.497649 361.692061 829.196781 329.231765 756.015038 304.134157zM756.015038 129.161077c-68.6311-23.536043-160.603815-37.586037-246.029416-37.586037-86.704734 0-176.38115 13.700023-246.035556 37.586037-73.178673 25.095561-113.479541 57.553811-113.479541 91.397616L150.470525 302.943029c34.903951-26.710338 85.22094-48.964178 146.053424-64.542992 63.723324-16.319687 137.53747-24.947182 213.462696-24.947182 75.922157 0 149.735279 8.627495 213.459626 24.948205 60.832484 15.578814 111.148449 37.832653 146.053424 64.544015l0-82.386382C869.497649 186.714887 829.196781 154.256638 756.015038 129.161077zM509.985622-83.399063c-86.704734 0-176.38115 13.70207-246.035556 37.588083-73.178673 25.095561-113.479541 57.555857-113.479541 91.399663l0 82.382289c34.903951-26.708292 85.219917-48.961108 146.0524-64.539922 63.723324-16.319687 137.53747-24.947182 213.462696-24.947182 75.92318 0 149.736303 8.627495 213.459626 24.947182 60.832484 15.581883 111.148449 37.8347 146.053424 64.541969l0-82.384335c0-33.843806-40.301891-66.302055-113.482611-91.399663C687.383938-69.347023 595.411223-83.399063 509.985622-83.399063z"  horiz-adv-x="1024" />

    
    <glyph glyph-name="shanchu" unicode="&#58885;" d="M576 672v64h-192v-64h-256v-128h704v128h-256zM192-32c0-70.4 57.6-128 128-128h320c70.4 0 128 57.6 128 128v512h-576v-512zM576 416h64v-448h-64v448zM448 416h64v-448h-64v448zM320 416h64v-448h-64v448z"  horiz-adv-x="1024" />

    
    <glyph glyph-name="yangshishezhihuihua" unicode="&#58892;" d="M783.936 748 729.536 629.664 607.936 610.656 695.936 518.56 675.136 388.448 783.936 449.888 892.8 388.448 872 518.56 960 610.656 838.336 629.664 783.936 748 783.936 748ZM192.050216 279.776 152.379757 193.8066 64 179.947048 127.974892 112.959206 112.910161 18.453126 192.050216 63.145165 271.089839 18.453126 256.025108 112.959206 320 179.947048 231.620243 193.8066 192.050216 279.776 192.050216 279.776ZM391.488 19.36 366.336-35.424 309.952-44.256 350.72-86.944 341.12-147.168 391.488-118.752 441.92-147.168 432.32-86.944 473.088-44.256 416.768-35.424 391.488 19.36 391.488 19.36ZM175.872 545.76 259.904 636 343.872 545.76 259.904 455.648 175.872 545.76 175.872 545.76ZM259.904 701.088 111.488 541.856 259.904 382.688 754.176-148 902.592 11.232 259.904 701.088 259.904 701.088Z"  horiz-adv-x="1024" />

    
    <glyph glyph-name="guolvhuihua" unicode="&#58895;" d="M448 254.285715 64 748 960 748 576 254.285715 576-20 448-148 448 254.285715 448 254.285715Z"  horiz-adv-x="1024" />

    
    <glyph glyph-name="fuzhihuihua" unicode="&#58896;" d="M128-84 768-84 768-148 128-148 128-84 128-84ZM64 620 128 620 128-148 64-148 64 620 64 620ZM704 748 256 748C192 748 192 682.4 192 682.4L192 44C192-20 256-20 256-20L832-20C896-20 896 44 896 44L896 556 704 748 704 748ZM320 300 768 300 768 236 320 236 320 300 320 300ZM320 428 768 428 768 364 320 364 320 428 320 428ZM320 172 768 172 768 108 320 108 320 172 320 172ZM704 556 704 684 832 556 704 556 704 556Z"  horiz-adv-x="1024" />

    
    <glyph glyph-name="tongjigeshuyilaihuihua" unicode="&#58897;" d="M960 556 896 620 384 236 128 428 64 364 384-20 960 556"  horiz-adv-x="1024" />

    
    <glyph glyph-name="zhibiaolaizizhengchang" unicode="&#58898;" d="M384 428 640 428 640 364 384 364 384 428 384 428ZM448 556 576 556 576 492 448 492 448 556 448 556ZM960-84 64-84 64 306.592 256 748 768 748 960 306.592 960-84 960-84ZM832 300 705.63017 620 326.520683 620 192 300 389.705598 300 452.890513 172 579.260342 172 642.445254 300 832 300 832 300Z"  horiz-adv-x="1024" />

    
    <glyph glyph-name="tubiaoleixingzhengchang" unicode="&#58899;" d="M64 364 320 364 320-148 64-148 64 364 64 364ZM704 556 960 556 960-148 704-148 704 556 704 556ZM384 748 640 748 640-148 384-148 384 748 384 748Z"  horiz-adv-x="1024" />

    
    <glyph glyph-name="iocnduijitiaoxingtu" unicode="&#58890;" d="M128 726.666667l42.666667 0 0-853.333333-42.666667 0 0 853.333333ZM42.666667 1.333333l938.666667 0 0-42.666667-938.666667 0 0 42.666667ZM170.666667 641.333333l170.666667 0 0-128-170.666667 0 0 128ZM426.666667 641.333333l213.333333 0 0-128-213.333333 0 0 128ZM170.666667 428l384 0 0-128-384 0 0 128ZM640 428l298.666667 0 0-128-298.666667 0 0 128ZM170.666667 214.666667l213.333333 0 0-128-213.333333 0 0 128ZM469.333333 214.666667l256 0 0-128-256 0 0 128Z"  horiz-adv-x="1024" />

    
    <glyph glyph-name="iocnfuyong" unicode="&#58891;" d="M298.666667 513.333333l0-597.333333 682.666667 0L981.333333 513.333333 298.666667 513.333333zM938.666667-41.333333 341.333333-41.333333 341.333333 385.333333l597.333333 0L938.666667-41.333333zM42.666667 726.666667 42.666667 129.333333 256 129.333333 256 172 85.333333 172 85.333333 598.666667 682.666667 598.666667 682.666667 556 725.333333 556 725.333333 726.666667Z"  horiz-adv-x="1024" />

    
    <glyph glyph-name="iocngengduo" unicode="&#58893;" d="M42.666667 556l469.333333 0 0-42.666667-469.333333 0 0 42.666667ZM85.333333 470.666667l42.666667 0 0-256-42.666667 0 0 256ZM128 300l341.333333 0 0-42.666667-341.333333 0 0 42.666667ZM426.666667 470.666667l42.666667 0 0-213.333333-42.666667 0 0 213.333333ZM128 470.666667l298.666667 0 0-42.666667-298.666667 0 0 42.666667ZM128 385.333333l298.666667 0 0-42.666667-298.666667 0 0 42.666667ZM256 513.333333l42.666667 0 0-341.333333-42.666667 0 0 341.333333ZM128 214.666667l42.666667 0 0-42.666667-42.666667 0 0 42.666667ZM170.666667 172l85.333333 0 0-42.666667-85.333333 0 0 42.666667ZM42.666667 129.333333l128 0 0-42.666667-128 0 0 42.666667ZM256 129.333333l256 0 0-42.666667-256 0 0 42.666667ZM554.666667 129.333333l170.666667 0 0-42.666667-170.666667 0 0 42.666667ZM725.333333 598.666667l42.666667 0 0-85.333333-42.666667 0 0 85.333333ZM768 556l170.666667 0 0-42.666667-170.666667 0 0 42.666667ZM853.333333 513.333333l42.666667 0 0-42.666667-42.666667 0 0 42.666667ZM810.666667 470.666667l42.666667 0 0-42.666667-42.666667 0 0 42.666667ZM768 428l42.666667 0 0-42.666667-42.666667 0 0 42.666667ZM725.333333 385.333333l42.666667 0 0-42.666667-42.666667 0 0 42.666667ZM682.666667 428l42.666667 0 0-42.666667-42.666667 0 0 42.666667ZM640 470.666667l42.666667 0 0-42.666667-42.666667 0 0 42.666667ZM682.666667 513.333333l42.666667 0 0-42.666667-42.666667 0 0 42.666667ZM554.666667 428l85.333333 0 0-42.666667-85.333333 0 0 42.666667ZM640 342.666667l85.333333 0 0-42.666667-85.333333 0 0 42.666667ZM554.666667 300l85.333333 0 0-42.666667-85.333333 0 0 42.666667ZM682.666667 257.333333l85.333333 0 0-42.666667-85.333333 0 0 42.666667ZM768 300l42.666667 0 0-42.666667-42.666667 0 0 42.666667ZM810.666667 342.666667l170.666667 0 0-42.666667-170.666667 0 0 42.666667ZM853.333333 385.333333l42.666667 0 0-42.666667-42.666667 0 0 42.666667ZM896 428l42.666667 0 0-42.666667-42.666667 0 0 42.666667ZM938.666667 300l42.666667 0 0-42.666667-42.666667 0 0 42.666667ZM896 257.333333l42.666667 0 0-42.666667-42.666667 0 0 42.666667ZM810.666667 257.333333l42.666667 0 0-85.333333-42.666667 0 0 85.333333ZM853.333333 214.666667l42.666667 0 0-42.666667-42.666667 0 0 42.666667ZM725.333333 172l85.333333 0 0-42.666667-85.333333 0 0 42.666667Z"  horiz-adv-x="1024" />

    
    <glyph glyph-name="iocnhuizongbiao" unicode="&#58894;" d="M42.666667 684l0-768 938.666667 0L981.333333 684 42.666667 684zM938.666667-41.333333 85.333333-41.333333 85.333333 641.333333l853.333333 0L938.666667-41.333333zM128 598.666667l341.333333 0 0-597.333333-341.333333 0 0 597.333333ZM512 598.666667l384 0 0-170.666667-384 0 0 170.666667ZM512 385.333333l384 0 0-170.666667-384 0 0 170.666667ZM512 172l384 0 0-170.666667-384 0 0 170.666667Z"  horiz-adv-x="1024" />

    
    <glyph glyph-name="iocnleidatu" unicode="&#58900;" d="M512 674.016l419.114667-284.970667L771.114667-84 252.885333-84 92.885333 388.490667 512 674.016M512 726.666667 42.666667 404.832 221.952-126.666667l580.138667 0L981.333333 405.386667 512 726.666667 512 726.666667zM512 520.074667l256.64-180.48L670.677333 44 353.28 44l-97.962667 295.253333L512 520.074667M512 572.725333l-306.901333-217.173333L322.346667 1.333333l379.349333 0 117.205333 354.602667L512 572.725333 512 572.725333zM512 623.285333 298.666667 281.994667 725.333333-59.381333Z"  horiz-adv-x="1024" />

    
    <glyph glyph-name="iocnmingxibiao" unicode="&#58901;" d="M42.666667 684l0-768 938.666667 0L981.333333 684 42.666667 684zM938.666667-41.333333 85.333333-41.333333 85.333333 641.333333l853.333333 0L938.666667-41.333333zM512 598.666667l384 0 0-170.666667-384 0 0 170.666667ZM512 385.333333l384 0 0-170.666667-384 0 0 170.666667ZM512 172l384 0 0-170.666667-384 0 0 170.666667ZM128 598.666667l341.333333 0 0-170.666667-341.333333 0 0 170.666667ZM128 385.333333l341.333333 0 0-170.666667-341.333333 0 0 170.666667ZM128 172l341.333333 0 0-170.666667-341.333333 0 0 170.666667Z"  horiz-adv-x="1024" />

    
    <glyph glyph-name="iocnnianfenkongjian" unicode="&#58902;" d="M170.666667 342.666667l128 0 0-213.333333-128 0 0 213.333333ZM682.666667 342.666667l128 0 0-213.333333-128 0 0 213.333333ZM810.666667 726.666667l0-42.666667-128 0L682.666667 726.666667 298.666667 726.666667l0-42.666667L170.666667 684 170.666667 726.666667 42.666667 726.666667l0-853.333333 896 0L938.666667 726.666667 810.666667 726.666667zM896-84 85.333333-84 85.333333 556l810.666667 0L896-84zM341.333333 257.333333l42.666667 0 0-42.666667-42.666667 0 0 42.666667ZM384 300l85.333333 0 0-42.666667-85.333333 0 0 42.666667ZM469.333333 257.333333l42.666667 0 0-42.666667-42.666667 0 0 42.666667ZM512 214.666667l85.333333 0 0-42.666667-85.333333 0 0 42.666667ZM597.333333 257.333333l42.666667 0 0-42.666667-42.666667 0 0 42.666667Z"  horiz-adv-x="1024" />

    
    <glyph glyph-name="iocnbaocun" unicode="&#58903;" d="M848 748 64 748l0-896 896 0L960 636 848 748zM512 620l128 0 0-192L512 428 512 620zM832-20 192-20 192 620l64 0 0-256 448 0L704 620l97.6 0L832 589.6 832-20z"  horiz-adv-x="1024" />

    
    <glyph glyph-name="iocnbingtu" unicode="&#58904;" d="M512 241.546667 512 652.213333c-213.333333 0-418.474667-183.850667-418.474667-410.666667s179.925333-410.666667 406.741333-410.666667c226.816 0 408.704 183.850667 408.704 410.666667 0 66.048-8.746667 128.426667-36.437333 183.68L512 241.546667zM922.069333 542.56C854.570667 677.130667 725.333333 769.546667 554.666667 769.546667l0-410.666667L922.069333 542.56z"  horiz-adv-x="1024" />

    
    <glyph glyph-name="iocnchaxun" unicode="&#58889;" d="M0 684l42.666667 0 0-768-42.666667 0 0 768ZM0 684l1024 0 0-42.666667-1024 0 0 42.666667ZM981.333333 641.333333l42.666667 0 0-725.333333-42.666667 0 0 725.333333ZM0-41.333333l1024 0 0-42.666667-1024 0 0 42.666667ZM85.333333 513.333333l384 0 0-42.666667-384 0 0 42.666667ZM256 556l42.666667 0 0-213.333333-42.666667 0 0 213.333333ZM170.666667 470.666667l42.666667 0 0-42.666667-42.666667 0 0 42.666667ZM128 428l42.666667 0 0-42.666667-42.666667 0 0 42.666667ZM85.333333 385.333333l42.666667 0 0-42.666667-42.666667 0 0 42.666667ZM341.333333 470.666667l42.666667 0 0-42.666667-42.666667 0 0 42.666667ZM384 428l42.666667 0 0-42.666667-42.666667 0 0 42.666667ZM426.666667 385.333333l42.666667 0 0-42.666667-42.666667 0 0 42.666667ZM128 342.666667l42.666667 0 0-213.333333-42.666667 0 0 213.333333ZM170.666667 257.333333l213.333333 0 0-42.666667-213.333333 0 0 42.666667ZM384 342.666667l42.666667 0 0-213.333333-42.666667 0 0 213.333333ZM170.666667 342.666667l213.333333 0 0-42.666667-213.333333 0 0 42.666667ZM170.666667 172l213.333333 0 0-42.666667-213.333333 0 0 42.666667ZM85.333333 86.666667l384 0 0-42.666667-384 0 0 42.666667ZM512 556l42.666667 0 0-42.666667-42.666667 0 0 42.666667ZM554.666667 513.333333l42.666667 0 0-42.666667-42.666667 0 0 42.666667ZM597.333333 470.666667l42.666667 0 0-42.666667-42.666667 0 0 42.666667ZM640 556l42.666667 0 0-85.333333-42.666667 0 0 85.333333ZM682.666667 513.333333l256 0 0-42.666667-256 0 0 42.666667ZM896 513.333333l42.666667 0 0-426.666667-42.666667 0 0 426.666667ZM810.666667 86.666667l85.333333 0 0-42.666667-85.333333 0 0 42.666667ZM512 428l85.333333 0 0-42.666667-85.333333 0 0 42.666667ZM554.666667 428l42.666667 0 0-384-42.666667 0 0 384ZM640 428l42.666667 0 0-341.333333-42.666667 0 0 341.333333ZM640 172l213.333333 0 0-42.666667-213.333333 0 0 42.666667ZM682.666667 428l170.666667 0 0-42.666667-170.666667 0 0 42.666667ZM810.666667 428l42.666667 0 0-298.666667-42.666667 0 0 298.666667ZM682.666667 300l128 0 0-42.666667-128 0 0 42.666667Z"  horiz-adv-x="1024" />

    
    <glyph glyph-name="iocnchexiao" unicode="&#58905;" d="M761.856-212C875.584-5.92 896 308.32 448 297.824L448 44 64 428l384 384 0-248.384C1024 577.568 1042.56 91.424 761.856-212z"  horiz-adv-x="1024" />

    
    <glyph glyph-name="iocnchongzhi" unicode="&#58906;" d="M0 684l42.666667 0 0-768-42.666667 0 0 768ZM0 684l1024 0 0-42.666667-1024 0 0 42.666667ZM981.333333 641.333333l42.666667 0 0-725.333333-42.666667 0 0 725.333333ZM0-41.333333l1024 0 0-42.666667-1024 0 0 42.666667ZM128 513.333333l170.666667 0 0-42.666667-170.666667 0 0 42.666667ZM298.666667 556l128 0 0-42.666667-128 0 0 42.666667ZM256 470.666667l42.666667 0 0-384-42.666667 0 0 384ZM85.333333 428l384 0 0-42.666667-384 0 0 42.666667ZM128 385.333333l42.666667 0 0-170.666667-42.666667 0 0 170.666667ZM170.666667 342.666667l256 0 0-42.666667-256 0 0 42.666667ZM384 385.333333l42.666667 0 0-170.666667-42.666667 0 0 170.666667ZM170.666667 257.333333l256 0 0-42.666667-256 0 0 42.666667ZM128 172l298.666667 0 0-42.666667-298.666667 0 0 42.666667ZM85.333333 86.666667l384 0 0-42.666667-384 0 0 42.666667ZM563.072 556l42.666667 0 0-85.333333-42.666667 0 0 85.333333ZM597.333333 556l341.333333 0 0-42.666667-341.333333 0 0 42.666667ZM904.405333 513.333333l42.666667 0 0-85.333333-42.666667 0 0 85.333333ZM776.405333 513.333333l42.666667 0 0-85.333333-42.666667 0 0 85.333333ZM691.072 513.333333l42.666667 0 0-85.333333-42.666667 0 0 85.333333ZM554.666667 470.666667l384 0 0-42.666667-384 0 0 42.666667ZM725.333333 428l42.666667 0 0-170.666667-42.666667 0 0 170.666667ZM554.666667 385.333333l384 0 0-42.666667-384 0 0 42.666667ZM597.333333 300l42.666667 0 0-213.333333-42.666667 0 0 213.333333ZM597.333333 300l298.666667 0 0-42.666667-298.666667 0 0 42.666667ZM853.333333 300l0 0 0-213.333333 0 0 0 213.333333ZM853.333333 300l42.666667 0 0-213.333333-42.666667 0 0 213.333333ZM725.333333 172l42.666667 0 0-128-42.666667 0 0 128ZM554.666667 86.666667l384 0 0-42.666667-384 0 0 42.666667Z"  horiz-adv-x="1024" />

    
    <glyph glyph-name="iocnriqikongjian" unicode="&#58907;" d="M426.666667 470.666667l128 0 0-128-128 0 0 128ZM597.333333 470.666667l128 0 0-128-128 0 0 128ZM768 470.666667l128 0 0-128-128 0 0 128ZM256 129.333333l128 0 0-128-128 0 0 128ZM426.666667 129.333333l128 0 0-128-128 0 0 128ZM597.333333 129.333333l128 0 0-128-128 0 0 128ZM426.666667 300l128 0 0-128-128 0 0 128ZM597.333333 300l128 0 0-128-128 0 0 128ZM768 300l128 0 0-128-128 0 0 128ZM256 300l128 0 0-128-128 0 0 128ZM896 726.666667l0-42.666667-128 0L768 726.666667 384 726.666667l0-42.666667L256 684 256 726.666667 128 726.666667l0-853.333333 896 0L1024 726.666667 896 726.666667zM981.333333-84 170.666667-84 170.666667 556l810.666667 0L981.333333-84z"  horiz-adv-x="1024" />

    
    <glyph glyph-name="iocnriqiqujiankongjian" unicode="&#58908;" d="M810.666667 726.666667l0-42.666667-128 0L682.666667 726.666667 298.666667 726.666667l0-42.666667L170.666667 684 170.666667 726.666667 42.666667 726.666667l0-853.333333 896 0L938.666667 726.666667 810.666667 726.666667zM896-84 85.333333-84 85.333333 556l810.666667 0L896-84zM170.666667 470.666667l128 0 0-42.666667-128 0 0 42.666667ZM256 428l42.666667 0 0-85.333333-42.666667 0 0 85.333333ZM170.666667 385.333333l85.333333 0 0-42.666667-85.333333 0 0 42.666667ZM170.666667 342.666667l42.666667 0 0-85.333333-42.666667 0 0 85.333333ZM213.333333 300l85.333333 0 0-42.666667-85.333333 0 0 42.666667ZM341.333333 428l42.666667 0 0-128-42.666667 0 0 128ZM426.666667 428l42.666667 0 0-128-42.666667 0 0 128ZM384 470.666667l42.666667 0 0-42.666667-42.666667 0 0 42.666667ZM384 300l42.666667 0 0-42.666667-42.666667 0 0 42.666667ZM341.333333 470.666667l42.666667 0 0-42.666667-42.666667 0 0 42.666667ZM341.333333 300l42.666667 0 0-42.666667-42.666667 0 0 42.666667ZM426.666667 300l42.666667 0 0-42.666667-42.666667 0 0 42.666667ZM426.666667 470.666667l42.666667 0 0-42.666667-42.666667 0 0 42.666667ZM512 470.666667l85.333333 0 0-42.666667-85.333333 0 0 42.666667ZM554.666667 428l42.666667 0 0-170.666667-42.666667 0 0 170.666667ZM512 300l128 0 0-42.666667-128 0 0 42.666667ZM682.666667 470.666667l42.666667 0 0-85.333333-42.666667 0 0 85.333333ZM682.666667 385.333333l128 0 0-42.666667-128 0 0 42.666667ZM768 342.666667l42.666667 0 0-85.333333-42.666667 0 0 85.333333ZM682.666667 300l85.333333 0 0-42.666667-85.333333 0 0 42.666667ZM725.333333 470.666667l85.333333 0 0-42.666667-85.333333 0 0 42.666667ZM170.666667 172l42.666667 0 0-128-42.666667 0 0 128ZM256 172l42.666667 0 0-128-42.666667 0 0 128ZM213.333333 214.666667l42.666667 0 0-42.666667-42.666667 0 0 42.666667ZM213.333333 44l42.666667 0 0-42.666667-42.666667 0 0 42.666667ZM170.666667 214.666667l42.666667 0 0-42.666667-42.666667 0 0 42.666667ZM170.666667 44l42.666667 0 0-42.666667-42.666667 0 0 42.666667ZM256 44l42.666667 0 0-42.666667-42.666667 0 0 42.666667ZM256 214.666667l42.666667 0 0-42.666667-42.666667 0 0 42.666667ZM341.333333 214.666667l85.333333 0 0-42.666667-85.333333 0 0 42.666667ZM384 172l42.666667 0 0-170.666667-42.666667 0 0 170.666667ZM341.333333 44l128 0 0-42.666667-128 0 0 42.666667ZM512 172l42.666667 0 0-128-42.666667 0 0 128ZM597.333333 172l42.666667 0 0-128-42.666667 0 0 128ZM554.666667 214.666667l42.666667 0 0-42.666667-42.666667 0 0 42.666667ZM554.666667 44l42.666667 0 0-42.666667-42.666667 0 0 42.666667ZM512 214.666667l42.666667 0 0-42.666667-42.666667 0 0 42.666667ZM512 44l42.666667 0 0-42.666667-42.666667 0 0 42.666667ZM597.333333 44l42.666667 0 0-42.666667-42.666667 0 0 42.666667ZM597.333333 214.666667l42.666667 0 0-42.666667-42.666667 0 0 42.666667ZM682.666667 214.666667l85.333333 0 0-42.666667-85.333333 0 0 42.666667ZM725.333333 172l42.666667 0 0-170.666667-42.666667 0 0 170.666667ZM682.666667 44l128 0 0-42.666667-128 0 0 42.666667Z"  horiz-adv-x="1024" />

    
    <glyph glyph-name="iocnsandiantu" unicode="&#58909;" d="M952.114125 769.326831l29.234342-29.234342-909.432422-909.432422-29.234342 29.234342 909.432422 909.432422ZM341.333333 44l128 0 0-128-128 0 0 128ZM42.666667-41.333333l128 0 0-128-128 0 0 128ZM42.666667 214.666667l128 0 0-128-128 0 0 128ZM256 342.666667l128 0 0-128-128 0 0 128ZM213.333333 598.666667l128 0 0-128-128 0 0 128ZM554.666667 641.333333l128 0 0-128-128 0 0 128ZM640 428l128 0 0-128-128 0 0 128ZM810.666667 44l128 0 0-128-128 0 0 128ZM853.333333 641.333333l128 0 0-128-128 0 0 128Z"  horiz-adv-x="1024" />

    
    <glyph glyph-name="iocnshukongjian" unicode="&#58910;" d="M341.333333 598.666667 170.666667 300 0 598.666667ZM426.666667 598.666667l597.333333 0 0-85.333333-597.333333 0 0 85.333333ZM426.666667 342.666667l597.333333 0 0-85.333333-597.333333 0 0 85.333333ZM426.666667 86.666667l597.333333 0 0-85.333333-597.333333 0 0 85.333333Z"  horiz-adv-x="1024" />

    
    <glyph glyph-name="iocnshuzhileixing" unicode="&#58911;" d="M42.666667 428l42.666667 0 0-85.333333-42.666667 0 0 85.333333ZM85.333333 470.666667l42.666667 0 0-85.333333-42.666667 0 0 85.333333ZM128 513.333333l85.333333 0 0-384-85.333333 0 0 384ZM341.333333 470.666667l85.333333 0 0-42.666667-85.333333 0 0 42.666667ZM384 513.333333l213.333333 0 0-42.666667-213.333333 0 0 42.666667ZM554.666667 470.666667l85.333333 0 0-128-85.333333 0 0 128ZM512 385.333333l85.333333 0 0-85.333333-85.333333 0 0 85.333333ZM469.333333 342.666667l42.666667 0 0-85.333333-42.666667 0 0 85.333333ZM512 300l42.666667 0 0-42.666667-42.666667 0 0 42.666667ZM426.666667 300l85.333333 0 0-85.333333-85.333333 0 0 85.333333ZM384 257.333333l85.333333 0 0-85.333333-85.333333 0 0 85.333333ZM341.333333 214.666667l42.666667 0 0-85.333333-42.666667 0 0 85.333333ZM384 172l256 0 0-42.666667-256 0 0 42.666667ZM682.666667 470.666667l85.333333 0 0-42.666667-85.333333 0 0 42.666667ZM725.333333 513.333333l213.333333 0 0-42.666667-213.333333 0 0 42.666667ZM896 470.666667l85.333333 0 0-85.333333-85.333333 0 0 85.333333ZM810.666667 385.333333l128 0 0-42.666667-128 0 0 42.666667ZM896 342.666667l85.333333 0 0-128-85.333333 0 0 128ZM896 214.666667l42.666667 0 0-42.666667-42.666667 0 0 42.666667ZM682.666667 214.666667l85.333333 0 0-42.666667-85.333333 0 0 42.666667ZM725.333333 172l170.666667 0 0-42.666667-170.666667 0 0 42.666667Z"  horiz-adv-x="1024" />

    
    <glyph glyph-name="iocntiaoxingtu" unicode="&#58912;" d="M128 726.666667l42.666667 0 0-853.333333-42.666667 0 0 853.333333ZM42.666667 1.333333l938.666667 0 0-42.666667-938.666667 0 0 42.666667ZM170.666667 641.333333l384 0 0-128-384 0 0 128ZM170.666667 428l682.666667 0 0-128-682.666667 0 0 128ZM170.666667 214.666667l512 0 0-128-512 0 0 128Z"  horiz-adv-x="1024" />

    
    <glyph glyph-name="iocnwenben" unicode="&#58913;" d="M85.333333 598.666667 213.333333 598.666667 213.333333 300 170.666667 300 170.666667 257.333333 213.333333 257.333333 298.666667 257.333333 341.333333 257.333333 341.333333 300 298.666667 300 298.666667 598.666667 426.666667 598.666667 426.666667 556 469.333333 556 469.333333 684 426.666667 684 85.333333 684 42.666667 684 42.666667 556 85.333333 556ZM554.666667 513.333333l426.666667 0 0-85.333333-426.666667 0 0 85.333333ZM554.666667 342.666667l426.666667 0 0-85.333333-426.666667 0 0 85.333333ZM42.666667 172l938.666667 0 0-85.333333-938.666667 0 0 85.333333ZM42.666667 1.333333l938.666667 0 0-85.333333-938.666667 0 0 85.333333ZM554.666667 684l426.666667 0 0-85.333333-426.666667 0 0 85.333333Z"  horiz-adv-x="1024" />

    
    <glyph glyph-name="iocnwenbenkongjian" unicode="&#58914;" d="M42.666667 214.666667l85.333333 0 0-128-85.333333 0 0 128ZM85.333333 385.333333l85.333333 0 0-170.666667-85.333333 0 0 170.666667ZM128 470.666667l128 0 0-85.333333-128 0 0 85.333333ZM128 214.666667l213.333333 0 0-42.666667-213.333333 0 0 42.666667ZM256 172l85.333333 0 0-85.333333-85.333333 0 0 85.333333ZM213.333333 385.333333l85.333333 0 0-170.666667-85.333333 0 0 170.666667ZM384 470.666667l85.333333 0 0-384-85.333333 0 0 384ZM597.333333 428l85.333333 0 0-128-85.333333 0 0 128ZM597.333333 257.333333l85.333333 0 0-128-85.333333 0 0 128ZM469.333333 470.666667l170.666667 0 0-42.666667-170.666667 0 0 42.666667ZM469.333333 300l170.666667 0 0-42.666667-170.666667 0 0 42.666667ZM469.333333 129.333333l170.666667 0 0-42.666667-170.666667 0 0 42.666667ZM725.333333 385.333333l85.333333 0 0-213.333333-85.333333 0 0 213.333333ZM768 428l85.333333 0 0-42.666667-85.333333 0 0 42.666667ZM810.666667 470.666667l170.666667 0 0-42.666667-170.666667 0 0 42.666667ZM938.666667 428l85.333333 0 0-42.666667-85.333333 0 0 42.666667ZM768 172l85.333333 0 0-42.666667-85.333333 0 0 42.666667ZM810.666667 129.333333l170.666667 0 0-42.666667-170.666667 0 0 42.666667ZM938.666667 172l85.333333 0 0-42.666667-85.333333 0 0 42.666667Z"  horiz-adv-x="1024" />

    
    <glyph glyph-name="iocnyibiaopan" unicode="&#58915;" d="M242.688-126.666667l84.309333 0C184.106667-41.333333 85.333333 88.202667 85.333333 257.418667 85.333333 493.066667 276.352 684.170667 512 684.170667s426.666667-191.104 426.666667-426.752C938.666667 88.16 839.893333-41.333333 697.045333-126.666667l84.309333 0C902.144-41.333333 981.333333 98.528 981.333333 257.418667c0 259.2-210.133333 469.376-469.333333 469.376S42.666667 516.618667 42.666667 257.418667C42.666667 98.528 121.856-41.333333 242.688-126.666667zM213.333333-41.333333l597.333333 0 0-85.333333-597.333333 0 0 85.333333ZM469.333333 726.666667l85.333333 0 0-128-85.333333 0 0 128ZM85.333333 342.88l85.333333 0 0-85.333333-85.333333 0 0 85.333333ZM853.333333 342.88l85.333333 0 0-85.333333-85.333333 0 0 85.333333ZM469.333333 428l85.333333 0 0-469.333333-85.333333 0 0 469.333333ZM512 428.213333m-42.666667 0a1 1 0 1 0 85.333333 0 1 1 0 1 0-85.333333 0Z"  horiz-adv-x="1024" />

    
    <glyph glyph-name="iocnyuanhuantu" unicode="&#58916;" d="M554.666667 596.618667c170.666667-20.864 258.090667-145.536 258.090667-296.618667 0-39.338667-6.186667-76.842667-19.84-111.274667l148.778667-86.186667c27.562667 60.117333 40.704 126.848 40.704 197.461333C982.357333 545.930667 810.666667 747.658667 554.666667 769.333333L554.666667 596.618667zM469.333333 3.381333C341.333333 24.202667 214.314667 148.874667 214.314667 300 214.314667 451.125333 341.333333 575.797333 469.333333 596.618667L469.333333 769.333333C256 747.658667 44.330667 545.930667 44.330667 300S256-147.658667 469.333333-169.333333L469.333333 3.381333zM748.8 114.528C702.634667 55.477333 640 14.56 554.666667 3.381333L554.666667-169.333333c128 12.757333 263.722667 87.850667 340.693333 197.589333L748.8 114.528z"  horiz-adv-x="1024" />

    
    <glyph glyph-name="iocnzhongzuo" unicode="&#58917;" d="M576 563.616 576 812l384-384-384-384L576 297.824C128 308.32 148.416-5.92 262.144-212-18.56 91.424 0 577.568 576 563.616z"  horiz-adv-x="1024" />

    
    <glyph glyph-name="iocnzuobiaozhoutu" unicode="&#58918;" d="M128 726.666667l42.666667 0 0-853.333333-42.666667 0 0 853.333333ZM42.666667 1.333333l938.666667 0 0-42.666667-938.666667 0 0 42.666667ZM256 385.333333l128 0 0-384-128 0 0 384ZM469.333333 684l128 0 0-682.666667-128 0 0 682.666667ZM682.666667 513.333333l128 0 0-512-128 0 0 512Z"  horiz-adv-x="1024" />

    
    <glyph glyph-name="iocnnianjidukongjian" unicode="&#58919;" d="M810.666667 726.666667l0-42.666667-128 0L682.666667 726.666667 298.666667 726.666667l0-42.666667L170.666667 684 170.666667 726.666667 42.666667 726.666667l0-853.333333 896 0L938.666667 726.666667 810.666667 726.666667zM896-84 85.333333-84 85.333333 556l810.666667 0L896-84zM170.666667 470.666667l128 0 0-42.666667-128 0 0 42.666667ZM256 428l42.666667 0 0-85.333333-42.666667 0 0 85.333333ZM170.666667 385.333333l85.333333 0 0-42.666667-85.333333 0 0 42.666667ZM170.666667 342.666667l42.666667 0 0-85.333333-42.666667 0 0 85.333333ZM213.333333 300l85.333333 0 0-42.666667-85.333333 0 0 42.666667ZM341.333333 428l42.666667 0 0-128-42.666667 0 0 128ZM426.666667 428l42.666667 0 0-128-42.666667 0 0 128ZM384 470.666667l42.666667 0 0-42.666667-42.666667 0 0 42.666667ZM384 300l42.666667 0 0-42.666667-42.666667 0 0 42.666667ZM341.333333 470.666667l42.666667 0 0-42.666667-42.666667 0 0 42.666667ZM341.333333 300l42.666667 0 0-42.666667-42.666667 0 0 42.666667ZM426.666667 300l42.666667 0 0-42.666667-42.666667 0 0 42.666667ZM426.666667 470.666667l42.666667 0 0-42.666667-42.666667 0 0 42.666667ZM512 470.666667l85.333333 0 0-42.666667-85.333333 0 0 42.666667ZM554.666667 428l42.666667 0 0-170.666667-42.666667 0 0 170.666667ZM512 300l128 0 0-42.666667-128 0 0 42.666667ZM682.666667 470.666667l42.666667 0 0-85.333333-42.666667 0 0 85.333333ZM682.666667 385.333333l128 0 0-42.666667-128 0 0 42.666667ZM768 342.666667l42.666667 0 0-85.333333-42.666667 0 0 85.333333ZM682.666667 300l85.333333 0 0-42.666667-85.333333 0 0 42.666667ZM725.333333 470.666667l85.333333 0 0-42.666667-85.333333 0 0 42.666667ZM341.333333 172l42.666667 0 0-128-42.666667 0 0 128ZM426.666667 172l42.666667 0 0-128-42.666667 0 0 128ZM384 214.666667l42.666667 0 0-42.666667-42.666667 0 0 42.666667ZM384 44l42.666667 0 0-42.666667-42.666667 0 0 42.666667ZM341.333333 214.666667l42.666667 0 0-42.666667-42.666667 0 0 42.666667ZM341.333333 44l42.666667 0 0-42.666667-42.666667 0 0 42.666667ZM426.666667 44l42.666667 0 0-42.666667-42.666667 0 0 42.666667ZM426.666667 214.666667l42.666667 0 0-42.666667-42.666667 0 0 42.666667ZM512 214.666667l85.333333 0 0-42.666667-85.333333 0 0 42.666667ZM554.666667 172l42.666667 0 0-170.666667-42.666667 0 0 170.666667ZM512 44l128 0 0-42.666667-128 0 0 42.666667Z"  horiz-adv-x="1024" />

    
    <glyph glyph-name="iocnnianyuekongjian" unicode="&#58920;" d="M810.666667 726.666667l0-42.666667-128 0L682.666667 726.666667 298.666667 726.666667l0-42.666667L170.666667 684 170.666667 726.666667 42.666667 726.666667l0-853.333333 896 0L938.666667 726.666667 810.666667 726.666667zM896-84 85.333333-84 85.333333 556l810.666667 0L896-84zM170.666667 385.333333l128 0 0-42.666667-128 0 0 42.666667ZM256 342.666667l42.666667 0 0-128-42.666667 0 0 128ZM170.666667 257.333333l85.333333 0 0-42.666667-85.333333 0 0 42.666667ZM170.666667 214.666667l42.666667 0 0-128-42.666667 0 0 128ZM213.333333 129.333333l85.333333 0 0-42.666667-85.333333 0 0 42.666667ZM341.333333 342.666667l42.666667 0 0-213.333333-42.666667 0 0 213.333333ZM426.666667 342.666667l42.666667 0 0-213.333333-42.666667 0 0 213.333333ZM384 385.333333l42.666667 0 0-42.666667-42.666667 0 0 42.666667ZM384 129.333333l42.666667 0 0-42.666667-42.666667 0 0 42.666667ZM341.333333 385.333333l42.666667 0 0-42.666667-42.666667 0 0 42.666667ZM341.333333 129.333333l42.666667 0 0-42.666667-42.666667 0 0 42.666667ZM426.666667 129.333333l42.666667 0 0-42.666667-42.666667 0 0 42.666667ZM426.666667 385.333333l42.666667 0 0-42.666667-42.666667 0 0 42.666667ZM512 385.333333l85.333333 0 0-42.666667-85.333333 0 0 42.666667ZM554.666667 342.666667l42.666667 0 0-256-42.666667 0 0 256ZM512 129.333333l128 0 0-42.666667-128 0 0 42.666667ZM682.666667 385.333333l42.666667 0 0-128-42.666667 0 0 128ZM682.666667 257.333333l128 0 0-42.666667-128 0 0 42.666667ZM768 214.666667l42.666667 0 0-128-42.666667 0 0 128ZM682.666667 129.333333l85.333333 0 0-42.666667-85.333333 0 0 42.666667ZM725.333333 385.333333l85.333333 0 0-42.666667-85.333333 0 0 42.666667Z"  horiz-adv-x="1024" />

    
    <glyph glyph-name="iocnnianyuerikongjian" unicode="&#58921;" d="M810.666667 726.666667l0-42.666667-128 0L682.666667 726.666667 298.666667 726.666667l0-42.666667L170.666667 684 170.666667 726.666667 42.666667 726.666667l0-853.333333 896 0L938.666667 726.666667 810.666667 726.666667zM896-84 85.333333-84 85.333333 556l810.666667 0L896-84zM170.666667 470.666667l128 0 0-42.666667-128 0 0 42.666667ZM256 428l42.666667 0 0-85.333333-42.666667 0 0 85.333333ZM170.666667 385.333333l85.333333 0 0-42.666667-85.333333 0 0 42.666667ZM170.666667 342.666667l42.666667 0 0-85.333333-42.666667 0 0 85.333333ZM213.333333 300l85.333333 0 0-42.666667-85.333333 0 0 42.666667ZM341.333333 428l42.666667 0 0-128-42.666667 0 0 128ZM426.666667 428l42.666667 0 0-128-42.666667 0 0 128ZM384 470.666667l42.666667 0 0-42.666667-42.666667 0 0 42.666667ZM384 300l42.666667 0 0-42.666667-42.666667 0 0 42.666667ZM341.333333 470.666667l42.666667 0 0-42.666667-42.666667 0 0 42.666667ZM341.333333 300l42.666667 0 0-42.666667-42.666667 0 0 42.666667ZM426.666667 300l42.666667 0 0-42.666667-42.666667 0 0 42.666667ZM426.666667 470.666667l42.666667 0 0-42.666667-42.666667 0 0 42.666667ZM512 470.666667l85.333333 0 0-42.666667-85.333333 0 0 42.666667ZM554.666667 428l42.666667 0 0-170.666667-42.666667 0 0 170.666667ZM512 300l128 0 0-42.666667-128 0 0 42.666667ZM682.666667 470.666667l42.666667 0 0-85.333333-42.666667 0 0 85.333333ZM682.666667 385.333333l128 0 0-42.666667-128 0 0 42.666667ZM768 342.666667l42.666667 0 0-85.333333-42.666667 0 0 85.333333ZM682.666667 300l85.333333 0 0-42.666667-85.333333 0 0 42.666667ZM725.333333 470.666667l85.333333 0 0-42.666667-85.333333 0 0 42.666667ZM384 172l213.333333 0 0-42.666667-213.333333 0 0 42.666667ZM341.333333 44l298.666667 0 0-42.666667-298.666667 0 0 42.666667Z"  horiz-adv-x="1024" />

    
    <glyph glyph-name="iocnqipaotu" unicode="&#58922;" d="M618.666667 492m-277.333333 0a6.5 6.5 0 1 0 554.666667 0 6.5 6.5 0 1 0-554.666667 0ZM234.666667 108m-192 0a4.5 4.5 0 1 0 384 0 4.5 4.5 0 1 0-384 0ZM725.333333 44m-128 0a3 3 0 1 0 256 0 3 3 0 1 0-256 0Z"  horiz-adv-x="1024" />

    
    <glyph glyph-name="iocnqiehuo" unicode="&#58923;" d="M0 684l42.666667 0 0-768-42.666667 0 0 768ZM0 684l1024 0 0-42.666667-1024 0 0 42.666667ZM981.333333 641.333333l42.666667 0 0-725.333333-42.666667 0 0 725.333333ZM0-41.333333l1024 0 0-42.666667-1024 0 0 42.666667ZM128 513.333333l42.666667 0 0-469.333333-42.666667 0 0 469.333333ZM128 513.333333l298.666667 0 0-42.666667-298.666667 0 0 42.666667ZM384 513.333333l42.666667 0 0-469.333333-42.666667 0 0 469.333333ZM170.666667 385.333333l213.333333 0 0-42.666667-213.333333 0 0 42.666667ZM170.666667 257.333333l213.333333 0 0-42.666667-213.333333 0 0 42.666667ZM85.333333 86.666667l384 0 0-42.666667-384 0 0 42.666667ZM512 470.666667l426.666667 0 0-42.666667-426.666667 0 0 42.666667ZM725.333333 556l42.666667 0 0-341.333333-42.666667 0 0 341.333333ZM768 214.666667l42.666667 0 0-42.666667-42.666667 0 0 42.666667ZM810.666667 172l42.666667 0 0-42.666667-42.666667 0 0 42.666667ZM853.333333 129.333333l42.666667 0 0-42.666667-42.666667 0 0 42.666667ZM896 214.666667l42.666667 0 0-170.666667-42.666667 0 0 170.666667ZM853.333333 385.333333l42.666667 0 0-85.333333-42.666667 0 0 85.333333ZM810.666667 300l42.666667 0 0-85.333333-42.666667 0 0 85.333333ZM725.333333 172l42.666667 0 0-42.666667-42.666667 0 0 42.666667ZM682.666667 129.333333l42.666667 0 0-42.666667-42.666667 0 0 42.666667ZM640 86.666667l42.666667 0 0-42.666667-42.666667 0 0 42.666667ZM512 129.333333l85.333333 0 0-42.666667-85.333333 0 0 42.666667ZM597.333333 214.666667l85.333333 0 0-42.666667-85.333333 0 0 42.666667ZM512 385.333333l42.666667 0 0-170.666667-42.666667 0 0 170.666667ZM512 385.333333l170.666667 0 0-42.666667-170.666667 0 0 42.666667ZM640 385.333333l42.666667 0 0-170.666667-42.666667 0 0 170.666667ZM554.666667 257.333333l128 0 0-42.666667-128 0 0 42.666667ZM810.666667 556l42.666667 0 0-42.666667-42.666667 0 0 42.666667ZM853.333333 513.333333l42.666667 0 0-42.666667-42.666667 0 0 42.666667Z"  horiz-adv-x="1024" />

    
    <glyph glyph-name="iocnditu" unicode="&#58924;" d="M894.250667 431.968l-0.512 0c0 4.650667 6.314667 4.650667 6.314667 4.650667s5.290667 0.597333 6.869333 1.152c1.066667 0.597333 5.290667 4.053333 9.472 6.954667 4.224 3.498667 8.448 6.954667 9.472 8.106667 1.578667 1.152 5.290667-2.304 8.448-4.650667 0 0 2.645333 8.106667 4.224 8.106667 1.066667 0 10.026667 5.802667 11.093333 12.202667 1.066667 6.4 1.066667 36.565333 3.712 36.565333C955.904 505.653333 972.8 507.957333 972.8 507.957333s6.869333 4.053333 14.250667 11.605333c0.512 0.597333 1.578667 1.749333 2.645333 3.498667 6.314667 9.301333 12.672 29.013333 14.762667 32.469333 3.157333 4.650667 3.157333 14.506667 3.157333 18.56 0 3.498667 3.157333 5.802667 6.314667 7.552 1.066667 0.597333 2.090667 1.152 3.157333 1.749333 4.224 1.749333 7.381333 14.506667 6.869333 14.506667-11.093333-4.650667-23.210667-9.856-26.368-12.16-5.802667-3.498667-17.92-10.453333-25.301333-12.757333-7.381333-2.304-16.853333-2.901333-19.498667 4.650667-2.645333 6.954667-1.578667 18.56-3.157333 23.210667-1.578667 4.053333-7.893333 6.954667-10.538667 9.301333-3.157333 1.749333-3.712 5.205333-8.448 5.205333-4.736 0.597333-23.210667 2.304-26.368 15.104-3.157333 12.757333-7.381333 67.882667-15.274667 74.24-7.893333 5.802667-8.96 8.704-14.762667 8.704-5.802667 0-10.026667 1.749333-12.672 3.498667C858.922667 718.56 850.986667 726.666667 843.093333 726.666667s-21.077333-2.901333-25.301333-5.205333c-1.066667-1.152-4.736-3.498667-7.893333-5.802667-5.802667-5.205333-11.605333-10.453333-9.472-12.16 3.157333-2.304 7.381333-6.4 7.381333-9.856 0-3.498667-14.762667-19.157333-16.341333-23.210667-2.090667-4.053333-16.341333-31.914667-21.632-35.968-2.090667-1.152-7.893333-5.802667-14.250667-10.453333-0.512 0-12.117333 5.802667-24.234667 11.008-0.512 0-11.605333-24.362667-14.250667-29.568-2.090667-5.205333-5.290667-17.962667 0-19.712 4.736-1.749333 4.224 4.053333 11.093333 3.498667 6.869333 0 15.829333-4.650667 20.565333-2.304 5.290667 2.304 10.538667 6.954667 13.696 1.749333 3.712-5.205333 17.408-26.666667 10.538667-31.914667-6.869333-5.802667-14.762667 8.106667-33.749333-1.749333-18.986667-9.301333-21.632-10.453333-30.037333-19.712-8.448-9.856-15.274667-9.301333-22.144-11.008-6.314667-1.749333-21.077333-13.354667-26.88-10.453333-6.314667 2.901333-9.472 11.008-17.92 8.106667-8.448-3.498667-4.736-29.568-11.050667-37.12-5.802667-6.954667-31.104-20.864-35.84-22.058667-4.736-0.597333-9.472 2.901333-13.184 1.152-4.224-2.304-7.381333-2.304-14.762667-3.498667-6.869333-1.749333-16.341333-0.597333-24.234667-3.498667-7.893333-2.304-24.234667-12.757333-29.525333-8.704-5.290667 3.498667-17.408 5.205333-25.856 9.856-8.448 4.650667-30.592 17.408-40.064 19.157333-8.96 1.749333-34.261333 1.152-42.709333 4.053333C397.013333 484.192 383.317333 476.64 378.581333 493.493333c-4.224 16.810667 0 33.066667-5.802667 33.066667-5.802667 0-9.472 2.901333-13.696 7.552C354.304 539.317333 341.674667 551.477333 330.581333 551.477333c-11.093333 0-19.498667 3.498667-15.829333 15.061333 3.157333 12.16 10.026667 24.362667 8.448 32.469333-1.066667 8.106667-12.117333 25.514667-17.408 27.861333C300.544 629.813333 291.029333 640.821333 290.005333 645.472 289.450667 649.525333 288.426667 655.882667 288.426667 656.48c-4.736 0-12.117333-0.597333-14.762667-4.053333C271.018667 648.373333 254.677333 636.768 254.677333 636.768s-8.96-11.008-9.472-14.506667C244.650667 619.36 238.848 603.104 235.690667 602.549333c-3.157333 0-29.013333 16.810667-34.816 8.704C195.072 603.701333 183.466667 568.885333 178.218667 568.288c-4.736-0.597333-31.616 6.4-34.816-5.802667C140.245333 550.325333 145.536 542.218667 144.469333 535.221333 142.890667 528.266667 138.666667 512.608 137.088 512.608c-2.090667 0-11.093333-6.4-11.093333-9.856 0-4.053333-2.645333-14.506667-8.448-15.658667C111.786667 486.496 104.405333 482.442667 99.669333 481.290667 94.890667 480.138667 82.773333 480.138667 78.549333 476.64 74.325333 473.184 68.565333 477.237333 65.365333 470.837333c-3.157333-6.954667-7.893333-13.909333-13.696-14.506667-5.802667 0-3.712 6.954667-12.672 6.954667C29.525333 462.730667 16.853333 449.376 16.853333 449.376S0 432.565333 0 429.664s2.645333-11.008 3.712-14.506667C5.290667 411.701333 12.117333 408.202667 11.093333 404.149333c-0.512-4.053333 3.712-15.061333 0.512-19.712-3.157333-4.053333-7.893333-11.008-5.290667-13.354667 2.645333-1.749333 6.869333-0.597333 7.381333-4.053333 0-4.053333 1.066667-18.56 4.224-22.058667 3.669333-3.498667 27.434667-12.202667 29.013333-15.658667 1.066667-2.901333 10.538667-23.765333 10.026667-27.861333 0-4.053333-2.090667-5.802667-2.090667-15.061333 0-9.301333 2.090667-13.909333 0-17.962667-2.090667-4.053333-4.736-16.256-8.448-16.256-3.669333 0-6.314667 5.205333-6.869333 0.597333 0-4.053333-2.090667-26.666667 0.512-29.568 2.090667-2.304 21.632-15.658667 22.656-23.765333 1.066667-8.704 4.224-12.16 7.381333-11.605333 3.157333 0.597333 7.893333 4.053333 13.696 1.749333 6.314667-2.304 12.117333-8.704 13.184-11.008 1.578667-2.304 10.026667-8.704 12.672-9.301333 2.645333-1.152 13.184-14.506667 19.498667-21.461333 6.314667-7.552 10.026667-16.256 19.498667-17.962667 10.026667-1.749333 25.301333 1.749333 29.013333 0 3.157333-2.304 8.448-5.205333 7.381333-8.106667-1.578667-3.498667-1.066667-11.008 1.578667-11.008 3.157333 0.597333 5.802667 11.008 7.381333 12.16 1.578667 1.152 5.290667 6.954667 9.472 5.205333 3.712-1.152 10.026667-7.552 14.250667-7.552 4.224 0 11.605333 0.597333 13.696-1.152 1.578667-1.749333 5.802667-20.864 7.893333-22.613333 2.090667-1.749333 19.498667 1.749333 25.301333 5.205333 5.290667 3.498667 25.856 19.712 31.104 22.058667 4.736 2.304 10.538667 0 12.117333-0.597333 1.578667-0.597333 16.853333-8.704 18.474667-8.704 1.066667 0 8.96 12.202667 13.696 11.008 4.736-0.597333 12.672-17.962667 11.093333-33.066667-2.090667-15.061333-10.026667-36.565333-18.986667-46.976-8.96-9.856-9.472-3.498667-12.117333-14.506667-2.645333-10.453333-3.157333-13.354667 0-13.354667 2.645333-0.597333 29.013333 2.304 28.458667 0-0.512-2.304-7.893333-9.301333-5.802667-12.757333 1.578667-4.053333 5.290667-5.205333 4.224-13.354667-1.578667-8.106667-5.802667-21.461333-2.645333-22.613333 2.645333-0.597333 7.893333 1.152 9.472-1.749333 1.578667-2.901333 4.736-12.202667 7.381333-11.008 2.645333 1.749333 16.341333 5.802667 16.341333 5.802667s0-2.304-1.578667-4.650667c-2.090667-2.304-4.224-4.053333-3.157333-5.802667 0 0 6.314667-4.053333 10.026667-3.498667 3.157333 1.152 2.090667 5.802667 2.090667 5.802667s-1.578667 12.757333 3.712 15.061333c5.290667 2.304 7.893333 11.008 20.565333 11.008 12.672-0.597333 15.829333-1.749333 24.234667 2.304 8.448 3.498667 17.92 13.354667 20.053333 13.354667 2.090667-0.597333 7.893333-5.802667 11.093333-5.802667 3.712 0 15.274667 1.152 16.341333-5.205333 0.512-6.4-6.869333-11.008-5.802667-13.909333 1.066667-3.498667 20.565333-17.962667 20.565333-17.962667l4.224-2.304 4.224-0.597333c1.066667 0 2.090667 0.597333 2.645333 0.597333 2.645333 2.304 3.712 4.650667 6.869333 1.152 3.157333-4.053333 3.157333-5.802667 7.893333-5.802667 5.290667 0 11.093333 1.749333 8.448-1.152-2.645333-2.901333-11.093333-8.704-7.893333-11.605333 3.712-2.901333 5.290667-3.498667 6.314667-6.954667 0.512-3.498667-2.090667-10.453333 3.712-9.301333 5.802667 0.597333 5.290667 8.704 5.290667 8.704s-3.157333 6.954667 1.578667 12.202667c4.736 5.205333 12.672 11.605333 23.722667 12.757333 10.538667 1.152 13.184-1.749333 21.077333 3.498667 7.893333 4.650667 1.578667 5.205333 8.448 6.954667 7.381333 1.152 3.157333-5.205333 8.448-4.650667 5.290667 0 6.314667 4.053333 8.448 3.498667 2.645333-0.597333 8.448 0 7.893333 4.053333 0 3.498667 0 11.605333 6.314667 11.008 6.314667-0.597333 9.472-4.650667 16.341333-3.498667 6.869333 1.749333 18.986667 9.856 18.986667 12.16 0 2.304-4.736 5.205333-0.512 9.301333 3.669333 4.650667 3.157333 2.304 7.893333 2.901333 5.290667 0.597333 8.448 2.901333 8.448 2.901333s4.224-2.901333 10.538667 7.552c5.802667 10.453333 3.157333 16.256 6.869333 14.506667 3.712-2.304 9.472-2.304 8.96 2.304s-4.224 11.605333 0 12.202667c3.712 0.597333 4.736-4.650667 6.869333-1.152 1.578667 4.053333-1.066667 8.106667 2.645333 5.205333 4.224-2.304 6.869333-5.802667 6.869333-2.901333 0 2.901333-2.645333 11.605333-1.066667 15.658667 2.090667 3.498667 7.893333 13.909333 3.712 16.810667-4.224 3.498667-6.314667 5.802667-2.645333 6.954667 3.712 1.152 5.802667-5.205333 7.893333-2.304 2.090667 2.901333 4.736 3.498667 5.802667 6.954667 0.512 3.498667 8.448 4.650667 8.448 12.757333 0 8.106667 2.090667 17.962667 6.869333 15.061333 4.736-2.901333 6.314667-8.106667 9.472-0.597333 3.669333 6.954667-8.448 9.301333-3.157333 13.354667 5.290667 3.498667 4.224 6.4 4.224 6.4l-2.090667 2.901333c0 0 11.093333 12.757333 7.893333 15.061333-3.669333 1.749333-6.314667 3.498667-6.314667 3.498667s-1.066667 6.4-4.736 6.4c-4.224 0-7.381333 4.053333-7.381333 7.552 0.512 4.053333 7.893333-3.498667 11.093333 0 3.157333 3.498667 10.538667 8.106667 8.96 12.16-2.090667 4.650667-14.762667 16.256-13.184 20.864 1.578667 4.053333 11.093333-7.552 14.250667-2.304 3.712 5.205333-12.672 15.658667-12.672 20.864s0.512 17.408-5.802667 29.013333c-6.314667 11.605333-20.053333 12.16-18.986667 21.461333 1.066667 9.856 10.026667 24.96 16.853333 27.264 6.869333 2.304 17.92 5.802667 18.474667 9.301333 0.512 3.498667 1.066667 8.106667 1.066667 8.106667s2.090667 3.498667 4.736 3.498667 19.498667-4.053333 19.498667-0.597333c0.512 3.498667-2.090667 8.704-2.090667 8.704s8.448 4.650667 7.381333 7.552c-0.512 2.901333-7.381333 4.650667-11.093333 4.053333-3.712-0.597333-5.802667 2.901333-15.829333 3.498667-9.472 0.597333-18.986667-11.605333-27.946667-11.605333-8.96 0-8.448 11.605333-8.448 11.605333s1.578667 9.301333-4.224 9.856c-5.290667 0.597333-14.250667 4.650667-14.762667 11.008-1.066667 6.4 1.066667 17.408 3.157333 16.810667 2.090667 0 11.605333-2.901333 11.605333-2.901333l11.605333 7.552c0 0 6.314667-8.704 12.117333-10.453333 5.290667-1.152 8.448 9.856 8.448 9.856s-10.026667 3.498667-8.448 8.704c1.066667 5.205333 2.090667 8.704 8.448 8.704 6.869333 0 7.381333 5.205333 7.381333 5.205333s5.802667 8.106667 12.672 11.605333c6.869333 2.901333 12.672 4.053333 12.672 0 0-4.650667-1.066667-11.008-1.066667-11.008s3.712-4.053333 2.645333-6.4c-0.512-2.304-12.672-8.106667-10.026667-13.909333 3.157333-5.802667 3.669333-9.856 1.066667-11.008-2.645333-0.597333-3.157333-0.597333-3.157333-0.597333s-11.605333-4.053333-7.893333-9.856c4.224-6.4 14.250667 9.301333 14.250667 9.301333s10.538667 11.008 18.986667 12.757333c8.448 1.749333 18.474667 6.4 23.210667 2.901333l2.645333 9.301333c0 0 10.026667 8.106667 14.762667 11.605333 1.066667 0.597333 2.090667 1.152 3.157333 1.749333 3.157333 1.749333 6.314667 1.749333 8.448 3.498667 3.157333 1.749333 13.184 19.157333 17.408 17.962667 2.090667-1.152 4.224-2.901333 6.314667-5.205333 2.090667-1.749333 4.224-3.498667 7.381333-2.901333C894.762667 421.557333 894.250667 431.968 894.250667 431.968L894.250667 431.968 894.250667 431.968zM520.405333-91.253333c-2.090667 0-7.893333 0.597333-8.96-0.597333-1.066667-1.749333-3.157333-7.552-4.736-8.704-1.578667-1.152-4.224-1.749333-5.290667-5.205333-1.066667-3.498667-1.578667-10.453333 0-12.16s4.736-9.301333 10.026667-8.704c4.736 1.152 8.448 3.498667 13.696 3.498667s12.672 4.650667 12.117333 6.4c-0.512 2.304-4.224 4.053333-3.712 6.4 0.512 2.304 5.290667 4.650667 6.869333 6.954667 1.578667 2.304 2.090667 3.498667 5.290667 5.205333 3.157333 1.152 3.157333 5.802667 2.090667 7.552-0.512 1.749333-7.893333 2.901333-12.672 2.304C530.944-88.949333 521.984-91.253333 520.405333-91.253333L520.405333-91.253333 520.405333-91.253333zM752.938667 30.005333c0 0-2.645333 4.650667-11.605333 2.304-8.96-2.304-13.696-11.605333-15.274667-16.810667-2.090667-5.205333-12.117333-26.112-11.093333-29.013333 1.578667-2.901333 3.157333-5.205333 2.645333-8.106667-0.512-2.901333-2.090667-12.16 0.512-16.810667 2.645333-4.053333 5.802667-8.704 7.381333-7.552 1.578667 1.152 5.802667 16.810667 8.448 20.309333 2.090667 2.901333 10.538667 12.16 11.093333 20.864 0.512 8.106667-2.090667 9.301333 2.090667 16.256 3.712 7.552 7.381333 10.453333 7.381333 12.202667C754.517333 25.354667 752.938667 30.005333 752.938667 30.005333L752.938667 30.005333 752.938667 30.005333z"  horiz-adv-x="1025" />

    
    <glyph glyph-name="icontabdown" unicode="&#58925;" d="M512 139.264c-10.923 0-21.845 4.181-30.165 12.501l-191.36 191.36c-16.683 16.683-16.683 43.648 0 60.331s43.648 16.683 60.331 0l161.195-161.195 161.195 161.195c16.683 16.683 43.648 16.683 60.331 0s16.683-43.648 0-60.331l-191.36-191.36c-8.32-8.363-19.243-12.501-30.165-12.501z"  horiz-adv-x="1024" />

    
    <glyph glyph-name="icontableft" unicode="&#58926;" d="M373.632 277.589c0 10.923 4.181 21.845 12.501 30.165l191.36 191.36c16.683 16.683 43.648 16.683 60.331 0s16.683-43.648 0-60.331l-161.195-161.195 161.195-161.195c16.683-16.683 16.683-43.648 0-60.331s-43.648-16.683-60.331 0l-191.36 191.36c-8.32 8.363-12.501 19.243-12.501 30.165z"  horiz-adv-x="1024" />

    
    <glyph glyph-name="icontabright" unicode="&#58927;" d="M650.368 277.589c0-10.923-4.181-21.845-12.501-30.165l-191.36-191.36c-16.683-16.683-43.648-16.683-60.331 0s-16.683 43.648 0 60.331l161.195 161.195-161.237 161.237c-16.683 16.683-16.683 43.648 0 60.331s43.648 16.683 60.331 0l191.36-191.36c8.363-8.363 12.544-19.285 12.544-30.208z"  horiz-adv-x="1024" />

    
    <glyph glyph-name="icontabup" unicode="&#58928;" d="M512 415.957c10.923 0 21.845-4.181 30.165-12.501l191.36-191.36c16.683-16.683 16.683-43.648 0-60.331s-43.648-16.683-60.331 0l-161.195 161.195-161.195-161.195c-16.683-16.683-43.648-16.683-60.331 0s-16.683 43.648 0 60.331l191.36 191.36c8.32 8.32 19.243 12.501 30.165 12.501z"  horiz-adv-x="1024" />

    
    <glyph glyph-name="iconcardedit" unicode="&#58929;" d="M940.174 719.21c-94.162 94.162-164.847 80.038-164.847 80.038l-706.406-706.406-65.913-310.798 310.798 65.913 706.469 706.406c-0.064-0.064 14.061 70.621-80.101 164.847zM295.291-114.696l-105.932-22.841c-10.243 19.151-22.523 38.237-45.109 60.824-22.523 22.523-41.673 34.802-60.824 45.109l22.841 105.932 30.603 30.666c0 0 57.642-1.145 122.729-66.295 65.086-65.086 66.295-122.792 66.295-122.792l-30.603-30.603z"  horiz-adv-x="1024" />

    
    <glyph glyph-name="iconcardshare" unicode="&#58930;" d="M448.984615 244.861538l126.030769 0 0 315.076923 189.046154 0-252.061538 252.061538-252.061538-252.061538 189.046154 0L448.984615 244.861538zM638.030769 370.892308l0-97.169723 288.547446-107.630277L512 11.452554l-414.578215 154.639754L385.969231 273.722585 385.969231 370.892308l-378.092308-141.784615 0-252.061538 504.123077-189.046154 504.123077 189.046154 0 252.061538L638.030769 370.892308z"  horiz-adv-x="1024" />

    
    <glyph glyph-name="iconxiaoyuhao" unicode="&#58931;" d="M725.333333 50.912 725.333333 1.333333 298.666667 258.528l0 43.392L725.333333 556l0-52.693333-389.034667-223.104L725.333333 50.912z"  horiz-adv-x="1024" />

    
    <glyph glyph-name="iconxiaoyudengyuhao" unicode="&#58934;" d="M725.333333 240.906667l0-52.522667L298.666667 345.952 298.666667 398.474667 725.333333 556l0-49.237333-372.736-134.570667L725.333333 240.906667zM725.333333 86.666667l0-42.666667L298.666667 198.24l0 49.237333L725.333333 86.666667z"  horiz-adv-x="1024" />

    
    <glyph glyph-name="iconxiaoyuhaodaijiantou1" unicode="&#58935;" d="M469.333 166.912v-49.579l-426.667 257.195v43.392l426.667 254.080v-52.693l-389.035-223.104 389.035-229.291zM982.016 74.667l-171.349-170.667-171.349 170.667z"  horiz-adv-x="1024" />

    
    <glyph glyph-name="iconxiaoyudengyudaijiantou1" unicode="&#58936;" d="M469.333 314.24v-52.523l-426.667 157.568v52.523l426.667 157.525v-49.237l-372.736-134.571 372.736-131.285zM469.333 160v-42.667l-426.667 154.24v49.237l426.667-160.811zM982.656 74.667l-171.307-170.667-171.349 170.667z"  horiz-adv-x="1024" />

    
    <glyph glyph-name="bi40qietubianjixiangqing" unicode="&#58932;" d="M859.968 748C915.2 748 960 703.2 960 648.032c0-22.528-7.424-43.264-20.032-60.032l-40-40-139.968 140.032L800 728.032C816.704 740.576 837.504 748 859.968 748zM360 287.968 320 108l179.968 40 369.984 369.984-140.032 140.032L360 287.968zM767.232 520.736 487.232 240.736 452.736 275.232l280 280L767.232 520.736zM832 172l0-192L192-20 192 620l192 0 128 128L192 748C121.6 748 64 690.4 64 620l0-640c0-70.4 57.6-128 128-128l640 0c70.4 0 128 57.6 128 128L960 300 832 172z"  horiz-adv-x="1024" />

    
    <glyph glyph-name="bi40qietudaochuexcel" unicode="&#58933;" d="M974.016 176.352c27.584-22.08 28.032-57.6 0-80l-220.032-176C726.4-101.728 704-90.656 704-55.84L704 44 447.424 44C412.416 44 384 72.416 384 108c0 35.328 28.864 64 63.424 64L704 172 704 328.544c0 35.264 22.016 46.208 49.984 23.808L974.016 176.352zM192-20 192 620l384 0 0-192 64 0 128 0 128 0L896 492l-256 256L128 748C64 748 64 682.4 64 682.4L64-84c0-64 64-64 64-64l512 0 0 128L192-20zM640 684l192-192-192 0L640 684z"  horiz-adv-x="1024" />

    
    <glyph glyph-name="bi40qietufuzhi" unicode="&#58937;" d="M64 620l64 0 0-768-64 0 0 768ZM64-84l704 0 0-64-704 0 0 64ZM704 748 256 748C192 748 192 682.4 192 682.4L192 44c0-64 64-64 64-64l576 0c64 0 64 64 64 64L896 556 704 748zM768 108 320 108l0 64 448 0L768 108zM768 236 320 236 320 300l448 0L768 236zM768 364 320 364 320 428l448 0L768 364zM704 556 704 684l128-128L704 556z"  horiz-adv-x="1024" />

    
    <glyph glyph-name="bi40qietujiangxu" unicode="&#58938;" d="M64 44l384 0 0-128-384 0 0 128ZM64 364l640 0 0-128-640 0 0 128ZM64 684l896 0 0-128-896 0 0 128Z"  horiz-adv-x="1024" />

    
    <glyph glyph-name="bi40qietuketuozhuai" unicode="&#58939;" d="M64 620l896 0 0-128-896 0 0 128ZM64 364l896 0 0-128-896 0 0 128ZM64 108l896 0 0-128-896 0 0 128Z"  horiz-adv-x="1024" />

    
    <glyph glyph-name="bi40qietuliandong" unicode="&#58940;" d="M704 492 407.488 492 517.184 379.552 320 177.376 387.648 108 589.568 310.176 704 197.664ZM896 748 128 748C92.8 748 64 719.2 64 684l0-768c0-35.2 28.8-64 64-64l768 0c35.2 0 64 28.8 64 64L960 684C960 719.2 931.2 748 896 748zM832-20 192-20 192 620l640 0L832-20z"  horiz-adv-x="1024" />

    
    <glyph glyph-name="bi40qietuqingkong" unicode="&#58941;" d="M1028.8 321.056 638.72 711.2l-633.92-633.92L166.08-84 192-84l71.616 0 262.592 0 97.536 0L640-84l0 16.256L1028.8 321.056zM199.616-20l-97.28 97.216 292.544 292.608 292.608-292.608L590.208-20 199.616-20z"  horiz-adv-x="1029" />

    
    <glyph glyph-name="bi40qietushanchu" unicode="&#58942;" d="M576 684 576 748 384 748 384 684 128 684 128 556 832 556 832 684ZM192-20c0-70.4 57.6-128 128-128l320 0c70.4 0 128 57.6 128 128L768 492 192 492 192-20zM576 428l64 0 0-448L576-20 576 428zM448 428l64 0 0-448L448-20 448 428zM320 428l64 0 0-448L320-20 320 428z"  horiz-adv-x="1024" />

    
    <glyph glyph-name="bi40qietushengxu" unicode="&#58943;" d="M64 684l384 0 0-128-384 0 0 128ZM64 364l640 0 0-128-640 0 0 128ZM64 44l896 0 0-128-896 0 0 128Z"  horiz-adv-x="1024" />

    
    <glyph glyph-name="bi40qietushijian" unicode="&#58944;" d="M480 684C250.24 684 64 497.76 64 268S250.24-148 480-148 896 38.24 896 268 709.76 684 480 684zM480-84C285.632-84 128 73.568 128 268S285.632 620 480 620 832 462.432 832 268 674.368-84 480-84zM448 492l64 0 0-256-64 0 0 256ZM448 300l384 0 0-64-384 0 0 64Z"  horiz-adv-x="1024" />

    
    <glyph glyph-name="bi40qietushuzi" unicode="&#58945;" d="M128 556c0 0-64 0-64-64s0-64 0-64l64 0 0-448 64 0 0 0L192 556l0 0L128 556zM448 44 384 44l192 256L512 300l-192-256c0 0 0-64 64-64s192 0 192 0l0 64L448 44zM512 556C448 556 384 556 384 556S320 556 320 492s0-128 0-128l64 0L384 492l64 0 64 0 0-192 64 0L576 492C576 492 576 556 512 556zM832 556l-64 0c0 0-64 0-64-64s0-128 0-128l64 0L768 492l64 0 64 0 0-192-128 0 0-64 128 0 0-192-64 0-64 0 0 128-64 0c0 0 0-64 0-128s64-64 64-64l64 0 128 0L960 556 832 556z"  horiz-adv-x="1024" />

    
    <glyph glyph-name="bi40qietuwenzi" unicode="&#58946;" d="M256 620 128 620C92.8 620 64 591.2 64 556l0-512 64 0L128 300l128 0 0-256 64 0L320 556C320 591.2 291.2 620 256 620zM256 364 128 364 128 556l128 0L256 364zM960 556 960 620l-192 0c-35.2 0-64-28.8-64-64l0-448c0-35.2 28.8-64 64-64l192 0 0 64-192 0L768 556 960 556zM640 396 640 556c0 35.2-28.8 64-64 64L384 620l0-576 192 0c35.2 0 64 28.8 64 64L640 268c0 35.2-8.768 64-44.032 64C631.232 332 640 360.8 640 396zM576 108 448 108 448 300l128 0L576 108zM576 364 448 364 448 556l128 0L576 364z"  horiz-adv-x="1024" />

    
    <glyph glyph-name="bi40qietuzhongmingming" unicode="&#59015;" d="M512 684c211.712 0 384-172.288 384-384s-172.288-384-384-384c-211.712 0-384 172.288-384 384S300.288 684 512 684M512 748C264.576 748 64 547.424 64 300s200.576-448 448-448 448 200.576 448 448S759.424 748 512 748L512 748zM384 556l256 0 0-64-256 0 0 64ZM384 108l256 0 0-64-256 0 0 64ZM448 492l128 0 0-384-128 0 0 384Z"  horiz-adv-x="1024" />

    
    <glyph glyph-name="iconriqikongjian" unicode="&#58950;" d="M64 556l832 0 0-704L64-148 64 556zM832 812l0-64-128 0L704 812 256 812l0-64L128 748 128 812 0 812l0-1024 960 0L960 812 832 812zM128 236l128 0 0-128L128 108 128 236zM704 236l128 0 0-128-128 0L704 236zM512 236l128 0 0-128L512 108 512 236zM320 236l128 0 0-128L320 108 320 236zM512 44l128 0 0-128L512-84 512 44zM320 44l128 0 0-128L320-84 320 44zM128 44l128 0 0-128L128-84 128 44zM704 428l128 0 0-128-128 0L704 428zM512 428l128 0 0-128L512 300 512 428zM320 428l128 0 0-128L320 300 320 428z"  horiz-adv-x="1024" />

    
    <glyph glyph-name="icontianjia" unicode="&#58953;" d="M960 364 576 364 576 748 448 748 448 364 64 364 64 236 448 236 448-148 576-148 576 236 960 236Z"  horiz-adv-x="1024" />

    
    <glyph glyph-name="iconwenjianjia" unicode="&#58954;" d="M0 492l1024 0-64-640L64-148 0 492zM928 620 960 556 64 556l64 128 352 0L512 620 928 620z"  horiz-adv-x="1024" />

    
    <glyph glyph-name="iconxuanzhong" unicode="&#58956;" d="M896 556 832 620 384 300 192 428 128 364 384 44 896 556Z"  horiz-adv-x="1024" />

    
    <glyph glyph-name="iconjiacu" unicode="&#58957;" d="M631.68 354.848c24.768 28.16 40.32 64.704 40.32 105.152C672 548.384 600.384 620 512 620L256 620l0-64 64 0 0-512L256 44l0-64 320 0c106.048 0 192 85.952 192 192C768 258.528 710.4 330.848 631.68 354.848zM512 556c53.056 0 96-43.008 96-96C608 407.008 565.056 364 512 364L448 364 448 556 512 556zM576 44 448 44 448 300l128 0c70.656 0 128-57.28 128-128C704 101.344 646.656 44 576 44z"  horiz-adv-x="1024" />

    
    <glyph glyph-name="iconjingshi" unicode="&#58958;" d="M947.712-53.28 565.248 708.96C550.656 735.008 531.328 748 512 748 492.736 748 473.408 735.008 458.752 708.96L76.288-53.28C46.976-105.376 71.936-148 131.648-148l760.64 0C952.064-148 977.024-105.376 947.712-53.28zM576-20 448-20l0 128 128 0L576-20zM576 172 448 172 448 428l128 0L576 172z"  horiz-adv-x="1024" />

    
    <glyph glyph-name="iconjuzhongduiqi" unicode="&#58959;" d="M384 620l320 0 0-64-320 0 0 64ZM192 428l704 0 0-64-704 0 0 64ZM384 236l320 0 0-64-320 0 0 64ZM192 44l704 0 0-64-704 0 0 64Z"  horiz-adv-x="1024" />

    
    <glyph glyph-name="iconxiahuaxian" unicode="&#58960;" d="M576 620l0-384c0-35.328-43.008-64-96-64S384 200.672 384 236L384 620 256 620l0-384c0-82.496 100.288-149.312 224-149.312S704 153.504 704 236L704 620 576 620zM192 44l576 0 0-64-576 0 0 64Z"  horiz-adv-x="1024" />

    
    <glyph glyph-name="iconyouduiqi" unicode="&#58961;" d="M576 620l320 0 0-64-320 0 0 64ZM192 428l704 0 0-64-704 0 0 64ZM576 236l320 0 0-64-320 0 0 64ZM192 44l704 0 0-64-704 0 0 64Z"  horiz-adv-x="1024" />

    
    <glyph glyph-name="iconzitibeijing" unicode="&#58962;" d="M370.688 44l44.608 147.392L448 224.096 448 236 448 300 448 364 384 364 384 428 128 428l0-64 192 0 0-64L192 300 128 300l0-64L64 236l0-128 64 0 0-64 64 0 128 0L370.688 44zM192 236l128 0 0-128L192 108 192 236zM651.904 428 640 428 640 620 512 620 512 288.096ZM768 151.52 768 108 724.48 108 660.48 44 832 44 832 108 896 108 896 279.52ZM887.04 381.344 584.256 78.56 448 44 493.376 169.44 796.224 472.224ZM64-20l896 0 0-128-896 0 0 128Z"  horiz-adv-x="1024" />

    
    <glyph glyph-name="iconzitiyanse" unicode="&#58963;" d="M866.624 44 693.12 44l-45.376 128L406.656 172l-45.376-128L192 44 432.64 684l193.344 0L866.624 44zM607.36 300 527.232 533.408 447.04 300 607.36 300zM64-20l896 0 0-128-896 0 0 128Z"  horiz-adv-x="1024" />

    
    <glyph glyph-name="iconzuoduiqi" unicode="&#58964;" d="M192 620l320 0 0-64-320 0 0 64ZM192 428l704 0 0-64-704 0 0 64ZM192 236l320 0 0-64-320 0 0 64ZM192 44l704 0 0-64-704 0 0 64Z"  horiz-adv-x="1024" />

    
    <glyph glyph-name="iconurl" unicode="&#58965;" d="M384 748l153.984 0c150.976 0 224.576-81.088 224.576-253.312 0-102.336-28.672-184.704-109.824-229.632L789.952-148l-134.72 0L536.64 236 512 236l0-384L384-148 384 748zM512 364l20.992 0c88.512 0 102.336 39.36 102.336 128 0 89.856-15.04 128-108.608 128L512 620 512 364zM832 748l128 0 0-768 64 0 0-128-192 0L832 748zM192 748l0-768L128-20 128 748 0 748l0-704c0-106.048 53.952-192 160-192S320-62.048 320 44L320 748 192 748z"  horiz-adv-x="1024" />

    
    <glyph glyph-name="iconxieti" unicode="&#58966;" d="M384 620 384 556 512 556 384 44 256 44 256-20 640-20 640 44 512 44 640 556 768 556 768 620Z"  horiz-adv-x="1024" />

    
    <glyph glyph-name="iconwenzi" unicode="&#58967;" d="M832-148l128 0L562.496 748 463.616 748 64-148l128 0c0 0 48.896 115.008 108.416 256l423.424 0C783.296-33.056 832-148 832-148zM354.368 236C431.04 418.4 507.072 600.992 512 620c7.808-24.576 82.688-204.48 158.016-384L354.368 236z"  horiz-adv-x="1024" />

    
    <glyph glyph-name="iconanshijianpaixu" unicode="&#58968;" d="M512 748C264.576 748 64 547.424 64 300s200.576-448 448-448 448 200.576 448 448S759.424 748 512 748zM512-36c-185.536 0-336 150.464-336 336S326.464 636 512 636 848 485.536 848 300 697.536-36 512-36zM576 492 448 492 448 276.832 636.416 92.384 721.6 171.616 576 323.168Z"  horiz-adv-x="1024" />

    
    <glyph glyph-name="iconanzimupaixu" unicode="&#58969;" d="M64 172 384 172 64-20 64-148 512-148 512-20 192-20 512 172 512 300 64 300ZM192 748 128 748 64 748l0-384 128 0L192 428l192 0 0-64 128 0L512 620 512 748 384 748 192 748zM384 556 192 556 192 620l192 0L384 556zM832 108 832 748 704 748 704 108 576 108 768-148 960 108Z"  horiz-adv-x="1024" />

    
    <glyph glyph-name="iconfenxianggei" unicode="&#58970;" d="M768 236c-71.168 0-132.608-39.168-165.76-96.704l-166.208 96C443.328 255.584 448 277.152 448 300c0 19.2-3.648 37.312-8.896 54.848l168 96.96C641.28 399.072 700.48 364 768 364c106.048 0 192 85.952 192 192 0 106.048-85.952 192-192 192S576 662.048 576 556c0-15.552 2.368-30.4 5.824-44.864l-170.88-98.624C376.064 460.448 319.872 492 256 492 149.952 492 64 406.048 64 300c0-106.048 85.952-192 192-192 60.16 0 113.216 28.288 148.416 71.616l175.04-101.056C577.472 67.296 576 55.84 576 44c0-106.048 85.952-192 192-192s192 85.952 192 192C960 150.048 874.048 236 768 236zM768 652c52.928 0 96-43.072 96-96S820.928 460 768 460 672 503.072 672 556 715.072 652 768 652zM256 204C203.072 204 160 247.072 160 300S203.072 396 256 396 352 352.928 352 300 308.928 204 256 204zM768-52c-52.928 0-96 43.072-96 96s43.072 96 96 96 96-43.072 96-96S820.928-52 768-52z"  horiz-adv-x="1024" />

    
    <glyph glyph-name="iconwenjian" unicode="&#58971;" d="M640 748 128 748C64 748 64 682.4 64 682.4L64-84c0-64 64-64 64-64l704 0c64 0 64 64 64 64L896 492 640 748zM768 44 192 44l0 64 576 0L768 44zM768 172 192 172 192 236l576 0L768 172zM768 300 192 300 192 364l576 0L768 300zM640 492 640 684l192-192L640 492z"  horiz-adv-x="1024" />

    
    <glyph glyph-name="iconwenjianjia1" unicode="&#58972;" d="M928 684 512 684 480 748 128 748 64 620 960 620ZM0 556 64-84 960-84 1024 556Z"  horiz-adv-x="1024" />

    
    <glyph glyph-name="iconxinjianwenjianjia" unicode="&#58973;" d="M640 620 512 748 64 748l0-128 0-768 896 0L960 620 640 620zM832-20 192-20 192 492l640 0L832-20zM448 44 576 44 576 172 704 172 704 300 576 300 576 428 448 428 448 300 320 300 320 172 448 172Z"  horiz-adv-x="1024" />

    
    <glyph glyph-name="iconyidongdao" unicode="&#58974;" d="M672 620l-128 128L64 748l0-128 0-768 896 0L960 620 672 620zM832-20 192-20 192 492l640 0L832-20zM576 76 768 268 576 460 576 300 256 300 256 172 576 172Z"  horiz-adv-x="1024" />

    
    <glyph glyph-name="iconyulan" unicode="&#58975;" d="M512 620C288.704 620 95.104 489.952 0 300c95.104-189.952 288.704-320 512-320s416.896 130.048 512 320C928.896 489.952 735.296 620 512 620zM416 498.016c53.056 0 96-43.008 96-96 0-53.056-42.944-96-96-96S320 348.96 320 402.016C320 455.008 362.944 498.016 416 498.016zM764.416 149.664C688.896 101.472 601.536 76 512 76s-176.896 25.472-252.416 73.664C199.424 188.064 148.416 239.52 110.144 300c38.272 60.48 89.28 111.936 149.44 150.336 3.904 2.496 7.872 4.928 11.84 7.296C261.44 430.304 256 400.8 256 370.016c0-141.376 114.624-256 256-256s256 114.624 256 256c0 30.784-5.44 60.224-15.424 87.552 3.968-2.368 7.936-4.736 11.84-7.232 60.16-38.4 111.168-89.792 149.44-150.336C875.584 239.52 824.576 188.064 764.416 149.664z"  horiz-adv-x="1024" />

    
    <glyph glyph-name="iconbianliang" unicode="&#58976;" d="M384 364 448 364 448 492 576 492 576 364 640 364 640 492 832 492 832 556 576 556 576 620 448 620 448 556 192 556 192 492 384 492ZM256 428l64 0 0-64-64 0 0 64ZM192 364l64 0 0-64-64 0 0 64ZM704 428l64 0 0-64-64 0 0 64ZM768 364l64 0 0-64-64 0 0 64ZM576 236 576 172 704 172 704 236 768 236 768 300 256 300 256 236 320 236 320 172 448 172 448 236ZM576 108 576 172 512 172 448 172 448 108 512 108ZM320 108l128 0 0-64-128 0 0 64ZM576 108l128 0 0-64-128 0 0 64ZM192 44l128 0 0-64-128 0 0 64ZM704 44l128 0 0-64-128 0 0 64ZM64 748l0-896 896 0 0 896L64 748zM896-84l-768 0 0 768 768 0L896-84z"  horiz-adv-x="1024" />

    
    <glyph glyph-name="icontuozhuaishangxia" unicode="&#58977;" d="M512 236 448 236 448 44 256 44 480-148 704 44 512 44ZM448 428 512 428 512 620 704 620 480 812 256 620 448 620ZM192 364l576 0 0-64-576 0 0 64Z"  horiz-adv-x="1024" />

    
    <glyph glyph-name="icontuozhuaiyouxie" unicode="&#58978;" d="M471.296 385.952 244.992 612.256 380.8 748 64 748 64 431.2 199.744 567.008 426.048 340.704ZM365.969882 190.481357l256.004141 256.004141 45.2544-45.2544-256.004141-256.004141-45.2544 45.2544ZM822.656 34.656 607.04 250.208 561.792 204.96 777.344-10.656 640-148 960-148 960 172Z"  horiz-adv-x="1024" />

    
    <glyph glyph-name="icontuozhuaizuoxie" unicode="&#58979;" d="M352.96 314.208 137.344 98.656 0 236 0-84 320-84 182.656 53.344 398.208 268.96ZM548.457222 208.836102l-256.004141 256.004141 45.2544 45.2544 256.004141-256.004141-45.2544-45.2544ZM579.2 812 715.008 676.256 488.704 449.952 533.952 404.704 760.256 631.008 896 495.2 896 812Z"  horiz-adv-x="1024" />

    
    <glyph glyph-name="icontuozhuaizuoyou" unicode="&#58980;" d="M960 257.376 768 481.376 768 300 576 300 576 236 768 236 768 33.376ZM192 481.376 0 257.376 192 33.376 192 236 384 236 384 300 192 300ZM448 556l64 0 0-576-64 0 0 576Z"  horiz-adv-x="1024" />

    
    <glyph glyph-name="icontuozhuai" unicode="&#58981;" d="M960 332 768 556 768 364 640 364 576 364 512 364 512 620 448 620 448 364 192 364 192 556 0 332 192 108 192 300 448 300 448 236 448 236 448 44 256 44 480-148 704 44 512 44 512 236 512 236 512 300 576 300 640 300 768 300 768 108ZM480 812 256 620 704 620Z"  horiz-adv-x="1024" />

    
    <glyph glyph-name="iconjiangxuwuguolv" unicode="&#58982;" d="M728.064 236 576 236l0 403.968c0 17.984-14.528 44.032-32.512 44.032l-62.976 0c-17.984 0-32.512-26.112-32.512-44.032L448 236l-152.064 0c-16.064 0-25.024-24.384-14.976-36.928l216.064-272.96c7.68-9.6 22.272-11.072 29.952-1.472l216.064 275.136C753.088 212.32 744.192 236 728.064 236z"  horiz-adv-x="1024" />

    
    <glyph glyph-name="iconjiangxuyouguolv" unicode="&#58983;" d="M448 684 640 364 640-84 768 44 768 364 960 684ZM491.264 172 384 172l0 403.968c0 17.984-14.592 44.032-32.512 44.032l-62.976 0c-17.984 0-32.512-26.112-32.512-44.032L256 172l-107.264 0c-12.736 0-19.84-19.776-11.84-29.76l171.264-219.072c6.08-7.616 17.664-6.144 23.744 1.472l171.264 216.96C511.104 151.52 504 172 491.264 172z"  horiz-adv-x="1024" />

    
    <glyph glyph-name="iconshengxuwuguolv" unicode="&#58984;" d="M280.96 395.168l216.064 270.08c7.68 9.6 22.272 9.6 29.952 0l216.064-270.08c10.048-12.544 1.088-31.168-14.976-31.168l-432.128 0C279.808 364 270.912 382.624 280.96 395.168zM543.488-84l-62.976 0c-17.984 0-32.512 14.592-32.512 32.512L448 364l128 0 0-415.488C576-69.408 561.408-84 543.488-84z"  horiz-adv-x="1024" />

    
    <glyph glyph-name="iconshengxuyouguolv" unicode="&#58985;" d="M448 684 640 364 640-84 768 44 768 364 960 684ZM331.904 602.784c-6.08 7.616-17.664 7.616-23.744 0l-171.264-214.08c-8-9.984-0.896-24.704 11.84-24.704L256 364l0-415.488c0-17.984 14.528-32.512 32.512-32.512l62.976 0c17.984 0 32.512 14.592 32.512 32.512L384 364l107.264 0c12.736 0 19.84 14.784 11.84 24.704L331.904 602.784z"  horiz-adv-x="1024" />

    
    <glyph glyph-name="iconwupaixuwuguolv" unicode="&#58986;" d="M256 428 512 108 768 428Z"  horiz-adv-x="1024" />

    
    <glyph glyph-name="iconwupaixuyouguolv" unicode="&#58987;" d="M128 684 448 300 448-84 576 44 576 300 896 684Z"  horiz-adv-x="1024" />

    
    <glyph glyph-name="iconbupaixu" unicode="&#58988;" d="M384 236l0 11.008-128 128L256 236l-152.064 0c-16.064 0-25.024-23.68-14.976-36.224l216.064-275.136c7.68-9.6 22.272-8.192 29.952 1.472l163.456 206.464-103.424 103.424L384 236zM935.04 395.168l-216.064 270.08c-7.68 9.6-22.272 9.6-29.952 0l-160.576-200.704 100.544-100.544L640 364l0-11.008 128-128L768 364l152.064 0C936.192 364 945.088 382.624 935.04 395.168zM263.04 639.392c-25.024 25.024-65.472 25.024-90.496 0-25.024-25.024-25.024-65.472 0-90.496l588.352-588.288c12.48-12.48 28.864-18.752 45.248-18.752 16.384 0 32.768 6.272 45.248 18.752 25.024 25.024 25.024 65.472 0 90.496L263.04 639.392z"  horiz-adv-x="1024" />

    
    <glyph glyph-name="iconzidingyipaixu" unicode="&#58991;" d="M935.04 395.168l-216.064 270.08c-7.68 9.6-22.272 9.6-29.952 0l-216.064-270.08c-10.048-12.544-1.088-31.168 14.976-31.168l432.128 0C936.192 364 945.088 382.624 935.04 395.168zM672.512-84l62.976 0c17.984 0 32.512 14.592 32.512 32.512L768 364l-128 0 0-415.488C640-69.408 654.592-84 672.512-84zM551.04 199.072l-216.064-272.96c-7.68-9.6-22.272-11.072-29.952-1.472l-216.064 275.136c-10.048 12.544-1.088 36.224 14.976 36.224l432.128 0C552.192 236 561.088 211.616 551.04 199.072zM300.032 684l51.392 0c17.984 0 32.512-14.592 32.512-32.512L383.936 236l-128 0 0 403.968C256 664.16 275.84 684 300.032 684z"  horiz-adv-x="1024" />

    
    <glyph glyph-name="iconyewubao" unicode="&#58948;" d="M928 684 512 684 480 748 128 748 64 620 960 620ZM0 556 64-84 960-84 1024 556Z"  horiz-adv-x="1024" />

    
    <glyph glyph-name="iconmobanshaixuandianjishouqi" unicode="&#58949;" d="M480 492 224 236 288 172 480 385.312 672 172 736 236ZM480 812C214.912 812 0 597.088 0 332S214.912-148 480-148 960 66.912 960 332 745.088 812 480 812zM480-87.968c-231.616 0-419.968 188.416-419.968 419.968S248.384 751.968 480 751.968s419.968-188.416 419.968-419.968S711.616-87.968 480-87.968z"  horiz-adv-x="1024" />

    
    <glyph glyph-name="iconmobanshaixuandianjizhankai" unicode="&#58952;" d="M480 172 224 428 288 492 480 278.688 672 492 736 428ZM960 332C960 597.088 745.088 812 480 812S0 597.088 0 332 214.912-148 480-148 960 66.912 960 332zM899.968 332c0-231.616-188.416-419.968-419.968-419.968S60.032 100.384 60.032 332 248.384 751.968 480 751.968 899.968 563.616 899.968 332z"  horiz-adv-x="1024" />

    
    <glyph glyph-name="iconquxiaoguachushenqing" unicode="&#58955;" d="M839.1740947749441 861.1288882134602L184.82590522505592 861.1288882134602C177.32816555313008 861.1288882134602 171.19365127609984 861.0607269437155 171.19365127609984 853.4948260020449l0-932.9914602665491c0-4.9076114216241615 2.0448380923434004-7.565900941670584 5.043933961113722-7.565900941670584 1.635870473874721 0 3.5443860267285614 0.7497739671925803 5.589224119071963 2.4538057108120808L512 112.64998514603064l330.17319064371446-197.25871464139342c2.0448380923434004-1.635870473874721 3.953353645197242-2.4538057108120808 5.589224119071963-2.4538057108120808 2.999095868770321 0 5.043933961113722 2.726450789791201 5.043933961113722 7.565900941670584L852.8063487239002 853.4948260020449C852.8063487239002 861.0607269437155 846.67183444687 861.1288882134602 839.1740947749441 861.1288882134602L839.1740947749441 861.1288882134602z"  horiz-adv-x="1024" />

    
    <glyph glyph-name="iconshenqingguachu" unicode="&#58989;" d="M839.1740947749441 861.1288882134602L184.82590522505592 861.1288882134602C177.32816555313008 861.1288882134602 171.19365127609984 861.0607269437155 171.19365127609984 853.4948260020449l0-932.9914602665491c0-4.9076114216241615 2.0448380923434004-7.565900941670584 5.043933961113722-7.565900941670584 1.635870473874721 0 3.5443860267285614 0.7497739671925803 5.589224119071963 2.4538057108120808L512 112.64998514603064l330.17319064371446-197.25871464139342c2.0448380923434004-1.635870473874721 3.953353645197242-2.4538057108120808 5.589224119071963-2.4538057108120808 2.999095868770321 0 5.043933961113722 2.726450789791201 5.043933961113722 7.565900941670584L852.8063487239002 853.4948260020449C852.8063487239002 861.0607269437155 846.67183444687 861.1288882134602 839.1740947749441 861.1288882134602zM784.6450789791201 29.152429708675072l-237.67834760004797 141.97992487837683L512 192.0578643986995l-34.96673137907215-20.857348541902688L239.35492102087989 29.152429708675072 239.35492102087989 792.9676184686803l545.2901579582402 0L784.6450789791201 29.152429708675072zM430.206476306264 452.16126974478004C437.70421597818984 452.16126974478004 443.83873025521996 446.02675546774975 443.83873025521996 438.52901579582397l0-177.2193013364281C443.83873025521996 253.81197478747004 449.97324453225025 247.67746051043991 457.47098420417603 247.67746051043991l109.05803159164806 0C574.0267554677499 247.67746051043991 580.1612697447799 253.81197478747004 580.1612697447799 261.3097144593959L580.1612697447799 438.52901579582397C580.1612697447799 446.02675546774975 586.2957840218102 452.16126974478004 593.793523693736 452.16126974478004l109.05803159164806 0c7.497739671925804 0 9.883384112993104 4.839450151879382 5.316579040092843 10.837641889420023L515.408063487239 713.9687068344801C510.84125841433865 719.9668985720208 503.47984128190257 719.8305760325312 499.0493587484917 713.8323842949906L315.55922059554405 463.1352341736896C311.12873806213327 457.137042436149 313.6507050426901 452.16126974478004 321.14844471461595 452.16126974478004L430.206476306264 452.16126974478004z"  horiz-adv-x="1024" />

    
    <glyph glyph-name="iconxiangqing" unicode="&#58990;" d="M512 684c211.712 0 384-172.288 384-384s-172.288-384-384-384-384 172.288-384 384S300.288 684 512 684M512 748C264.576 748 64 547.424 64 300s200.576-448 448-448 448 200.576 448 448S759.424 748 512 748L512 748zM448 364l128 0 0-320-128 0 0 320ZM448 556l128 0 0-128-128 0 0 128Z"  horiz-adv-x="1024" />

    
    <glyph glyph-name="iconzhongmingming" unicode="&#58992;" d="M721.984 748C782.72 748 832 698.72 832 637.984c0-24.768-8.192-47.616-22.016-65.984l-44.032-44.032L611.968 682.016l44.032 44.032C674.368 739.808 697.216 748 721.984 748zM171.968 242.016 128 44l198.016 44.032 406.976 406.976L579.008 648.992 171.968 242.016zM619.968 498.016 311.936 190.048 274.048 227.936l308.032 307.968L619.968 498.016zM64-20l896 0 0-128-896 0 0 128Z"  horiz-adv-x="1024" />

    
    <glyph glyph-name="iconbaiduditu" unicode="&#58947;" d="M606.293333 117.856c46.378667 9.984 40.064 65.408 38.698667 77.525333-2.261333 18.688-24.234667 51.328-54.101333 48.768-37.546667-3.370667-43.008-57.6-43.008-57.6C542.762667 161.461333 560 107.872 606.293333 117.856zM655.530667 21.429333c-1.365333-3.882667-4.394667-13.866667-1.749333-22.528 5.162667-19.498667 22.101333-20.352 22.101333-20.352l24.277333 0 0 59.392-26.026667 0C662.442667 34.4 656.810667 25.312 655.530667 21.429333zM692.394667 210.826667c25.642667 0 46.336 29.482667 46.336 65.962667 0 36.437333-20.693333 65.92-46.336 65.92-25.557333 0-46.336-29.482667-46.336-65.92C646.016 240.309333 666.794667 210.826667 692.394667 210.826667zM802.730667 206.474667c34.261333-4.437333 56.277333 32.085333 60.629333 59.818667 4.48 27.648-17.621333 59.818667-41.856 65.322667-24.277333 5.589333-54.613333-33.322667-57.386667-58.709333C760.789333 241.845333 768.554667 210.869333 802.730667 206.474667zM886.656 43.616c0 0-52.992 41.002667-83.925333 85.290667-41.941333 65.322667-101.504 38.741333-121.429333 5.504-19.84-33.237333-50.773333-54.229333-55.125333-59.818667-4.437333-5.461333-64-37.632-50.773333-96.341333 13.226667-58.666667 59.648-57.557333 59.648-57.557333s34.218667-3.370667 73.898667 5.504c39.722667 8.789333 73.898667-2.218667 73.898667-2.218667s92.757333-31.061333 118.144 28.757333C926.336 12.597333 886.656 43.616 886.656 43.616zM727.936-45.386667l-60.288 0c-26.026667 5.205333-36.394667 22.954667-37.717333 25.984-1.28 3.072-8.661333 17.365333-4.778667 41.642667 11.264 36.437333 43.349333 39.04 43.349333 39.04l32.085333 0 0 39.466667 27.349333-0.426667L727.936-45.386667zM840.234667-44.96l-69.376 0c-26.88 6.912-28.16 26.026667-28.16 26.026667l0 76.757333 28.16 0.469333 0-68.992c1.706667-7.338667 10.837333-8.704 10.837333-8.704l28.586667 0 0 77.184 29.952 0L840.234667-44.96zM938.496 159.925333c0 13.269333-11.008 53.162667-51.84 53.162667-40.874667 0-46.378667-37.674667-46.378667-64.298667 0-25.386667 2.133333-60.885333 52.949333-59.733333C944.042667 90.165333 938.496 146.613333 938.496 159.925333zM464.512 73.568c4.181333-9.173333 10.624-16.384 19.370667-21.674667 8.746667-5.290667 18.133333-7.936 28.117333-7.936 9.984 0 19.370667 2.645333 28.117333 7.936 8.746667 5.290667 15.36 12.501333 19.797333 21.674667l3.328 7.082667c-12.885333 5.333333-24.618667 13.610667-34.090667 25.173333-22.101333 27.050667-27.733333 62.634667-23.552 86.912 3.968 33.408 25.216 88.832 81.621333 93.909333 2.346667 0.213333 4.693333 0.298667 6.997333 0.298667 3.242667 0 6.4-0.170667 9.514667-0.554667 3.882667 56.192 41.429333 98.944 88.704 98.944 4.608 0 8.96-0.938667 13.312-1.706667l5.888 12.458667c9.173333 19.456 13.738667 44.288 13.738667 74.581333 0 58.88-20.821333 109.184-62.506667 150.826667C621.184 663.178667 570.88 684 512 684c-58.88 0-109.184-20.821333-150.826667-62.506667C319.488 579.850667 298.666667 529.546667 298.666667 470.666667c0-30.293333 4.565333-55.168 13.738667-74.581333L464.512 73.568zM436.565333 546.101333c20.821333 20.821333 45.952 31.232 75.434667 31.232 29.44 0 54.570667-10.410667 75.434667-31.232 20.821333-20.821333 31.232-45.952 31.232-75.392 0-29.44-10.410667-54.570667-31.232-75.434667-20.821333-20.821333-45.994667-31.232-75.434667-31.232-29.44 0-54.570667 10.410667-75.434667 31.232-20.821333 20.821333-31.232 45.952-31.232 75.434667C405.333333 500.106667 415.744 525.237333 436.565333 546.101333zM558.976-84 85.333333-84l170.666667 256 114.901333 0 20.138667-42.666667-112.213333 0-113.792-170.666667 371.925333 0C542.293333-58.869333 549.888-72.949333 558.976-84z"  horiz-adv-x="1024" />

    
    <glyph glyph-name="iconbiaogeleixinghengxiangzhankai" unicode="&#58993;" d="M42.666667 684l0-768 938.666667 0 0 768L42.666667 684zM938.666667-41.333333l-853.333333 0 0 682.666667 853.333333 0L938.666667-41.333333zM341.333333 1.333333l-213.333333 0 0 597.333333 213.333333 0L341.333333 1.333333zM597.333333 214.666667l-213.333333 0 0 384 213.333333 0L597.333333 214.666667zM597.333333 1.333333l-213.333333 0 0 170.666667 213.333333 0L597.333333 1.333333zM896 428l-256 0 0 170.666667 256 0L896 428zM896 214.666667l-256 0 0 170.666667 256 0L896 214.666667zM896 1.333333l-256 0 0 170.666667 256 0L896 1.333333z"  horiz-adv-x="1024" />

    
    <glyph glyph-name="iconbiaogeleixingzongxiangzhankai" unicode="&#58994;" d="M42.666667 684l0-768 938.666667 0 0 768L42.666667 684zM938.666667-41.333333l-853.333333 0 0 682.666667 853.333333 0L938.666667-41.333333zM128 598.666667l0-170.666667 768 0 0 170.666667L128 598.666667zM277.333333 470.666667l-64 85.333333 128 0L277.333333 470.666667zM128 385.333333l0-170.666667 768 0 0 170.666667L128 385.333333zM490.666667 257.333333l-64 85.333333 128 0L490.666667 257.333333zM128 172l0-170.666667 768 0 0 170.666667L128 172zM704 44l-64 85.333333 128 0L704 44z"  horiz-adv-x="1024" />

    
    <glyph glyph-name="icongugeditu" unicode="&#58995;" d="M692.010667 266.805333c0-39.808 13.312-68.565333 39.552-85.461333 21.461333-13.824 46.421333-15.914667 59.349333-15.914667 3.157333 0 5.674667 0.128 7.424 0.256 0 0-4.096-26.752 15.744-53.248l-0.896 0c-34.389333 0-146.517333-7.168-146.517333-99.370667 0-93.781333 102.997333-98.56 123.648-98.56 1.621333 0 2.56 0.042667 2.56 0.042667 0.213333 0 1.706667-0.042667 4.224-0.042667 13.269333 0 47.530667 1.664 79.36 17.152 41.301333 20.053333 62.208 54.912 62.208 103.594667 0 47.061333-31.914667 75.093333-55.210667 95.530667-14.208 12.458667-26.496 23.253333-26.496 33.706667 0 10.666667 8.96 18.688 20.309333 28.842667 18.389333 16.426667 35.669333 39.808 35.669333 84.010667 0 38.869333-5.034667 64.938667-36.096 81.493333 3.242667 1.664 14.677333 2.858667 20.352 3.626667 16.810667 2.304 41.429333 4.906667 41.429333 18.645333l0 2.645333-122.624 0C814.805333 383.797333 692.010667 379.232 692.010667 266.805333zM889.984 26.464c2.346667-37.504-29.738667-65.194667-77.909333-68.693333-48.938667-3.584-89.216 18.432-91.562667 55.893333-1.152 18.005333 6.784 35.626667 22.272 49.706667 15.701333 14.250667 37.290667 22.997333 60.757333 24.746667 2.773333 0.170667 5.504 0.298667 8.277333 0.298667C857.088 88.416 887.765333 61.792 889.984 26.464zM857.941333 292.448c12.032-42.325333-6.144-86.570667-35.072-94.72-3.328-0.938667-6.784-1.408-10.24-1.408-26.538667 0-52.821333 26.837333-62.549333 63.786667-5.418667 20.778667-4.992 38.912 1.237333 56.362667 6.144 17.152 17.152 28.757333 31.018667 32.682667 3.328 0.938667 6.784 1.408 10.24 1.408C824.618667 350.56 845.226667 337.290667 857.941333 292.448zM464.512 73.568c4.181333-9.173333 10.624-16.384 19.370667-21.674667 8.746667-5.290667 18.133333-7.936 28.117333-7.936 9.984 0 19.370667 2.645333 28.117333 7.936 8.746667 5.290667 15.36 12.501333 19.797333 21.674667l81.578667 173.482667c-0.597333 6.314667-1.109333 12.757333-1.109333 19.712 0 67.328 32.597333 111.488 73.813333 137.685333 6.997333 18.176 11.136 39.722667 11.136 66.176 0 58.88-20.821333 109.184-62.506667 150.826667C621.184 663.178667 570.88 684 512 684c-58.88 0-109.184-20.821333-150.826667-62.506667C319.488 579.850667 298.666667 529.546667 298.666667 470.666667c0-30.293333 4.565333-55.168 13.738667-74.581333L464.512 73.568zM436.565333 546.101333c20.821333 20.821333 45.952 31.232 75.434667 31.232 29.44 0 54.570667-10.410667 75.434667-31.232 20.821333-20.821333 31.232-45.952 31.232-75.392 0-29.44-10.410667-54.570667-31.232-75.434667-20.821333-20.821333-45.994667-31.232-75.434667-31.232-29.44 0-54.570667 10.410667-75.434667 31.232-20.821333 20.821333-31.232 45.952-31.232 75.434667C405.333333 500.106667 415.744 525.237333 436.565333 546.101333zM633.301333 129.333333l20.053333 42.666667 14.378667 0c9.642667-13.44 20.693333-23.552 31.317333-31.018667-7.338667-3.498667-14.122667-7.424-20.608-11.648L633.301333 129.333333zM651.776-84 85.333333-84l170.666667 256 114.901333 0 20.138667-42.666667-112.213333 0-113.792-170.666667 460.458667 0C631.850667-57.674667 640.512-72.010667 651.776-84z"  horiz-adv-x="1024" />

    
    <glyph glyph-name="iconloudoutu" unicode="&#58996;" d="M853.333333 342.666667l-682.666667 0-85.333333 256 853.333333 0L853.333333 342.666667zM768 129.333333l-512 0-85.333333 170.666667 682.666667 0L768 129.333333zM768 86.666667l-512 0 85.333333-128 341.333333 0L768 86.666667z"  horiz-adv-x="1024" />

    
    <glyph glyph-name="iconxuansejiantoubai" unicode="&#58997;" d="M128 684 640-84 1152 684Z"  horiz-adv-x="1280" />

    
    <glyph glyph-name="iconxuansejiantouhei" unicode="&#58998;" d="M884.363636 718.909091 139.636364 300 884.363636-118.909091Z"  horiz-adv-x="1024" />

    
    <glyph glyph-name="icongisditu" unicode="&#58999;" d="M725.333333 513.333333c0-30.293333-4.565333-55.168-13.738667-74.581333l-151.68-322.517333c-4.437333-9.173333-11.050667-16.384-19.797333-21.674667-8.746667-5.290667-18.133333-7.936-28.117333-7.936-9.984 0-19.370667 2.645333-28.117333 7.936-8.746667 5.290667-15.189333 12.501333-19.370667 21.674667l-152.106667 322.517333C303.232 458.208 298.666667 483.04 298.666667 513.333333c0 58.88 20.821333 109.184 62.506667 150.826667 41.685333 41.685333 91.946667 62.506667 150.826667 62.506667 58.88 0 109.184-20.821333 150.826667-62.506667C704.512 622.517333 725.333333 572.213333 725.333333 513.333333zM587.434667 437.898667c20.821333 20.821333 31.232 45.952 31.232 75.434667 0 29.44-10.410667 54.570667-31.232 75.392-20.821333 20.821333-45.994667 31.232-75.434667 31.232-29.44 0-54.570667-10.410667-75.434667-31.232-20.821333-20.821333-31.232-45.952-31.232-75.392 0-29.44 10.410667-54.570667 31.232-75.434667 20.821333-20.821333 45.952-31.232 75.434667-31.232C541.44 406.666667 566.570667 417.077333 587.434667 437.898667zM768 214.666667l-114.645333 0-20.053333-42.666667 111.872 0 113.792-170.666667-693.888 0 113.792 170.666667 112.213333 0-20.138667 42.666667L256 214.666667l-170.666667-256 853.333333 0L768 214.666667z"  horiz-adv-x="1024" />

    
    <glyph glyph-name="iconshezhi" unicode="&#59000;" d="M503.808 493.664c-108.224 0-196.224-88-196.224-196.224 0-108.16 88-196.224 196.224-196.224 108.16 0 196.224 88 196.224 196.224C700.032 405.664 612.032 493.664 503.808 493.664L503.808 493.664 503.808 493.664 503.808 493.664zM503.808 153.568c-79.36 0-143.872 64.576-143.872 143.872 0 79.36 64.576 143.872 143.872 143.872 79.36 0 143.872-64.512 143.872-143.872C647.68 218.08 583.168 153.568 503.808 153.568L503.808 153.568 503.808 153.568 503.808 153.568zM936.192 389.856c-18.56 1.664-74.944 13.76-89.728 46.016-12.864 28.032 8.448 67.648 28.544 95.872l12.48 17.536-122.432 128.96-18.624-13.952c-16.832-12.608-71.744-45.184-103.04-30.336-25.152 11.968-32 54.976-33.344 88.96l-0.96 25.152L512 748.064l-97.088 0-1.024-25.152c-1.344-33.984-8.192-76.992-33.344-88.96-31.232-14.848-86.208 17.728-103.04 30.336l-18.688 13.952-122.432-128.96 12.48-17.536c20.096-28.224 41.408-67.776 28.608-95.808-14.72-32.192-69.824-44.16-89.792-46.08L64 387.68l0-78.656 0 0 0-96.256 23.808-2.176c19.968-1.92 75.136-13.888 89.792-46.08 12.8-28.032-8.512-67.584-28.608-95.808l-12.48-17.536 122.432-128.96 18.688 14.016c16.832 12.608 71.808 45.184 103.04 30.336 25.088-11.968 32-54.976 33.344-88.96l0.96-25.152L512-147.552l97.088 0 0.96 25.152c1.344 33.984 8.256 76.992 33.344 88.96 31.296 14.848 86.208-17.728 103.04-30.336l18.624-13.952 122.432 128.96-12.48 17.536c-20.16 28.224-41.472 67.84-28.608 95.872 14.784 32.256 71.168 44.288 89.728 46.016l23.808 2.176 0 95.488 0 0 0 79.488L936.192 389.856 936.192 389.856 936.192 389.856 936.192 389.856zM907.648 308.96 907.648 308.96l0-50.112c-32.256-6.848-87.04-25.088-108.8-72.512-16.704-36.48-9.472-80.128 21.504-130.048l-62.016-65.344c-30.208 18.304-88.512 45.824-137.28 22.784-34.304-16.256-54.912-52.864-61.376-109.056L512-95.328l-47.68 0c-6.464 56.192-27.072 92.8-61.376 109.056-48.704 23.04-107.072-4.416-137.28-22.784l-62.016 65.344c30.976 49.92 38.208 93.568 21.44 130.048-21.76 47.424-76.544 65.664-108.8 72.512l0 49.28 0 0 0 33.28c32.256 6.848 87.04 25.088 108.8 72.512 16.704 36.48 9.472 80.128-21.504 130.048l62.016 65.344c30.208-18.304 88.512-45.824 137.28-22.784 34.304 16.256 54.912 52.864 61.376 109.056L512 695.584l47.68 0c6.464-56.192 27.072-92.8 61.376-109.056 48.768-23.104 107.072 4.416 137.28 22.784l62.016-65.344c-30.976-49.92-38.208-93.568-21.504-130.048 21.76-47.424 76.544-65.664 108.8-72.512L907.648 308.96 907.648 308.96 907.648 308.96 907.648 308.96 907.648 308.96zM907.648 308.96"  horiz-adv-x="1024" />

    
    <glyph glyph-name="iconziduanguanlianshezhi" unicode="&#58951;" d="M914.432 505.792l-455.872-450.304c-75.52-74.56-198.016-74.56-273.536 0-75.52 74.624-75.52 195.584 0 270.144l410.304 405.312c50.368 49.728 131.968 49.728 182.4 0 50.368-49.728 50.368-130.368 0-180.096l-410.304-405.312c-25.152-24.896-65.984-24.896-91.2 0-25.216 24.896-25.216 65.216 0 90.048l364.736 360.256-45.632 44.992-364.736-360.256c-50.368-49.664-50.368-130.368 0-180.096 50.368-49.728 131.968-49.728 182.336 0l410.304 405.312c75.52 74.624 75.52 195.584 0 270.144-75.52 74.624-198.016 74.624-273.536 0l-433.088-427.712 1.6-1.6c-78.656-99.904-71.744-244.352 21.248-336.192 92.992-91.776 239.168-98.688 340.288-20.928l1.6-1.6 478.72 472.832L914.432 505.792 914.432 505.792 914.432 505.792zM914.432 505.792"  horiz-adv-x="1024" />

    
    <glyph glyph-name="suoding" unicode="&#59001;" d="M804.571429 457.142857 804.571429 749.714286c0 40.374857-32.768 73.142857-73.142857 73.142857L292.571429 822.857143C252.196571 822.857143 219.428571 790.089143 219.428571 749.714286l0-292.571429L146.285714 457.142857l0-512 731.428571 0L877.714286 457.142857 804.571429 457.142857zM365.714286 457.142857 365.714286 676.571429l292.571429 0 0-219.428571L365.714286 457.142857z"  horiz-adv-x="1024" />

    
    <glyph glyph-name="guolv" unicode="&#59002;" d="M128 762.667l320-384v-384l128 128v256l320 384z"  horiz-adv-x="1024" />

    
    <glyph glyph-name="iconbiaoge" unicode="&#59003;" d="M896 832 128 832C92.672 832 64 803.328 64 768l0-768c0-35.328 28.672-64 64-64l768 0c35.328 0 64 28.672 64 64L960 768C960 803.328 931.328 832 896 832zM384 384 384 512l256 0 0-128L384 384zM640 320l0-128L384 192 384 320 640 320zM128 512l192 0 0-128L128 384 128 512zM128 320l192 0 0-128L128 192 128 320zM128 0l0 128 192 0 0-128L128 0zM384 0l0 128 256 0 0-128L384 0zM896 0l-192 0 0 128 192 0L896 0zM896 192l-192 0L704 320l192 0L896 192zM896 384l-192 0L704 512l192 0L896 384z"  horiz-adv-x="1024" />

    
    <glyph glyph-name="iconloudoutu1" unicode="&#59004;" d="M85.333333 768 128 554.666667 896 554.666667 938.666667 768ZM213.333333 256 810.666667 256 896 512 128 512ZM341.333333 0 682.666667 0 810.666667 213.333333 213.333333 213.333333Z"  horiz-adv-x="1024" />

    
    <glyph glyph-name="iconyaochi" unicode="&#59005;" d="M672 832C512.96 832 384 703.04 384 544c0-31.168 6.208-60.608 15.36-88.704L64 64l0-72C64-38.976 89.024-64 120-64L192-64l0 64 128 0 0 128 128 0 0 128 64 0 31.488 31.488C582.336 268.032 625.6 256 672 256c159.04 0 288 128.96 288 288S831.04 832 672 832M672 384C583.616 384 512 455.616 512 544S583.616 704 672 704 832 632.384 832 544 760.384 384 672 384"  horiz-adv-x="1024" />

    
    <glyph glyph-name="icongis" unicode="&#59006;" d="M341.333333 554.666667l42.666667 0 0-42.666667-42.666667 0 0 42.666667ZM128 256 170.666667 256 170.666667 213.333333 298.666667 213.333333 341.333333 213.333333 384 213.333333 384 341.333333 384 384 256 384 256 341.333333 298.666667 341.333333 298.666667 256 213.333333 256 213.333333 298.666667 170.666667 298.666667 170.666667 512 213.333333 512 213.333333 554.666667 341.333333 554.666667 341.333333 597.333333 170.666667 597.333333 170.666667 554.666667 128 554.666667 128 512 85.333333 512 85.333333 298.666667 128 298.666667ZM597.333333 256 554.666667 256 554.666667 554.666667 597.333333 554.666667 597.333333 597.333333 426.666667 597.333333 426.666667 554.666667 469.333333 554.666667 469.333333 256 426.666667 256 426.666667 213.333333 597.333333 213.333333ZM853.333333 554.666667l42.666667 0 0-42.666667-42.666667 0 0 42.666667ZM853.333333 213.333333 853.333333 256 896 256 896 341.333333 896 384 853.333333 384 853.333333 426.666667 768 426.666667 768 469.333333 725.333333 469.333333 725.333333 554.666667 853.333333 554.666667 853.333333 597.333333 682.666667 597.333333 682.666667 554.666667 640 554.666667 640 426.666667 682.666667 426.666667 682.666667 384 768 384 768 341.333333 810.666667 341.333333 810.666667 256 682.666667 256 682.666667 213.333333ZM640 298.666667l42.666667 0 0-42.666667-42.666667 0 0 42.666667ZM0 768l0-725.333333 981.333333 0L981.333333 768 0 768zM938.666667 85.333333 42.666667 85.333333 42.666667 725.333333l896 0L938.666667 85.333333z"  horiz-adv-x="1024" />

    
    <glyph glyph-name="iconlingcunwei" unicode="&#59007;" d="M448 320l128 0 0-128-128 0 0 128ZM640 320l128 0 0-128-128 0 0 128ZM832 320l128 0 0-128-128 0 0 128ZM832 832 64 832l0-896 896 0 0 128L192 64 192 704l64 0 0-256 448 0L704 704l128 0 0-256 128 0L960 704 832 832zM640 512 512 512 512 704l128 0L640 512z"  horiz-adv-x="1024" />

    
    </font>
</defs>
</svg>
